#TITLE:Freedom Dive;
#SUBTITLE:;
#ARTIST:xi;
#TITLETRANSLIT:;
#SUBTITLETRANSLIT:;
#ARTISTTRANSLIT:;
#GENRE:;
#CREDIT:;
#BANNER:;
#BACKGROUND:background desuuu.jpg;
#LYRICSPATH:;
#CDTITLE:;
#MUSIC:Freedom Dive.mp3;
#OFFSET:-1.081000;
#SAMPLESTART:64.783997;
#SAMPLELENGTH:20.000000;
#SELECTABLE:YES;
#DISPLAYBPM:*;
#BPMS:0.000000=222.000000
,160.000000=240.000000
,164.000000=222.000000
,360.000000=225.000000
,396.000000=222.000000
,900.000000=224.000000
,932.000000=222.000000
,948.000000=888.000000
;
#STOPS:
;
#BGCHANGES:;
#KEYSOUNDS:;
#ATTACKS:;

//---------------dance-single - ----------------
#NOTES:
     dance-single:
     :
     Beginner:
     11:
     0.588615,0.847797,0.623053,0.326361,0.000000,1111.000000,943.000000,168.000000,88.000000,0.000000,0.000000,0.588615,0.847797,0.623053,0.326361,0.000000,1111.000000,943.000000,168.000000,88.000000,0.000000,0.000000:
// measure 0
2000
0000
0000
0000
,  // measure 1
3001
0100
0010
0001
,  // measure 2
0100
0010
0100
1000
,  // measure 3
0001
0010
0100
0100
,  // measure 4
1000
1000
0100
0010
,  // measure 5
0100
0010
1000
0001
,  // measure 6
1000
1000
0001
1000
,  // measure 7
0011
1000
1010
0010
,  // measure 8
1100
0101
1010
1001
,  // measure 9
0110
1000
0010
1000
,  // measure 10
0010
0100
0100
0010
,  // measure 11
0100
0010
0000
1000
,  // measure 12
0100
0011
0110
1010
,  // measure 13
0101
1000
0001
0100
,  // measure 14
1000
0100
0010
0100
,  // measure 15
0010
0001
0010
1000
,  // measure 16
1000
0001
1000
1000
,  // measure 17
0010
0001
0100
0010
,  // measure 18
1000
1000
0001
0010
,  // measure 19
0100
0010
0010
0001
,  // measure 20
0100
0100
0100
1000
,  // measure 21
1000
1000
0100
0100
,  // measure 22
0010
0001
0001
0010
,  // measure 23
0110
0011
1001
0011
,  // measure 24
0110
0011
1001
0011
,  // measure 25
0210
0001
2300
0010
,  // measure 26
3002
0010
0023
0100
,  // measure 27
0230
0001
0302
1000
,  // measure 28
2003
0001
3002
0100
,  // measure 29
0023
1000
0230
0000
,  // measure 30
0320
1000
2030
0010
,  // measure 31
3002
0100
0203
0001
,  // measure 32
2300
0001
3002
0100
,  // measure 33
2003
0010
3020
0001
,  // measure 34
2030
0100
3002
0010
,  // measure 35
0203
1000
0320
1000
,  // measure 36
0032
0010
2003
0001
,  // measure 37
3002
0100
0203
0001
,  // measure 38
0302
1000
2003
0001
,  // measure 39
3002
0100
0203
0010
,  // measure 40
0310
0110
1010
1010
,  // measure 41
0011
1010
0110
1001
,  // measure 42
1010
0110
1001
0110
,  // measure 43
1010
0001
0100
0010
,  // measure 44
0001
0001
0010
0001
,  // measure 45
0001
0001
0010
0100
,  // measure 46
0010
0010
0010
0001
,  // measure 47
0001
0001
0010
0001
,  // measure 48
0001
0010
0010
0001
,  // measure 49
0001
0100
0010
0001
,  // measure 50
1001
0001
1100
0010
,  // measure 51
0101
0010
0010
0001
,  // measure 52
0100
0010
0001
0001
,  // measure 53
0001
0001
0010
0001
,  // measure 54
0100
0001
0001
0100
,  // measure 55
0001
0001
0100
0001
,  // measure 56
0010
0001
0001
0100
,  // measure 57
0001
0100
0010
0100
,  // measure 58
0010
1001
1010
1001
,  // measure 59
0110
0010
0001
0101
,  // measure 60
1000
0010
1001
0100
,  // measure 61
0100
1100
1000
0001
,  // measure 62
0110
1000
0001
0010
,  // measure 63
0010
0100
1010
0010
,  // measure 64
0101
0101
0101
0101
,  // measure 65
1001
1010
1010
1010
,  // measure 66
0011
0001
0010
0100
,  // measure 67
1001
0001
0001
0100
,  // measure 68
0100
0001
0001
1000
,  // measure 69
1000
0010
0010
0001
,  // measure 70
0001
0100
0100
1000
,  // measure 71
1000
0010
0010
1000
,  // measure 72
1000
0001
0001
1000
,  // measure 73
1000
0010
0010
0100
,  // measure 74
0110
0110
0101
0101
,  // measure 75
0201
1000
0001
0010
,  // measure 76
0302
0100
1000
0010
,  // measure 77
2003
0001
0010
0001
,  // measure 78
3020
1000
0001
0001
,  // measure 79
2030
0001
0001
0010
,  // measure 80
3002
1000
1000
1000
,  // measure 81
2003
0010
0001
0010
,  // measure 82
3002
0010
0100
0100
,  // measure 83
0013
1000
0000
0001
0000
0010
0000
0100
,  // measure 84
0000
1000
0000
0100
0000
0010
0000
0100
,  // measure 85
0010
0100
0000
0010
0000
1000
0000
1000
,  // measure 86
0000
0001
0000
0001
0000
0010
0000
0100
,  // measure 87
0001
1000
0000
0100
0000
0001
0000
1000
,  // measure 88
0000
0001
0000
0010
0000
1000
0000
0100
,  // measure 89
0000
0001
0000
1000
0000
0001
0000
1000
,  // measure 90
0200
0001
0010
1000
,  // measure 91
2300
0001
0010
0001
,  // measure 92
3002
0100
0010
0100
,  // measure 93
2003
0100
0010
0100
,  // measure 94
3020
1000
0001
1000
,  // measure 95
0032
0010
1000
0100
,  // measure 96
0023
0001
1000
0100
,  // measure 97
0032
0100
1000
0100
,  // measure 98
0203
0000
0000
0000
,  // measure 99
0300
1000
0001
0001
,  // measure 100
0100
0100
0001
0100
,  // measure 101
0100
0001
0100
0010
,  // measure 102
0010
0001
0100
0010
,  // measure 103
0100
0010
0100
0010
,  // measure 104
0010
0100
0100
0100
,  // measure 105
0101
1001
0110
1010
,  // measure 106
0001
0100
0010
0001
,  // measure 107
0100
0100
0010
0010
,  // measure 108
0010
0001
0010
0100
,  // measure 109
0100
0100
0100
0100
,  // measure 110
0010
0100
0010
0100
,  // measure 111
0001
0010
0001
0001
,  // measure 112
0010
0001
0010
0100
,  // measure 113
0010
0100
1000
0010
,  // measure 114
0101
0101
1100
0101
,  // measure 115
0011
1000
0001
0001
,  // measure 116
0100
0100
0001
0100
,  // measure 117
0100
0001
0100
0010
,  // measure 118
0010
0001
0100
0010
,  // measure 119
0100
0010
0100
0010
,  // measure 120
1010
0100
0100
0100
,  // measure 121
1100
1000
0010
0110
,  // measure 122
1001
1100
1100
0011
,  // measure 123
1100
0100
0010
0100
,  // measure 124
0010
0001
0010
0100
,  // measure 125
0100
0100
0100
0100
,  // measure 126
0010
0100
0010
0100
,  // measure 127
0001
0010
0001
0001
,  // measure 128
0010
0001
0010
0100
,  // measure 129
0010
0100
1000
0010
,  // measure 130
0101
0101
1010
0011
,  // measure 131
1010
0011
0110
1010
,  // measure 132
1100
0011
1010
1100
,  // measure 133
0101
0011
1010
1010
,  // measure 134
0101
0101
0011
1010
,  // measure 135
0200
0010
0001
0010
,  // measure 136
0010
0010
1000
0001
,  // measure 137
0301
1000
0100
1000
,  // measure 138
0001
0100
1000
0001
,  // measure 139
1000
0100
0001
0100
,  // measure 140
1000
0001
0100
1000
,  // measure 141
0100
0001
1000
0100
,  // measure 142
0001
0100
1000
1000
,  // measure 143
0001
0001
1000
0100
,  // measure 144
1000
0001
0001
0100
,  // measure 145
1000
0100
0001
0100
,  // measure 146
0100
0001
0100
1000
,  // measure 147
0001
1000
0100
1000
,  // measure 148
0100
0001
0100
0001
,  // measure 149
0100
0001
1000
0100
,  // measure 150
0100
0001
0100
1000
,  // measure 151
1000
0100
1000
0100
,  // measure 152
1000
0001
0100
1000
,  // measure 153
0001
0100
0001
0100
,  // measure 154
0100
1000
1000
0001
,  // measure 155
0100
1000
0001
1000
,  // measure 156
0100
0001
0100
0100
,  // measure 157
0001
0100
1000
0100
,  // measure 158
0001
0200
0301
2000
,  // measure 159
3010
0001
0001
1000
,  // measure 160
1000
0100
0100
0001
,  // measure 161
1000
0100
0100
0001
,  // measure 162
0100
0001
1000
1000
,  // measure 163
0100
0001
0100
1000
,  // measure 164
0100
0001
0100
1000
,  // measure 165
0001
0001
1000
0100
,  // measure 166
0200
0301
0002
0013
,  // measure 167
0001
0100
0001
0100
,  // measure 168
1000
0100
0001
0100
,  // measure 169
1000
1000
0100
0001
,  // measure 170
0100
0100
0100
1000
,  // measure 171
0001
1000
0100
1000
,  // measure 172
0100
0001
1000
0100
,  // measure 173
1000
0001
1000
0100
,  // measure 174
0100
0020
0032
0203
,  // measure 175
0310
0001
0100
1000
,  // measure 176
0001
1000
0100
1000
,  // measure 177
0001
1000
0100
0001
,  // measure 178
0100
1000
0100
1000
,  // measure 179
1000
0001
0100
1000
,  // measure 180
0100
0001
0100
1000
,  // measure 181
1100
1001
1001
1001
,  // measure 182
1001
1001
1001
1001
,  // measure 183
0110
0011
0011
0011
,  // measure 184
0011
1001
1001
1001
,  // measure 185
0210
0001
2300
0010
,  // measure 186
3002
0010
0023
0100
,  // measure 187
0230
0001
0302
1000
,  // measure 188
2003
0001
3002
0100
,  // measure 189
0023
1000
0230
0001
,  // measure 190
0320
1000
2030
0010
,  // measure 191
3002
0100
0203
0001
,  // measure 192
2300
0001
3002
0100
,  // measure 193
2003
0010
3020
0001
,  // measure 194
2030
0100
3002
0010
,  // measure 195
0203
1000
0320
1000
,  // measure 196
0032
0010
2003
0001
,  // measure 197
3002
0100
0203
0001
,  // measure 198
0302
1000
2003
0001
,  // measure 199
3002
0100
0203
0010
,  // measure 200
0301
0110
0101
0101
,  // measure 201
0010
0010
0001
0001
,  // measure 202
1000
0010
0001
0100
,  // measure 203
0100
0100
1000
0001
,  // measure 204
0010
1000
0001
0010
,  // measure 205
0010
0100
0010
0010
,  // measure 206
0101
0101
0101
0101
,  // measure 207
1001
1010
1010
1010
,  // measure 208
0011
1001
1100
1100
,  // measure 209
0011
0001
0001
0100
,  // measure 210
0100
0001
0001
1000
,  // measure 211
1000
0010
0010
0001
,  // measure 212
0001
0100
0100
1000
,  // measure 213
1000
0010
0010
1000
,  // measure 214
1000
0001
0001
1000
,  // measure 215
1000
0010
0010
0100
,  // measure 216
0110
0110
0101
0101
,  // measure 217
0110
0100
1000
1010
,  // measure 218
0001
0100
0001
0010
,  // measure 219
0010
0001
0001
1000
,  // measure 220
0010
0001
1000
0100
,  // measure 221
0100
0010
0001
0100
,  // measure 222
1010
1010
1010
1010
,  // measure 223
1001
0101
0101
0101
,  // measure 224
1100
1010
0011
0101
,  // measure 225
0100
1000
1000
0010
,  // measure 226
0010
1000
0001
0001
,  // measure 227
0001
0100
0100
1000
,  // measure 228
0010
0010
0010
0001
,  // measure 229
0001
0100
0001
0001
,  // measure 230
0001
1000
1000
0001
,  // measure 231
0001
0100
0100
0010
,  // measure 232
0110
0110
1010
1010
,  // measure 233
1100
0011
1100
0011
,  // measure 234
1100
0011
1100
0011
,  // measure 235
1100
0011
1100
0011
,  // measure 236
1100
0011
1100
0011
,  // measure 237
2002
0000
0000
0000
,  // measure 238
0000
0000
0000
0000
,  // measure 239
0000
0000
0000
0000
,  // measure 240
0000
0000
0000
0000
,  // measure 241
0000
0000
0000
0000
,  // measure 242
0000
0000
0000
0000
,  // measure 243
0000
0000
0000
0000
,  // measure 244
0000
0000
0000
0000
,  // measure 245
0000
0000
0000
0000
,  // measure 246
0000
0000
0000
0000
,  // measure 247
0000
0000
0000
0000
,  // measure 248
0000
0000
0000
0000
,  // measure 249
0000
0000
0000
0000
,  // measure 250
0000
0000
0000
0000
,  // measure 251
0000
0000
0000
0000
,  // measure 252
0000
0000
0000
0000
,  // measure 253
0000
0000
0000
0000
,  // measure 254
3003
0000
0000
0000
;

//---------------dance-single - ----------------
#NOTES:
     dance-single:
     :
     Easy:
     17:
     0.872592,1.037726,0.437621,0.241062,0.404243,1647.000000,1527.000000,118.000000,65.000000,104.000000,26.000000,0.872592,1.037726,0.437621,0.241062,0.404243,1647.000000,1527.000000,118.000000,65.000000,104.000000,26.000000:
// measure 0
22MM
0000
0000
0000
0000
0000
0000
0000
00MM
0000
0000
0000
0000
0000
0000
3300
,  // measure 1
01MM
1000
0001
1000
0000
1000
0001
0010
,  // measure 2
0100
1000
0010
1000
0100
0010
1000
0100
,  // measure 3
0001
1000
0010
0001
0000
0001
0100
0010
,  // measure 4
1000
0100
1000
0001
0100
1000
0010
1000
,  // measure 5
0100
0001
0010
1000
0000
1000
0001
0010
,  // measure 6
1000
0100
1000
0100
0001
0010
1000
0100
,  // measure 7
0011
0010
1000
0100
1010
0100
0010
1000
,  // measure 8
1100
1100
1100
1100
,  // measure 9
1100
0010
1000
0100
0010
0001
0000
0100
,  // measure 10
0010
1000
0100
1000
0100
0001
0010
1000
,  // measure 11
0100
0001
0010
1000
0000
0010
1000
0010
,  // measure 12
0100
0000
1000
0000
0011
0000
0100
0000
0011
0000
0000
0011
0000
0000
0011
0000
,  // measure 13
0100
0010
1000
0100
0000
1000
0100
0001
,  // measure 14
1000
0010
0100
1000
0010
1000
0100
0001
,  // measure 15
0010
1000
0001
0010
0000
0100
1000
0010
,  // measure 16
1000
0100
0001
0010
1000
0100
1000
0100
,  // measure 17
0010
0100
0001
0010
0000
1000
0010
0100
,  // measure 18
1000
0100
1000
0100
0001
1000
0010
1000
,  // measure 19
0100
0001
0010
1000
0000
0010
0001
1000
,  // measure 20
0100
1000
0100
0001
0100
0010
1000
0100
,  // measure 21
1000
0001
1000
0010
0100
1000
0100
0001
,  // measure 22
0010
0100
0001
0010
0001
1000
0010
1000
,  // measure 23
0110
0011
1001
0011
,  // measure 24
0110
0011
1001
0011
,  // measure 25
0110
0000
0000
0100
0000
0000
1000
0000
0000
0010
0000
0000
1000
0000
0000
0001
,  // measure 26
0000
0000
0100
0000
0000
1000
0000
0000
0001
0000
0000
0010
0000
0000
0010
0000
,  // measure 27
0000
0010
0000
0000
0001
0000
0000
0001
0000
0000
1000
0000
0000
0100
0000
0000
,  // measure 28
0010
0000
0000
0001
0000
0000
1000
0000
0000
0100
0000
0000
0100
0000
0000
0100
,  // measure 29
0000
0000
0010
0000
0000
0100
0000
0000
0001
0000
0000
0100
0000
0000
1000
0000
,  // measure 30
0010
1000
0010
1000
0010
1000
0010
1000
,  // measure 31
0001
0100
0001
0100
0001
0100
0001
0100
,  // measure 32
1000
0001
1000
0010
0001
0100
0001
0100
,  // measure 33
1000
0000
0000
1000
0000
0000
1000
0000
0000
0010
0000
0000
0010
0000
0000
0010
,  // measure 34
0000
0000
1000
0000
0000
1000
0000
0000
0001
0000
0000
0001
0000
0000
0001
0000
,  // measure 35
0000
0100
0000
0000
0100
0000
0000
0100
0000
0000
1000
0000
0000
1000
0000
0000
,  // measure 36
0010
0000
0000
0010
0000
0000
0010
0000
0000
0001
0000
0000
0001
0000
0000
0001
,  // measure 37
0000
0000
0100
0000
0000
0100
0000
0000
0001
0000
0000
0001
0000
0000
0001
0000
,  // measure 38
0000
1000
0000
0000
1000
0000
0000
1000
0000
0000
0001
0000
0000
0001
0000
0000
,  // measure 39
0001
0000
0000
0100
0000
0000
0100
0000
0000
0010
0000
0000
0010
0000
0000
0000
,  // measure 40
0110
0110
1010
1010
,  // measure 41
1111
1010
0110
1001
,  // measure 42
1010
0110
1001
0110
,  // measure 43
1010
0001
1000
0100
0100
0100
0010
0100
,  // measure 44
0001
0010
0001
0010
0100
0100
0001
0001
,  // measure 45
0100
0100
0001
0010
0010
0100
1000
0100
,  // measure 46
0010
0100
0010
0100
0010
0001
0010
0010
,  // measure 47
0001
0100
0001
0100
0010
0100
0001
0001
,  // measure 48
0100
0010
0010
0010
0010
0001
1000
0001
,  // measure 49
1000
0100
1000
0100
0010
0001
0100
0001
,  // measure 50
0100
0001
0100
0100
1000
0010
0010
0001
,  // measure 51
0100
0010
0100
0010
0100
0100
0001
0100
,  // measure 52
0100
0100
0010
1000
0001
0001
1000
0001
,  // measure 53
0001
0001
0010
0010
0100
0010
0001
1000
,  // measure 54
0100
0001
1000
0001
0100
0100
0100
0001
,  // measure 55
0100
1000
0001
1000
0100
0100
0001
0010
,  // measure 56
0100
0010
0001
0001
0001
0100
0100
0100
,  // measure 57
0001
0100
0100
0100
0010
0100
0100
0010
,  // measure 58
0010
0001
0100
0010
0100
0001
0100
0100
,  // measure 59
0110
0000
0000
0010
0000
0000
0001
0000
0000
0100
0000
0000
0001
0000
0000
1000
,  // measure 60
0000
0000
0010
0000
0000
0001
0000
0000
1000
0000
0000
0100
0000
0000
0100
0000
,  // measure 61
0000
0100
0000
0000
1000
0000
0000
1000
0000
0000
0001
0000
0000
0010
0000
0000
,  // measure 62
0100
0000
0000
1000
0000
0000
0001
0000
0000
0010
0000
0000
0010
0000
0000
0010
,  // measure 63
0000
0000
0100
0000
0000
0010
0000
0000
1000
0000
0000
0010
0000
0000
0001
0000
,  // measure 64
0100
0001
0100
0001
0100
0001
0100
0001
,  // measure 65
1000
0010
1000
0010
1000
0010
1000
0010
,  // measure 66
0001
0100
0001
0010
1000
0100
1000
0010
,  // measure 67
0001
0000
0000
0001
0000
0000
0001
0000
0000
0100
0000
0000
0100
0000
0000
0100
,  // measure 68
0000
0000
0001
0000
0000
0001
0000
0000
1000
0000
0000
1000
0000
0000
1000
0000
,  // measure 69
0000
0010
0000
0000
0010
0000
0000
0010
0000
0000
0001
0000
0000
0001
0000
0000
,  // measure 70
0100
0000
0000
0100
0000
0000
0100
0000
0000
1000
0000
0000
1000
0000
0000
1000
,  // measure 71
0000
0000
0010
0000
0000
0010
0000
0000
1000
0000
0000
1000
0000
0000
1000
0000
,  // measure 72
0000
0001
0000
0000
0001
0000
0000
0001
0000
0000
1000
0000
0000
1000
0000
0000
,  // measure 73
1000
0000
0000
0010
0000
0000
0010
0000
0000
0100
0000
0000
0100
0000
0000
0000
,  // measure 74
0110
0110
0101
0101
,  // measure 75
0201
0000
1000
0001
0010
1000
0010
0001
,  // measure 76
0320
0100
1000
0001
1000
0100
1000
0100
,  // measure 77
2030
0001
0100
0010
0100
0001
0100
0010
,  // measure 78
3200
0010
1000
0001
1000
0010
0001
0010
,  // measure 79
2300
0001
0100
0001
0100
0010
0100
0001
,  // measure 80
3020
1000
0100
1000
0001
1000
0001
0100
,  // measure 81
2030
0100
0010
0100
0001
0100
0010
0100
,  // measure 82
3002
0010
0100
1000
0100
1000
0100
0010
,  // measure 83
1013
0001
0100
0001
0100
0010
0001
0100
,  // measure 84
0010
1000
0100
1000
0001
1000
0001
1000
,  // measure 85
0110
0010
0100
1000
0100
1000
0001
1000
,  // measure 86
0010
0100
0010
1000
0100
0001
0100
0010
,  // measure 87
0011
1000
0100
1000
0100
0001
0010
1000
,  // measure 88
1010
0001
1000
0010
0100
1000
0100
0001
,  // measure 89
1010
0011
1100
1010
,  // measure 90
0210
0001
0010
1000
,  // measure 91
2300
0001
0010
0001
,  // measure 92
3002
0100
0010
0100
,  // measure 93
2003
0100
0010
0100
,  // measure 94
3020
1000
0001
1000
,  // measure 95
0032
0010
1000
0100
,  // measure 96
0023
0001
1000
0100
,  // measure 97
0032
0100
1000
0100
,  // measure 98
2203
0000
0000
0000
0000
0000
0000
3300
,  // measure 99
0011
0000
0000
1000
0000
0000
0001
0000
0000
0001
0000
0000
0100
0000
0000
0100
,  // measure 100
0000
0000
0100
0000
0000
0001
0000
0000
0001
0000
0000
0100
0000
0000
0100
0000
,  // measure 101
0000
0010
0000
0000
0001
0000
0000
0100
0000
0000
0010
0000
0000
0010
0000
0000
,  // measure 102
0100
0000
0000
0001
0000
0000
0100
0000
0000
0010
0000
0000
0100
0000
0000
0100
,  // measure 103
0000
0000
0010
0000
0000
1000
0000
0000
0100
0000
0000
0010
0000
0000
1000
0000
,  // measure 104
0010
0100
0100
0100
0100
0100
0100
1000
,  // measure 105
0100
1000
1000
0010
0010
0010
0100
1000
,  // measure 106
0001
0010
1000
0100
0010
0100
0001
1000
,  // measure 107
0100
0000
0000
0100
0000
0000
0010
0000
0000
0100
0000
0000
0010
0000
0000
0010
,  // measure 108
0000
0000
0001
0000
0000
0100
0000
0000
0010
0000
0000
0100
0000
0000
0100
0000
,  // measure 109
0000
0100
0000
0000
0100
0000
0000
0100
0000
0000
0100
0000
0000
0010
0000
0000
,  // measure 110
0010
0000
0000
0100
0000
0000
0010
0000
0000
0100
0000
0000
1000
0000
0000
0001
,  // measure 111
0000
0000
0010
0000
0000
0001
0000
0000
0010
0000
0000
0001
0000
0000
0010
0000
,  // measure 112
0000
0001
0000
0000
0100
0000
0000
0010
0000
0000
0100
0000
0000
0010
0000
0000
,  // measure 113
0010
0000
0000
0100
0000
0000
1000
0000
0000
0010
0000
0000
0010
0000
0000
0000
,  // measure 114
0101
0000
0101
0000
1100
0000
0101
0010
,  // measure 115
0011
0000
0000
1000
0000
0000
0001
0000
0000
0001
0000
0000
0100
0000
0000
0100
,  // measure 116
0000
0000
0100
0000
0000
0001
0000
0000
0001
0000
0000
0100
0000
0000
0100
0000
,  // measure 117
0000
0010
0000
0000
0001
0000
0000
0100
0000
0000
0010
0000
0000
0010
0000
0000
,  // measure 118
0100
0000
0000
0001
0000
0000
0100
0000
0000
0010
0000
0000
0100
0000
0000
0100
,  // measure 119
0000
0000
0010
0000
0000
1000
0000
0000
0100
0000
0000
0010
0000
0000
1000
0000
,  // measure 120
0010
0100
0100
0100
0100
0100
0100
1000
,  // measure 121
0100
1000
1000
0010
0010
0010
0100
1000
,  // measure 122
0001
1000
0100
1000
0100
0010
0001
1000
,  // measure 123
0100
0000
0000
0100
0000
0000
0010
0000
0000
0100
0000
0000
0010
0000
0000
0010
,  // measure 124
0000
0000
0001
0000
0000
0100
0000
0000
0010
0000
0000
0100
0000
0000
0100
0000
,  // measure 125
0000
0100
0000
0000
0100
0000
0000
0100
0000
0000
0100
0000
0000
0010
0000
0000
,  // measure 126
0010
0000
0000
0100
0000
0000
0010
0000
0000
0100
0000
0000
1000
0000
0000
0001
,  // measure 127
0000
0000
0010
0000
0000
0001
0000
0000
0010
0000
0000
0001
0000
0000
0010
0000
,  // measure 128
0000
0001
0000
0000
0100
0000
0000
0010
0000
0000
0100
0000
0000
0010
0000
0000
,  // measure 129
0010
0000
0000
0100
0000
0000
1000
0000
0000
0010
0000
0000
0010
0000
0000
0000
,  // measure 130
0101
0010
0101
0010
1100
0010
0101
0010
,  // measure 131
1010
0011
0110
1010
,  // measure 132
1100
0011
1010
1100
,  // measure 133
0101
0011
1010
1010
,  // measure 134
0101
0101
0011
1010
,  // measure 135
0200
1000
0010
1000
0001
0010
1000
0010
,  // measure 136
1000
0010
0001
1000
0010
0001
0010
0001
,  // measure 137
0310
0100
1000
0100
0010
1000
0100
0001
,  // measure 138
0100
1000
0010
1000
0100
0001
0010
1000
,  // measure 139
0100
1000
0010
0001
0100
0010
1000
0100
,  // measure 140
1000
0001
0100
1000
0010
1000
0100
1000
,  // measure 141
0010
0001
0100
1000
0100
1000
0010
0100
,  // measure 142
0001
0010
1000
0100
1000
0100
1000
0010
,  // measure 143
0001
0010
0001
0100
1000
0010
1000
0100
,  // measure 144
1000
0010
0001
0100
0001
1000
0010
1000
,  // measure 145
0100
1000
0010
0001
0100
1000
0010
1000
,  // measure 146
0010
0100
0001
0010
1000
0100
1000
0010
,  // measure 147
0001
0100
1000
0010
1000
0100
1000
0010
,  // measure 148
0100
0001
0100
0010
1000
0001
1000
0100
,  // measure 149
0010
1000
0001
0100
1000
0010
1000
0010
,  // measure 150
0100
0001
0100
1000
0010
1000
0100
1000
,  // measure 151
1100
0100
0010
1000
0100
1000
0010
1000
,  // measure 152
0100
0001
0100
0010
1000
0100
1000
0010
,  // measure 153
0001
0100
0010
1000
0001
1000
0010
0100
,  // measure 154
0010
1000
0100
1000
0100
0001
0100
0010
,  // measure 155
1000
0100
1000
0001
0010
0100
1000
0010
,  // measure 156
1000
0100
0001
0010
1000
0010
1000
0100
,  // measure 157
0001
0100
0010
1000
0100
1000
0010
0001
,  // measure 158
0100
0010
0201
0000
0321
0000
2130
0000
,  // measure 159
3100
0001
0010
0100
0001
0100
1000
0100
,  // measure 160
1000
0010
1000
0100
0010
1000
0001
0100
,  // measure 161
1000
0010
1000
0010
0100
0001
0100
1000
,  // measure 162
0010
1000
0001
0100
1000
0100
1000
0010
,  // measure 163
0100
0001
0100
1000
0010
1000
0100
1000
,  // measure 164
0010
0001
0100
1000
0010
1000
0100
0010
,  // measure 165
0001
0010
0001
0100
1000
0010
1000
0010
,  // measure 166
1200
0321
0132
2013
,  // measure 167
3001
0100
0010
0001
0100
1000
0010
1000
,  // measure 168
0100
1000
0010
0001
0100
1000
0010
1000
,  // measure 169
0100
1000
0100
0010
1000
0001
0100
1000
,  // measure 170
0010
1000
0010
0100
0010
0100
1000
0010
,  // measure 171
0001
0100
1000
0010
1000
0100
1000
0010
,  // measure 172
0100
0010
0001
0100
1000
0010
1000
0100
,  // measure 173
1000
0010
0001
0100
1000
0010
1000
0010
,  // measure 174
0100
0001
0120
0000
0132
0000
1203
0000
,  // measure 175
0310
0001
1000
0010
1000
0100
1000
0010
,  // measure 176
0001
0100
1000
0010
1000
0100
1000
0010
,  // measure 177
0001
0100
1000
0010
0100
0001
0010
1000
,  // measure 178
0010
1000
0100
1000
0010
0100
1000
0100
,  // measure 179
1000
0010
0001
0100
0010
1000
0100
1000
,  // measure 180
0010
0001
0100
1000
0010
1000
0100
1000
,  // measure 181
0100
0001
1000
0001
1000
0001
1000
0001
,  // measure 182
1000
0001
1000
0001
1000
0001
1000
0001
,  // measure 183
0001
0010
0001
0010
0001
0010
0001
0010
,  // measure 184
0001
1000
0001
1000
0001
1000
0001
1000
,  // measure 185
0010
0000
0000
0010
0000
0000
0001
0000
0000
0100
0000
0000
0001
0000
0000
1000
,  // measure 186
0000
0000
0010
0000
0000
0001
0000
0000
1000
0000
0000
0100
0000
0000
0100
0000
,  // measure 187
0000
0100
0000
0000
1000
0000
0000
1000
0000
0000
0001
0000
0000
0010
0000
0000
,  // measure 188
0100
0000
0000
1000
0000
0000
0001
0000
0000
0010
0000
0000
0010
0000
0000
0010
,  // measure 189
0000
0000
0100
0000
0000
0010
0000
0000
1000
0000
0000
0010
0000
0000
0001
0000
,  // measure 190
0100
0001
0100
0001
0100
0001
0100
0001
,  // measure 191
1000
0010
1000
0010
1000
0010
1000
0010
,  // measure 192
0001
1000
0001
0100
1000
0100
1000
0010
,  // measure 193
0001
0000
0000
0001
0000
0000
0001
0000
0000
0100
0000
0000
0100
0000
0000
0100
,  // measure 194
0000
0000
0001
0000
0000
0001
0000
0000
1000
0000
0000
1000
0000
0000
1000
0000
,  // measure 195
0000
0010
0000
0000
0010
0000
0000
0010
0000
0000
0001
0000
0000
0001
0000
0000
,  // measure 196
0100
0000
0000
0100
0000
0000
0100
0000
0000
1000
0000
0000
1000
0000
0000
1000
,  // measure 197
0000
0000
0010
0000
0000
0010
0000
0000
1000
0000
0000
1000
0000
0000
1000
0000
,  // measure 198
0000
0001
0000
0000
0001
0000
0000
0001
0000
0000
1000
0000
0000
1000
0000
0000
,  // measure 199
1000
0000
0000
0010
0000
0000
0010
0000
0000
0100
0000
0000
0100
0000
0000
0000
,  // measure 200
0110
0110
0101
0101
,  // measure 201
0110
0000
0000
0010
0000
0000
0001
0000
0000
0100
0000
0000
0001
0000
0000
1000
,  // measure 202
0000
0000
0010
0000
0000
0001
0000
0000
1000
0000
0000
0100
0000
0000
0100
0000
,  // measure 203
0000
0100
0000
0000
1000
0000
0000
1000
0000
0000
0001
0000
0000
0010
0000
0000
,  // measure 204
0100
0000
0000
1000
0000
0000
0001
0000
0000
0010
0000
0000
0010
0000
0000
0010
,  // measure 205
0000
0000
0100
0000
0000
0010
0000
0000
1000
0000
0000
0010
0000
0000
0001
0000
,  // measure 206
0100
0001
0100
0001
0100
0001
0100
0001
,  // measure 207
1000
0010
1000
0010
1000
0010
1000
0010
,  // measure 208
0001
1000
0001
0100
1000
0100
1000
0010
,  // measure 209
0001
0000
0000
0001
0000
0000
0001
0000
0000
0100
0000
0000
0100
0000
0000
0100
,  // measure 210
0000
0000
0001
0000
0000
0001
0000
0000
1000
0000
0000
1000
0000
0000
1000
0000
,  // measure 211
0000
0010
0000
0000
0010
0000
0000
0010
0000
0000
0001
0000
0000
0001
0000
0000
,  // measure 212
0100
0000
0000
0100
0000
0000
0100
0000
0000
1000
0000
0000
1000
0000
0000
1000
,  // measure 213
0000
0000
0010
0000
0000
0010
0000
0000
1000
0000
0000
1000
0000
0000
1000
0000
,  // measure 214
0000
0001
0000
0000
0001
0000
0000
0001
0000
0000
1000
0000
0000
1000
0000
0000
,  // measure 215
1000
0000
0000
0010
0000
0000
0010
0000
0000
0100
0000
0000
0100
0000
0000
0000
,  // measure 216
0110
0110
0101
0101
,  // measure 217
0110
0000
0000
0100
0000
0000
1000
0000
0000
0010
0000
0000
1000
0000
0000
0001
,  // measure 218
0000
0000
0100
0000
0000
1000
0000
0000
0001
0000
0000
0010
0000
0000
0010
0000
,  // measure 219
0000
0010
0000
0000
0001
0000
0000
0001
0000
0000
1000
0000
0000
0100
0000
0000
,  // measure 220
0010
0000
0000
0001
0000
0000
1000
0000
0000
0100
0000
0000
0100
0000
0000
0100
,  // measure 221
0000
0000
0010
0000
0000
0100
0000
0000
0001
0000
0000
0100
0000
0000
1000
0000
,  // measure 222
0010
1000
0010
1000
0010
1000
0010
1000
,  // measure 223
0001
0100
0001
0100
0001
0100
0001
0100
,  // measure 224
1000
0010
1000
0010
0001
0100
0001
0100
,  // measure 225
1000
0000
0000
1000
0000
0000
1000
0000
0000
0010
0000
0000
0010
0000
0000
0010
,  // measure 226
0000
0000
1000
0000
0000
1000
0000
0000
0001
0000
0000
0001
0000
0000
0001
0000
,  // measure 227
0000
0100
0000
0000
0100
0000
0000
0100
0000
0000
1000
0000
0000
1000
0000
0000
,  // measure 228
0010
0000
0000
0010
0000
0000
0010
0000
0000
0001
0000
0000
0001
0000
0000
0001
,  // measure 229
0000
0000
0100
0000
0000
0100
0000
0000
0001
0000
0000
0001
0000
0000
0001
0000
,  // measure 230
0000
1000
0000
0000
1000
0000
0000
1000
0000
0000
0001
0000
0000
0001
0000
0000
,  // measure 231
0001
0000
0000
0100
0000
0000
0100
0000
0000
0010
0000
0000
0010
0000
0000
0000
,  // measure 232
0110
0110
1010
1010
,  // measure 233
22MM
3322
2233
3322
,  // measure 234
2233
3322
2233
3322
,  // measure 235
2233
3322
2233
3322
,  // measure 236
2233
3322
2233
3322
,  // measure 237
2233
00MM
00MM
00MM
,  // measure 238
00MM
00MM
00MM
00MM
,  // measure 239
00MM
00MM
00MM
00MM
,  // measure 240
00MM
00MM
00MM
00MM
,  // measure 241
00MM
00MM
00MM
00MM
,  // measure 242
00MM
00MM
00MM
00MM
,  // measure 243
00MM
00MM
00MM
00MM
,  // measure 244
00MM
00MM
00MM
00MM
,  // measure 245
00MM
00MM
00MM
00MM
,  // measure 246
00MM
00MM
00MM
00MM
,  // measure 247
00MM
00MM
00MM
0000
,  // measure 248
0000
0000
0000
0000
,  // measure 249
0000
0000
0000
0000
,  // measure 250
0000
0000
0000
0000
,  // measure 251
0000
0000
0000
0000
,  // measure 252
0000
0000
0000
0000
,  // measure 253
0000
0000
0000
0000
,  // measure 254
3300
MMMM
MMMM
MMMM
0000
0000
0000
0000
;

//---------------dance-single - ----------------
#NOTES:
     dance-single:
     :
     Medium:
     18:
     0.914447,1.603759,0.552589,0.211393,0.508085,1726.000000,1577.000000,149.000000,57.000000,104.000000,25.000000,0.914447,1.603759,0.552589,0.211393,0.508085,1726.000000,1577.000000,149.000000,57.000000,104.000000,25.000000:
// measure 0
2MM2
0000
0000
0000
0000
0000
0000
0000
0MM0
0000
0000
0000
0000
0000
0000
3003
,  // measure 1
1MM0
0001
0010
0001
0000
0001
0010
0100
,  // measure 2
1000
0001
0100
0001
1000
0100
0001
1000
,  // measure 3
0010
0001
0100
0010
0000
0010
1000
0100
,  // measure 4
0001
1000
0001
0010
1000
0001
0100
0001
,  // measure 5
1000
0010
0100
0001
0000
0001
0010
0100
,  // measure 6
0001
1000
0001
1000
0010
0100
0001
1000
,  // measure 7
0110
0100
0001
1000
0101
1000
0100
0001
,  // measure 8
1001
1001
1001
1001
,  // measure 9
1001
0100
0001
1000
0100
0010
0000
1000
,  // measure 10
0100
0001
1000
0001
1000
0010
0100
0001
,  // measure 11
1000
0010
0100
0001
0000
0100
0001
0100
,  // measure 12
1000
0000
0001
0000
0110
0000
1000
0000
0110
0000
0000
0110
0000
0000
0110
0000
,  // measure 13
1000
0100
0001
1000
0000
0001
1000
0010
,  // measure 14
0001
0100
1000
0001
0100
0001
1000
0010
,  // measure 15
0100
0001
0010
0100
0000
1000
0001
0100
,  // measure 16
0001
1000
0010
0100
0001
1000
0001
1000
,  // measure 17
0100
1000
0010
0100
0000
0001
0100
1000
,  // measure 18
0001
1000
0001
1000
0010
0001
0100
0001
,  // measure 19
1000
0010
0100
0001
0000
0100
0010
0001
,  // measure 20
1000
0001
1000
0010
1000
0100
0001
1000
,  // measure 21
0001
0010
0001
0100
1000
0001
1000
0010
,  // measure 22
0100
1000
0010
0100
0010
0001
0100
0001
,  // measure 23
1100
0110
0011
0110
,  // measure 24
1100
0110
0011
0110
,  // measure 25
1100
0000
0000
1000
0000
0000
0001
0000
0000
0100
0000
0000
0001
0000
0000
0010
,  // measure 26
0000
0000
1000
0000
0000
0001
0000
0000
0010
0000
0000
0100
0000
0000
0100
0000
,  // measure 27
0000
0100
0000
0000
0010
0000
0000
0010
0000
0000
0001
0000
0000
1000
0000
0000
,  // measure 28
0100
0000
0000
0010
0000
0000
0001
0000
0000
1000
0000
0000
1000
0000
0000
1000
,  // measure 29
0000
0000
0100
0000
0000
1000
0000
0000
0010
0000
0000
1000
0000
0000
0001
0000
,  // measure 30
0100
0001
0100
0001
0100
0001
0100
0001
,  // measure 31
0010
1000
0010
1000
0010
1000
0010
1000
,  // measure 32
0001
0010
0100
0001
1000
0100
0010
0001
1000
0010
0100
0010
,  // measure 33
0001
0000
0000
0001
0000
0000
0001
0000
0000
0100
0000
0000
0100
0000
0000
0100
,  // measure 34
0000
0000
0001
0000
0000
0001
0000
0000
0010
0000
0000
0010
0000
0000
0010
0000
,  // measure 35
0000
1000
0000
0000
1000
0000
0000
1000
0000
0000
0001
0000
0000
0001
0000
0000
,  // measure 36
0100
0000
0000
0100
0000
0000
0100
0000
0000
0010
0000
0000
0010
0000
0000
0010
,  // measure 37
0000
0000
1000
0000
0000
1000
0000
0000
0010
0000
0000
0010
0000
0000
0010
0000
,  // measure 38
0000
0001
0000
0000
0001
0000
0000
0001
0000
0000
0010
0000
0000
0010
0000
0000
,  // measure 39
0010
0000
0000
1000
0000
0000
1000
0000
0000
0100
0000
0000
0100
0000
0000
0000
,  // measure 40
1100
1100
0101
0101
,  // measure 41
1100
0010
0101
0010
1100
1000
0011
0100
,  // measure 42
0101
1000
1100
0010
0011
0010
1100
0010
,  // measure 43
0101
0010
0001
1000
1000
1000
0100
1000
,  // measure 44
0010
0100
0010
0100
1000
1000
0010
0010
,  // measure 45
1000
1000
0010
0100
0100
1000
0001
1000
,  // measure 46
0100
1000
0100
1000
0100
0010
0100
0100
,  // measure 47
0010
1000
0010
1000
0100
1000
0010
0010
,  // measure 48
1000
0100
0100
0100
0100
0010
0001
0010
,  // measure 49
0001
1000
0001
1000
0100
0010
1000
0010
,  // measure 50
1000
0010
1000
1000
0001
0100
0100
0010
,  // measure 51
1000
0100
1000
0100
1000
1000
0010
1000
,  // measure 52
1000
1000
0100
0001
0010
0010
0001
0010
,  // measure 53
0010
0010
0100
0100
1000
0100
0010
0001
,  // measure 54
1000
0010
0001
0010
1000
1000
1000
0010
,  // measure 55
1000
0001
0010
0001
1000
1000
0010
0100
,  // measure 56
1000
0100
0010
0010
0010
1000
1000
1000
,  // measure 57
0010
1000
1000
1000
0100
1000
1000
0100
,  // measure 58
0100
0010
1000
0100
1000
0010
1000
1000
,  // measure 59
1100
0000
0000
0100
0000
0000
0010
0000
0000
1000
0000
0000
0010
0000
0000
0001
,  // measure 60
0000
0000
0100
0000
0000
0010
0000
0000
0001
0000
0000
1000
0000
0000
1000
0000
,  // measure 61
0000
1000
0000
0000
0001
0000
0000
0001
0000
0000
0010
0000
0000
0100
0000
0000
,  // measure 62
1000
0000
0000
0001
0000
0000
0010
0000
0000
0100
0000
0000
0100
0000
0000
0100
,  // measure 63
0000
0000
1000
0000
0000
0100
0000
0000
0001
0000
0000
0100
0000
0000
0010
0000
,  // measure 64
1000
0010
1000
0010
1000
0010
1000
0010
,  // measure 65
0001
0100
0001
0100
0001
0100
0001
0100
,  // measure 66
0010
0001
1000
0010
0100
1000
0001
0010
0100
0001
1000
0001
,  // measure 67
0010
0000
0000
0010
0000
0000
0010
0000
0000
1000
0000
0000
1000
0000
0000
1000
,  // measure 68
0000
0000
0010
0000
0000
0010
0000
0000
0001
0000
0000
0001
0000
0000
0001
0000
,  // measure 69
0000
0100
0000
0000
0100
0000
0000
0100
0000
0000
0010
0000
0000
0010
0000
0000
,  // measure 70
1000
0000
0000
1000
0000
0000
1000
0000
0000
0001
0000
0000
0001
0000
0000
0001
,  // measure 71
0000
0000
0100
0000
0000
0100
0000
0000
0001
0000
0000
0001
0000
0000
0001
0000
,  // measure 72
0000
0010
0000
0000
0010
0000
0000
0010
0000
0000
0001
0000
0000
0001
0000
0000
,  // measure 73
0001
0000
0000
0100
0000
0000
0100
0000
0000
1000
0000
0000
1000
0000
0000
0000
,  // measure 74
1100
0001
1100
0001
1010
0001
1010
0001
,  // measure 75
2010
0000
0001
0010
0100
0001
0100
0010
,  // measure 76
3200
1000
0001
0010
0001
1000
0001
1000
,  // measure 77
0302
0010
1000
0100
1000
0010
1000
0100
,  // measure 78
2003
0100
0001
0010
0001
0100
0010
0100
,  // measure 79
3002
0010
1000
0010
1000
0100
1000
0010
,  // measure 80
0203
0001
1000
0001
0010
0001
0010
1000
,  // measure 81
0302
1000
0100
1000
0010
1000
0100
1000
,  // measure 82
0023
0100
1000
0001
1000
0001
1000
0100
,  // measure 83
0131
0010
1000
0010
1000
0100
0010
1000
,  // measure 84
0100
0001
1000
0001
0010
0001
0010
0001
,  // measure 85
1100
0100
1000
0001
1000
0001
0010
0001
,  // measure 86
0100
1000
0100
0001
1000
0010
1000
0100
,  // measure 87
0110
0001
1000
0001
1000
0010
0100
0001
,  // measure 88
0101
0010
0001
0100
1000
0001
1000
0010
,  // measure 89
0101
1000
0110
0100
1001
0010
0101
0010
,  // measure 90
4100
0010
0100
0001
,  // measure 91
3004
0010
0100
0010
,  // measure 92
0043
1000
0100
1000
,  // measure 93
0034
1000
0100
1000
,  // measure 94
0403
0001
0010
0001
,  // measure 95
0340
0100
0001
1000
,  // measure 96
0430
0010
0001
1000
,  // measure 97
0340
1000
0001
1000
,  // measure 98
2032
0000
0000
0000
0000
0000
0000
3003
,  // measure 99
0110
0000
0000
0001
0000
0000
0010
0000
0000
0010
0000
0000
1000
0000
0000
1000
,  // measure 100
0000
0000
1000
0000
0000
0010
0000
0000
0010
0000
0000
1000
0000
0000
1000
0000
,  // measure 101
0000
0100
0000
0000
0010
0000
0000
1000
0000
0000
0100
0000
0000
0100
0000
0000
,  // measure 102
1000
0000
0000
0010
0000
0000
1000
0000
0000
0100
0000
0000
1000
0000
0000
1000
,  // measure 103
0000
0000
0100
0000
0000
0001
0000
0000
1000
0000
0000
0100
0000
0000
0001
0000
,  // measure 104
0100
1000
1000
1000
1000
1000
1000
0001
,  // measure 105
1000
0001
0001
0100
0100
0100
1000
0001
,  // measure 106
0010
0100
1000
0001
0010
1000
0100
1000
0100
0010
1000
0001
,  // measure 107
1000
0000
0000
1000
0000
0000
0100
0000
0000
1000
0000
0000
0100
0000
0000
0100
,  // measure 108
0000
0000
0010
0000
0000
1000
0000
0000
0100
0000
0000
1000
0000
0000
1000
0000
,  // measure 109
0000
1000
0000
0000
1000
0000
0000
1000
0000
0000
1000
0000
0000
0100
0000
0000
,  // measure 110
0100
0000
0000
1000
0000
0000
0100
0000
0000
1000
0000
0000
0001
0000
0000
0010
,  // measure 111
0000
0000
0100
0000
0000
0010
0000
0000
0100
0000
0000
0010
0000
0000
0100
0000
,  // measure 112
0000
0010
0000
0000
1000
0000
0000
0100
0000
0000
1000
0000
0000
0100
0000
0000
,  // measure 113
0100
0000
0000
1000
0000
0000
0001
0000
0000
0100
0000
0000
0100
0000
0000
0000
,  // measure 114
1010
0000
1010
0000
1001
0000
1010
0100
,  // measure 115
0110
0000
0000
0001
0000
0000
0010
0000
0000
0010
0000
0000
1000
0000
0000
1000
,  // measure 116
0000
0000
1000
0000
0000
0010
0000
0000
0010
0000
0000
1000
0000
0000
1000
0000
,  // measure 117
0000
0100
0000
0000
0010
0000
0000
1000
0000
0000
0100
0000
0000
0100
0000
0000
,  // measure 118
1000
0000
0000
0010
0000
0000
1000
0000
0000
0100
0000
0000
1000
0000
0000
1000
,  // measure 119
0000
0000
0100
0000
0000
0001
0000
0000
1000
0000
0000
0100
0000
0000
0001
0000
,  // measure 120
0100
1000
1000
1000
1000
1000
1000
0001
,  // measure 121
1000
0001
0001
0100
0100
0100
1000
0001
,  // measure 122
0010
0100
1000
1000
1000
0010
1000
1000
0100
0010
0100
1000
,  // measure 123
1000
0000
0000
1000
0000
0000
0100
0000
0000
1000
0000
0000
0100
0000
0000
0100
,  // measure 124
0000
0000
0010
0000
0000
1000
0000
0000
0100
0000
0000
1000
0000
0000
1000
0000
,  // measure 125
0000
1000
0000
0000
1000
0000
0000
1000
0000
0000
1000
0000
0000
0100
0000
0000
,  // measure 126
0100
0000
0000
1000
0000
0000
0100
0000
0000
1000
0000
0000
0001
0000
0000
0010
,  // measure 127
0000
0000
0100
0000
0000
0010
0000
0000
0100
0000
0000
0010
0000
0000
0100
0000
,  // measure 128
0000
0010
0000
0000
1000
0000
0000
0100
0000
0000
1000
0000
0000
0100
0000
0000
,  // measure 129
0100
0000
0000
1000
0000
0000
0001
0000
0000
0100
0000
0000
0100
0000
0000
0000
,  // measure 130
1010
0100
1010
0100
1001
0100
1010
0100
,  // measure 131
0101
0110
1100
0101
,  // measure 132
1001
0110
0101
1001
,  // measure 133
1010
0110
0101
0101
,  // measure 134
1010
1010
0110
0101
,  // measure 135
2000
0001
0100
0001
0010
0100
0001
0100
,  // measure 136
0001
0100
0010
0001
0100
0010
0100
0010
,  // measure 137
3100
1000
0001
1000
0100
0001
1000
0010
,  // measure 138
1000
0001
0100
0001
1000
0010
0100
0001
,  // measure 139
1000
0001
0100
0010
1000
0100
0001
1000
,  // measure 140
0001
0010
1000
0001
0100
0001
1000
0001
,  // measure 141
0100
0010
1000
0001
1000
0001
0100
1000
,  // measure 142
0010
0100
0001
1000
0001
1000
0001
0100
,  // measure 143
0010
0100
0010
1000
0001
0100
0001
1000
,  // measure 144
0001
0100
0010
1000
0010
0001
0100
0001
,  // measure 145
1000
0001
0100
0010
1000
0001
0100
0001
,  // measure 146
0100
1000
0010
0100
0001
1000
0001
0100
,  // measure 147
0010
1000
0001
0100
0001
1000
0001
0100
,  // measure 148
1000
0010
1000
0100
0001
0010
0001
1000
,  // measure 149
0100
0001
0010
1000
0001
0100
0001
0100
,  // measure 150
1000
0010
1000
0001
0100
0001
1000
0001
,  // measure 151
1001
1000
0100
0001
1000
0001
0100
0001
,  // measure 152
1000
0010
1000
0100
0001
1000
0001
0100
,  // measure 153
0010
1000
0100
0001
0010
0001
0100
1000
,  // measure 154
0100
0001
1000
0001
1000
0010
1000
0100
,  // measure 155
0001
1000
0001
0010
0100
1000
0001
0100
,  // measure 156
0001
1000
0010
0100
0001
0100
0001
1000
,  // measure 157
0010
1000
0100
0001
1000
0001
0100
0010
,  // measure 158
1000
0100
2010
0000
3210
0000
1302
0000
,  // measure 159
1003
0010
0100
1000
0010
1000
0001
1000
,  // measure 160
0001
0100
0001
1000
0100
0001
0010
1000
,  // measure 161
0001
0100
0001
0100
1000
0010
1000
0001
,  // measure 162
0100
0001
0010
1000
0001
1000
0001
0100
,  // measure 163
1000
0010
1000
0001
0100
0001
1000
0001
,  // measure 164
0100
0010
1000
0001
0100
0001
1000
0100
,  // measure 165
0010
0100
0010
1000
0001
0100
0001
0100
,  // measure 166
2001
3210
1320
0132
,  // measure 167
0013
1000
0100
0010
1000
0001
0100
0001
,  // measure 168
1000
0001
0100
0010
1000
0001
0100
0001
,  // measure 169
1000
0001
1000
0100
0001
0010
1000
0001
,  // measure 170
0100
0001
0100
1000
0100
1000
0001
0100
,  // measure 171
0010
1000
0001
0100
0001
1000
0001
0100
,  // measure 172
1000
0100
0010
1000
0001
0100
0001
1000
,  // measure 173
0001
0100
0010
1000
0001
0100
0001
0100
,  // measure 174
1000
0010
1200
0000
1320
0000
2031
0000
,  // measure 175
3100
0010
0001
0100
0001
1000
0001
0100
,  // measure 176
0010
1000
0001
0100
0001
1000
0001
0100
,  // measure 177
0010
1000
0001
0100
1000
0010
0100
0001
,  // measure 178
0100
0001
1000
0001
0100
1000
0001
1000
,  // measure 179
0001
0100
0010
1000
0100
0001
1000
0001
,  // measure 180
0100
0010
1000
0001
0100
0001
1000
0001
,  // measure 181
1000
0110
1001
0110
1001
0110
1001
0110
,  // measure 182
0001
0110
1001
0110
1001
0110
1001
0110
,  // measure 183
1010
1100
0110
1100
0110
1100
0110
1100
,  // measure 184
0110
0011
0110
0011
0110
0011
0110
0011
,  // measure 185
1100
0000
0000
0100
0000
0000
0010
0000
0000
1000
0000
0000
0010
0000
0000
0001
,  // measure 186
0000
0000
0100
0000
0000
0010
0000
0000
0001
0000
0000
1000
0000
0000
1000
0000
,  // measure 187
0000
1000
0000
0000
0001
0000
0000
0001
0000
0000
0010
0000
0000
0100
0000
0000
,  // measure 188
1000
0000
0000
0001
0000
0000
0010
0000
0000
0100
0000
0000
0100
0000
0000
0100
,  // measure 189
0000
0000
1000
0000
0000
0100
0000
0000
0001
0000
0000
0100
0000
0000
0010
0000
,  // measure 190
1000
0010
1000
0010
1000
0010
1000
0010
,  // measure 191
0001
0100
0001
0100
0001
0100
0001
0100
,  // measure 192
0010
0001
1000
0010
0100
1000
0001
0010
0100
0001
1000
0001
,  // measure 193
0010
0000
0000
0010
0000
0000
0010
0000
0000
1000
0000
0000
1000
0000
0000
1000
,  // measure 194
0000
0000
0010
0000
0000
0010
0000
0000
0001
0000
0000
0001
0000
0000
0001
0000
,  // measure 195
0000
0100
0000
0000
0100
0000
0000
0100
0000
0000
0010
0000
0000
0010
0000
0000
,  // measure 196
1000
0000
0000
1000
0000
0000
1000
0000
0000
0001
0000
0000
0001
0000
0000
0001
,  // measure 197
0000
0000
0100
0000
0000
0100
0000
0000
0001
0000
0000
0001
0000
0000
0001
0000
,  // measure 198
0000
0010
0000
0000
0010
0000
0000
0010
0000
0000
0001
0000
0000
0001
0000
0000
,  // measure 199
0001
0000
0000
0100
0000
0000
0100
0000
0000
1000
0000
0000
1000
0000
0000
0000
,  // measure 200
1100
0000
1100
0000
1010
0000
1010
0010
,  // measure 201
1100
0000
0000
0100
0000
0000
0010
0000
0000
1000
0000
0000
0010
0000
0000
0001
,  // measure 202
0000
0000
0100
0000
0000
0010
0000
0000
0001
0000
0000
1000
0000
0000
1000
0000
,  // measure 203
0000
1000
0000
0000
0001
0000
0000
0001
0000
0000
0010
0000
0000
0100
0000
0000
,  // measure 204
1000
0000
0000
0001
0000
0000
0010
0000
0000
0100
0000
0000
0100
0000
0000
0100
,  // measure 205
0000
0000
1000
0000
0000
0100
0000
0000
0001
0000
0000
0100
0000
0000
0010
0000
,  // measure 206
1000
0010
1000
0010
1000
0010
1000
0010
,  // measure 207
0001
0100
0001
0100
0001
0100
0001
0100
,  // measure 208
0010
0001
1000
0010
0100
1000
0001
0010
0100
0001
1000
0001
,  // measure 209
0010
0000
0000
0010
0000
0000
0010
0000
0000
1000
0000
0000
1000
0000
0000
1000
,  // measure 210
0000
0000
0010
0000
0000
0010
0000
0000
0001
0000
0000
0001
0000
0000
0001
0000
,  // measure 211
0000
0100
0000
0000
0100
0000
0000
0100
0000
0000
0010
0000
0000
0010
0000
0000
,  // measure 212
1000
0000
0000
1000
0000
0000
1000
0000
0000
0001
0000
0000
0001
0000
0000
0001
,  // measure 213
0000
0000
0100
0000
0000
0100
0000
0000
0001
0000
0000
0001
0000
0000
0001
0000
,  // measure 214
0000
0010
0000
0000
0010
0000
0000
0010
0000
0000
0001
0000
0000
0001
0000
0000
,  // measure 215
0001
0000
0000
0100
0000
0000
0100
0000
0000
1000
0000
0000
1000
0000
0000
0000
,  // measure 216
1100
0000
1100
0000
1010
0000
1010
0010
,  // measure 217
1100
0000
0000
1000
0000
0000
0001
0000
0000
0100
0000
0000
0001
0000
0000
0010
,  // measure 218
0000
0000
1000
0000
0000
0001
0000
0000
0010
0000
0000
0100
0000
0000
0100
0000
,  // measure 219
0000
0100
0000
0000
0010
0000
0000
0010
0000
0000
0001
0000
0000
1000
0000
0000
,  // measure 220
0100
0000
0000
0010
0000
0000
0001
0000
0000
1000
0000
0000
1000
0000
0000
1000
,  // measure 221
0000
0000
0100
0000
0000
1000
0000
0000
0010
0000
0000
1000
0000
0000
0001
0000
,  // measure 222
0100
0001
0100
0001
0100
0001
0100
0001
,  // measure 223
0010
1000
0010
1000
0010
1000
0010
1000
,  // measure 224
0001
0010
0100
0001
1000
0100
0010
0001
1000
0010
0100
0010
,  // measure 225
0001
0000
0000
0001
0000
0000
0001
0000
0000
0100
0000
0000
0100
0000
0000
0100
,  // measure 226
0000
0000
0001
0000
0000
0001
0000
0000
0010
0000
0000
0010
0000
0000
0010
0000
,  // measure 227
0000
1000
0000
0000
1000
0000
0000
1000
0000
0000
0001
0000
0000
0001
0000
0000
,  // measure 228
0100
0000
0000
0100
0000
0000
0100
0000
0000
0010
0000
0000
0010
0000
0000
0010
,  // measure 229
0000
0000
1000
0000
0000
1000
0000
0000
0010
0000
0000
0010
0000
0000
0010
0000
,  // measure 230
0000
0001
0000
0000
0001
0000
0000
0001
0000
0000
0010
0000
0000
0010
0000
0000
,  // measure 231
0010
0000
0000
1000
0000
0000
1000
0000
0000
0100
0000
0000
0100
0000
0000
0000
,  // measure 232
1100
0100
1100
0100
0101
1000
0101
1000
,  // measure 233
2MM2
3223
2332
3223
,  // measure 234
2332
3223
2332
3223
,  // measure 235
2332
3223
2332
3223
,  // measure 236
2332
3223
2332
3223
,  // measure 237
2332
0MM0
0MM0
0MM0
,  // measure 238
0MM0
0MM0
0MM0
0MM0
,  // measure 239
0MM0
0MM0
0MM0
0MM0
,  // measure 240
0MM0
0MM0
0MM0
0MM0
,  // measure 241
0MM0
0MM0
0MM0
0MM0
,  // measure 242
0MM0
0MM0
0MM0
0MM0
,  // measure 243
0MM0
0MM0
0MM0
0MM0
,  // measure 244
0MM0
0MM0
0MM0
0MM0
,  // measure 245
0MM0
0MM0
0MM0
0MM0
,  // measure 246
0MM0
0MM0
0MM0
0MM0
,  // measure 247
0MM0
0MM0
0MM0
0000
,  // measure 248
0000
0000
0000
0000
,  // measure 249
0000
0000
0000
0000
,  // measure 250
0000
0000
0000
0000
,  // measure 251
0000
0000
0000
0000
,  // measure 252
0000
0000
0000
0000
,  // measure 253
0000
0000
0000
0000
,  // measure 254
3003
MMMM
MMMM
MMMM
0000
0000
0000
0000
;

//---------------dance-single - ----------------
#NOTES:
     dance-single:
     :
     Hard:
     20:
     1.169284,1.602970,0.437621,0.248479,1.392597,2207.000000,2087.000000,118.000000,67.000000,40.000000,34.000000,1.169284,1.602970,0.437621,0.248479,1.392597,2207.000000,2087.000000,118.000000,67.000000,40.000000,34.000000:
// measure 0
2222
0000
0000
0000
0000
0000
0000
0000
0000
0000
0000
0000
0000
0000
0000
3333
,  // measure 1
1000
0001
0010
0001
0000
0001
0010
0100
,  // measure 2
1000
0001
0100
0001
1000
0100
0001
1000
,  // measure 3
0010
0001
0100
0010
0000
0010
1000
0100
,  // measure 4
0001
0000
1000
0000
0001
0000
0010
0000
1000
0000
0001
0010
0100
0010
0001
0000
,  // measure 5
1000
0010
0100
0001
0000
0001
0010
0100
,  // measure 6
0001
1000
0001
1000
0010
0100
0001
1000
,  // measure 7
0110
0100
0001
1000
0101
1000
0100
0001
,  // measure 8
1001
0010
1001
0100
1001
0010
1001
0100
,  // measure 9
1001
0100
0001
1000
0100
0010
0000
1000
,  // measure 10
0100
0001
1000
0001
1000
0010
0100
0001
,  // measure 11
1000
0010
0100
0001
0000
0100
0001
0100
,  // measure 12
1000
0000
0001
0000
0110
0000
1000
0000
0110
0000
0000
0110
0000
0000
0110
0000
,  // measure 13
1000
0100
0001
1000
0000
0001
1000
0010
,  // measure 14
0001
0100
1000
0001
0100
0001
1000
0010
,  // measure 15
0100
0001
0010
0100
0000
1000
0001
0100
,  // measure 16
0001
1000
0010
0100
0001
1000
0001
1000
,  // measure 17
0100
1000
0010
0100
0000
0001
0100
1000
,  // measure 18
0001
1000
0001
1000
0010
0001
0100
0001
,  // measure 19
1000
0010
0100
0001
0000
0100
0010
0001
,  // measure 20
1000
0001
1000
0010
1000
0100
0001
1000
,  // measure 21
0001
0010
0001
0100
1000
0001
1000
0010
,  // measure 22
0100
1000
0010
0100
0010
0001
0100
0001
,  // measure 23
2100
3000
0210
0300
0021
0030
0120
0030
,  // measure 24
1200
0300
0210
0300
0021
0030
0120
0030
,  // measure 25
1000
0000
0000
0000
0000
0000
0000
0000
0000
0000
0000
0000
0000
0000
0000
0000
0001
0000
0000
0000
0000
0000
0000
0000
0000
0000
0000
0000
0000
0000
0000
0000
0000
0000
0000
0000
1000
0000
0000
0000
0000
0000
0000
0000
0000
0000
0000
0000
0000
0000
0000
0000
0000
0000
0000
0000
0001
0000
0000
0000
0000
0000
0000
0000
0000
0000
0000
0000
0000
0000
0000
0000
1000
0000
0000
0000
0000
0000
0000
0000
0000
0000
0000
0000
0000
0000
0000
0000
0000
0000
0100
0000
0000
0000
0000
0000
0000
0000
0000
0000
0000
0000
0000
0000
0000
0000
0000
0000
0010
0000
0000
0000
0000
0000
0000
0000
0000
0000
0000
0000
0000
0000
0000
0000
0000
0000
1000
0000
0000
0000
0000
0000
0000
0000
0000
0000
0000
0000
0000
0000
0000
0000
0000
0000
0010
0000
0000
0000
0000
0000
0000
0000
0000
0000
0000
0000
0000
0000
0000
0000
0000
0000
0000
0000
0100
0000
0000
0000
0000
0000
0000
0000
0000
0000
0000
0000
0000
0000
0000
0000
0010
0000
0000
0000
0000
0000
0000
0000
0000
0000
0000
0000
,  // measure 26
0000
0000
0001
0000
0000
0000
1000
0000
0000
0000
0000
0010
0000
0000
0000
1000
0000
0000
0000
0010
0000
0000
0000
0000
0100
0000
0000
0000
1000
0000
0000
0000
0000
0100
0000
0000
0000
0000
1000
0000
0000
0000
0100
0000
0000
0000
0010
0000
,  // measure 27
0000
0000
0000
0001
0000
0000
0000
0010
0000
0000
0000
0000
0001
0000
0000
0000
0010
0000
0000
0000
0000
0001
0000
0000
0000
0100
0000
0000
0000
0000
1000
0000
0000
0000
0100
0000
0000
0000
0000
1000
0000
0000
0000
0000
0100
0000
0000
0000
,  // measure 28
0010
0000
0000
0000
0000
0001
0000
0000
0000
0010
0000
0000
0000
0000
0001
0000
0000
0000
0010
0000
0000
0000
0000
0001
0000
0000
0000
0100
0000
0000
0000
1000
0000
0000
0000
0000
0100
0000
0000
0000
0000
1000
0000
0000
0000
0100
0000
0000
,  // measure 29
0000
0000
1000
0000
0000
0000
0001
0000
0000
0000
0010
0000
0000
0000
0000
0001
0000
0000
0000
0010
0000
0000
0000
0000
0100
0000
0000
0000
0001
0000
0000
0000
0000
0100
0000
0000
0000
0001
0000
0000
0000
0000
0100
0000
0000
0000
0000
0000
,  // measure 30
0100
0001
0100
0001
0100
0001
0100
0001
,  // measure 31
0010
1000
0010
1000
0010
1000
0010
1000
,  // measure 32
0001
0010
0100
0001
1000
0100
0010
0001
1000
0010
0001
0010
,  // measure 33
0001
0000
0000
0000
0000
0000
0000
0000
0000
0000
0000
0000
0000
0000
0000
0000
1000
0000
0000
0000
0000
0000
0000
0000
0000
0000
0000
0000
0000
0000
0000
0000
0000
0000
0000
0000
0001
0000
0000
0000
0000
0000
0000
0000
0000
0000
0000
0000
0000
0000
0000
0000
0000
0000
0000
0000
1000
0000
0000
0000
0000
0000
0000
0000
0000
0000
0000
0000
0000
0000
0000
0000
0001
0000
0000
0000
0000
0000
0000
0000
0000
0000
0000
0000
0000
0000
0000
0000
0000
0000
0010
0000
0000
0000
0000
0000
0000
0000
0000
0000
0000
0000
0000
0000
0000
0000
0000
0000
0100
0000
0000
0000
0000
0000
0000
0000
0000
0000
0000
0000
0000
0000
0000
0000
0000
0000
0001
0000
0000
0000
0000
0000
0000
0000
0000
0000
0000
0000
0000
0000
0000
0000
0000
0000
0100
0000
0000
0000
0000
0000
0000
0000
0000
0000
0000
0000
0000
0000
0000
0000
0000
0000
0000
0000
0010
0000
0000
0000
0000
0000
0000
0000
0000
0000
0000
0000
0000
0000
0000
0000
0100
0000
0000
0000
0000
0000
0000
0000
0000
0000
0000
0000
,  // measure 34
0000
0000
1000
0000
0000
0000
0001
0000
0000
0000
0000
0100
0000
0000
0000
0001
0000
0000
0000
0100
0000
0000
0000
0000
0010
0000
0000
0000
0001
0000
0000
0000
0000
0010
0000
0000
0000
0000
0001
0000
0000
0000
0010
0000
0000
0000
0100
0000
,  // measure 35
0000
0000
0000
1000
0000
0000
0000
0100
0000
0000
0000
0000
1000
0000
0000
0000
0100
0000
0000
0000
0000
1000
0000
0000
0000
0010
0000
0000
0000
0000
0001
0000
0000
0000
0010
0000
0000
0000
0000
0001
0000
0000
0000
0000
0010
0000
0000
0000
,  // measure 36
0100
0000
0000
0000
0000
1000
0000
0000
0000
0100
0000
0000
0000
0000
1000
0000
0000
0000
0100
0000
0000
0000
0000
1000
0000
0000
0000
0010
0000
0000
0000
0001
0000
0000
0000
0000
0010
0000
0000
0000
0000
0001
0000
0000
0000
0010
0000
0000
,  // measure 37
0000
0000
0001
0000
0000
0000
1000
0000
0000
0000
0100
0000
0000
0000
0000
1000
0000
0000
0000
0100
0000
0000
0000
0000
0010
0000
0000
0000
1000
0000
0000
0000
0000
0010
0000
0000
0000
1000
0000
0000
0000
0000
0010
0000
0000
0000
0000
1000
,  // measure 38
0000
0000
0000
0001
0000
0000
0000
0000
1000
0000
0000
0000
0001
0000
0000
0000
0000
1000
0000
0000
0000
0001
0000
0000
0000
0000
0100
0000
0000
0000
0010
0000
0000
0000
0000
0100
0000
0000
0000
0010
0000
0000
0000
0000
0100
0000
0000
0000
,  // measure 39
0010
0000
0000
0000
0000
0001
0000
0000
0000
1000
0000
0000
0000
0001
0000
0000
0000
0000
1000
0000
0000
0000
0001
0000
0000
0000
0000
0100
0000
0000
0000
0001
0000
0000
0000
0000
0100
0000
0000
0000
0000
0001
0000
0000
0000
0000
0000
0000
,  // measure 40
1100
1000
1100
0100
0101
0001
0101
0100
,  // measure 41
4100
0010
3104
0010
1403
1000
0341
1000
,  // measure 42
0134
1000
1403
0010
0314
0010
4103
0010
,  // measure 43
3101
0010
0001
1000
1000
1000
0100
1000
,  // measure 44
0010
0100
0010
0100
1000
1000
0010
0010
,  // measure 45
1000
1000
0010
0100
0100
1000
0001
1000
,  // measure 46
0100
1000
0100
1000
0100
0010
0100
0100
,  // measure 47
0010
1000
0010
1000
0100
1000
0010
0010
,  // measure 48
1000
0100
0100
0100
0100
0010
0001
0010
,  // measure 49
0001
1000
0001
1000
0100
0010
1000
0010
,  // measure 50
1000
0010
1000
1000
0001
0100
0100
0010
,  // measure 51
1000
0100
1000
0100
1000
1000
0010
1000
,  // measure 52
1000
1000
0100
0001
0010
0010
0001
0010
,  // measure 53
0010
0010
0100
0100
1000
0100
0010
0001
,  // measure 54
1000
0010
0001
0010
1000
1000
1000
0010
,  // measure 55
1000
0001
0010
0001
1000
1000
0010
0100
,  // measure 56
1000
0100
0010
0010
0010
1000
1000
1000
,  // measure 57
0010
1000
1000
1000
0100
1000
1000
0100
,  // measure 58
0100
0010
1000
0100
1000
0010
1000
1000
,  // measure 59
0101
0000
0000
0000
0000
0000
0000
0000
0000
0000
0000
0000
0000
0000
0000
0000
0010
0000
0000
0000
0000
0000
0000
0000
0000
0000
0000
0000
0000
0000
0000
0000
0000
0000
0000
0000
0100
0000
0000
0000
0000
0000
0000
0000
0000
0000
0000
0000
0000
0000
0000
0000
0000
0000
0000
0000
0010
0000
0000
0000
0000
0000
0000
0000
0000
0000
0000
0000
0000
0000
0000
0000
0100
0000
0000
0000
0000
0000
0000
0000
0000
0000
0000
0000
0000
0000
0000
0000
0000
0000
0001
0000
0000
0000
0000
0000
0000
0000
0000
0000
0000
0000
0000
0000
0000
0000
0000
0000
1000
0000
0000
0000
0000
0000
0000
0000
0000
0000
0000
0000
0000
0000
0000
0000
0000
0000
0100
0000
0000
0000
0000
0000
0000
0000
0000
0000
0000
0000
0000
0000
0000
0000
0000
0000
1000
0000
0000
0000
0000
0000
0000
0000
0000
0000
0000
0000
0000
0000
0000
0000
0000
0000
0000
0000
0001
0000
0000
0000
0000
0000
0000
0000
0000
0000
0000
0000
0000
0000
0000
0000
1000
0000
0000
0000
0000
0000
0000
0000
0000
0000
0000
0000
,  // measure 60
0000
0000
0010
0000
0000
0000
0100
0000
0000
0000
0000
1000
0000
0000
0000
0100
0000
0000
0000
1000
0000
0000
0000
0000
0001
0000
0000
0000
0100
0000
0000
0000
0000
0001
0000
0000
0000
0000
0100
0000
0000
0000
0001
0000
0000
0000
1000
0000
,  // measure 61
0000
0000
0000
0010
0000
0000
0000
1000
0000
0000
0000
0000
0010
0000
0000
0000
1000
0000
0000
0000
0000
0010
0000
0000
0000
0001
0000
0000
0000
0000
0100
0000
0000
0000
0001
0000
0000
0000
0000
0100
0000
0000
0000
0000
0001
0000
0000
0000
,  // measure 62
1000
0000
0000
0000
0000
0010
0000
0000
0000
1000
0000
0000
0000
0000
0010
0000
0000
0000
1000
0000
0000
0000
0000
0010
0000
0000
0000
0001
0000
0000
0000
0100
0000
0000
0000
0000
0001
0000
0000
0000
0000
0100
0000
0000
0000
0001
0000
0000
,  // measure 63
0000
0000
0100
0000
0000
0000
0010
0000
0000
0000
1000
0000
0000
0000
0000
0010
0000
0000
0000
1000
0000
0000
0000
0000
0001
0000
0000
0000
0010
0000
0000
0000
0000
0001
0000
0000
0000
0010
0000
0000
0000
0000
0001
0000
0000
0000
0000
0000
,  // measure 64
0001
0010
0001
0010
0001
0010
0001
0010
,  // measure 65
1000
0100
1000
0100
1000
0100
1000
0100
,  // measure 66
0010
1000
0001
0010
0100
0001
1000
0010
0100
1000
0010
1000
,  // measure 67
0010
0000
0000
0000
0000
0000
0000
0000
0000
0000
0000
0000
0000
0000
0000
0000
0100
0000
0000
0000
0000
0000
0000
0000
0000
0000
0000
0000
0000
0000
0000
0000
0000
0000
0000
0000
0010
0000
0000
0000
0000
0000
0000
0000
0000
0000
0000
0000
0000
0000
0000
0000
0000
0000
0000
0000
0100
0000
0000
0000
0000
0000
0000
0000
0000
0000
0000
0000
0000
0000
0000
0000
0010
0000
0000
0000
0000
0000
0000
0000
0000
0000
0000
0000
0000
0000
0000
0000
0000
0000
1000
0000
0000
0000
0000
0000
0000
0000
0000
0000
0000
0000
0000
0000
0000
0000
0000
0000
0001
0000
0000
0000
0000
0000
0000
0000
0000
0000
0000
0000
0000
0000
0000
0000
0000
0000
0010
0000
0000
0000
0000
0000
0000
0000
0000
0000
0000
0000
0000
0000
0000
0000
0000
0000
0001
0000
0000
0000
0000
0000
0000
0000
0000
0000
0000
0000
0000
0000
0000
0000
0000
0000
0000
0000
1000
0000
0000
0000
0000
0000
0000
0000
0000
0000
0000
0000
0000
0000
0000
0000
0001
0000
0000
0000
0000
0000
0000
0000
0000
0000
0000
0000
,  // measure 68
0000
0000
0100
0000
0000
0000
0010
0000
0000
0000
0000
0001
0000
0000
0000
0010
0000
0000
0000
0001
0000
0000
0000
0000
1000
0000
0000
0000
0010
0000
0000
0000
0000
1000
0000
0000
0000
0000
0010
0000
0000
0000
1000
0000
0000
0000
0001
0000
,  // measure 69
0000
0000
0000
0100
0000
0000
0000
0001
0000
0000
0000
0000
0100
0000
0000
0000
0001
0000
0000
0000
0000
0100
0000
0000
0000
1000
0000
0000
0000
0000
0010
0000
0000
0000
1000
0000
0000
0000
0000
0010
0000
0000
0000
0000
1000
0000
0000
0000
,  // measure 70
0001
0000
0000
0000
0000
0100
0000
0000
0000
0001
0000
0000
0000
0000
0100
0000
0000
0000
0001
0000
0000
0000
0000
0100
0000
0000
0000
1000
0000
0000
0000
0010
0000
0000
0000
0000
1000
0000
0000
0000
0000
0010
0000
0000
0000
1000
0000
0000
,  // measure 71
0000
0000
0010
0000
0000
0000
0100
0000
0000
0000
0001
0000
0000
0000
0000
0100
0000
0000
0000
0001
0000
0000
0000
0000
1000
0000
0000
0000
0100
0000
0000
0000
0000
1000
0000
0000
0000
0100
0000
0000
0000
0000
1000
0000
0000
0000
0000
0100
,  // measure 72
0000
0000
0000
0010
0000
0000
0000
0000
0100
0000
0000
0000
0010
0000
0000
0000
0000
0100
0000
0000
0000
0010
0000
0000
0000
0000
0001
0000
0000
0000
1000
0000
0000
0000
0000
0001
0000
0000
0000
1000
0000
0000
0000
0000
0001
0000
0000
0000
,  // measure 73
1000
0000
0000
0000
0000
0010
0000
0000
0000
0100
0000
0000
0000
0010
0000
0000
0000
0000
0100
0000
0000
0000
0010
0000
0000
0000
0000
0001
0000
0000
0000
0010
0000
0000
0000
0000
0001
0000
0000
0000
0000
0010
0000
0000
0000
0000
0000
0000
,  // measure 74
1001
1000
0011
0001
1100
0010
1001
0001
,  // measure 75
2010
0000
0001
0010
0100
0001
0100
0010
,  // measure 76
3200
1000
0001
0010
0001
1000
0001
1000
,  // measure 77
0302
0010
1000
0100
1000
0010
1000
0100
,  // measure 78
2003
0100
0001
0010
0001
0100
0010
0100
,  // measure 79
3002
0010
1000
0010
1000
0100
1000
0010
,  // measure 80
0203
0001
1000
0001
0010
0001
0010
1000
,  // measure 81
0302
1000
0100
1000
0010
1000
0100
1000
,  // measure 82
0023
0100
1000
0001
1000
0001
1000
0100
,  // measure 83
0131
0010
1000
0010
1000
0100
0010
1000
,  // measure 84
0100
0001
1000
0001
0010
0001
0010
0001
,  // measure 85
1100
0100
1000
0001
1000
0001
0010
0001
,  // measure 86
0100
1000
0100
0001
1000
0010
1000
0100
,  // measure 87
0110
0001
1000
0001
1000
0010
0100
0001
,  // measure 88
0101
0010
0001
0100
1000
0001
1000
0010
,  // measure 89
0101
1000
0110
0100
1001
0010
0101
0010
,  // measure 90
4100
0010
0100
0001
,  // measure 91
3004
0010
0100
0010
,  // measure 92
0043
1000
0100
1000
,  // measure 93
0034
1000
0100
1000
,  // measure 94
0403
0001
0010
0001
,  // measure 95
0340
0100
0001
1000
,  // measure 96
0430
0010
0001
1000
,  // measure 97
0340
1000
0001
1000
,  // measure 98
2032
0000
0000
0000
0000
0000
0000
3003
,  // measure 99
0011
0000
0000
0000
0000
0000
0000
0000
0000
0000
0000
0000
0000
0000
0000
0000
1000
0000
0000
0000
0000
0000
0000
0000
0000
0000
0000
0000
0000
0000
0000
0000
0000
0000
0000
0000
0001
0000
0000
0000
0000
0000
0000
0000
0000
0000
0000
0000
0000
0000
0000
0000
0000
0000
0000
0000
1000
0000
0000
0000
0000
0000
0000
0000
0000
0000
0000
0000
0000
0000
0000
0000
0001
0000
0000
0000
0000
0000
0000
0000
0000
0000
0000
0000
0000
0000
0000
0000
0000
0000
0010
0000
0000
0000
0000
0000
0000
0000
0000
0000
0000
0000
0000
0000
0000
0000
0000
0000
0100
0000
0000
0000
0000
0000
0000
0000
0000
0000
0000
0000
0000
0000
0000
0000
0000
0000
0001
0000
0000
0000
0000
0000
0000
0000
0000
0000
0000
0000
0000
0000
0000
0000
0000
0000
0100
0000
0000
0000
0000
0000
0000
0000
0000
0000
0000
0000
0000
0000
0000
0000
0000
0000
0000
0000
0010
0000
0000
0000
0000
0000
0000
0000
0000
0000
0000
0000
0000
0000
0000
0000
0100
0000
0000
0000
0000
0000
0000
0000
0000
0000
0000
0000
,  // measure 100
0000
0000
1000
0000
0000
0000
0001
0000
0000
0000
0000
0100
0000
0000
0000
0001
0000
0000
0000
0100
0000
0000
0000
0000
0010
0000
0000
0000
0001
0000
0000
0000
0000
0010
0000
0000
0000
0000
0001
0000
0000
0000
0010
0000
0000
0000
0100
0000
,  // measure 101
0000
0000
0000
1000
0000
0000
0000
0100
0000
0000
0000
0000
1000
0000
0000
0000
0100
0000
0000
0000
0000
1000
0000
0000
0000
0010
0000
0000
0000
0000
0001
0000
0000
0000
0010
0000
0000
0000
0000
0001
0000
0000
0000
0000
0010
0000
0000
0000
,  // measure 102
0100
0000
0000
0000
0000
1000
0000
0000
0000
0100
0000
0000
0000
0000
1000
0000
0000
0000
0100
0000
0000
0000
0000
1000
0000
0000
0000
0010
0000
0000
0000
0001
0000
0000
0000
0000
0010
0000
0000
0000
0000
0001
0000
0000
0000
0010
0000
0000
,  // measure 103
0000
0000
0001
0000
0000
0000
1000
0000
0000
0000
0100
0000
0000
0000
0000
1000
0000
0000
0000
0100
0000
0000
0000
0000
0010
0000
0000
0000
1000
0000
0000
0000
0000
0010
0000
0000
0000
1000
0000
0000
0000
0000
0010
0000
0000
0000
0000
0000
,  // measure 104
0010
1000
0010
1000
0010
1000
0010
1000
,  // measure 105
0100
0001
0100
0001
0100
0001
0100
0001
,  // measure 106
1000
0100
0010
1000
0001
0010
0100
1000
0001
0100
1000
0100
,  // measure 107
1000
0000
0000
0000
0000
0000
0000
0000
0000
0000
0000
0000
0000
0000
0000
0000
0001
0000
0000
0000
0000
0000
0000
0000
0000
0000
0000
0000
0000
0000
0000
0000
0000
0000
0000
0000
1000
0000
0000
0000
0000
0000
0000
0000
0000
0000
0000
0000
0000
0000
0000
0000
0000
0000
0000
0000
0001
0000
0000
0000
0000
0000
0000
0000
0000
0000
0000
0000
0000
0000
0000
0000
1000
0000
0000
0000
0000
0000
0000
0000
0000
0000
0000
0000
0000
0000
0000
0000
0000
0000
0100
0000
0000
0000
0000
0000
0000
0000
0000
0000
0000
0000
0000
0000
0000
0000
0000
0000
0010
0000
0000
0000
0000
0000
0000
0000
0000
0000
0000
0000
0000
0000
0000
0000
0000
0000
1000
0000
0000
0000
0000
0000
0000
0000
0000
0000
0000
0000
0000
0000
0000
0000
0000
0000
0010
0000
0000
0000
0000
0000
0000
0000
0000
0000
0000
0000
0000
0000
0000
0000
0000
0000
0000
0000
0100
0000
0000
0000
0000
0000
0000
0000
0000
0000
0000
0000
0000
0000
0000
0000
0010
0000
0000
0000
0000
0000
0000
0000
0000
0000
0000
0000
,  // measure 108
0000
0000
0001
0000
0000
0000
1000
0000
0000
0000
0000
0010
0000
0000
0000
1000
0000
0000
0000
0010
0000
0000
0000
0000
0100
0000
0000
0000
1000
0000
0000
0000
0000
0100
0000
0000
0000
0000
1000
0000
0000
0000
0100
0000
0000
0000
0010
0000
,  // measure 109
0000
0000
0000
0001
0000
0000
0000
0010
0000
0000
0000
0000
0001
0000
0000
0000
0010
0000
0000
0000
0000
0001
0000
0000
0000
0100
0000
0000
0000
0000
1000
0000
0000
0000
0100
0000
0000
0000
0000
1000
0000
0000
0000
0000
0100
0000
0000
0000
,  // measure 110
0010
0000
0000
0000
0000
0001
0000
0000
0000
0010
0000
0000
0000
0000
0001
0000
0000
0000
0010
0000
0000
0000
0000
0001
0000
0000
0000
0100
0000
0000
0000
1000
0000
0000
0000
0000
0100
0000
0000
0000
0000
1000
0000
0000
0000
0100
0000
0000
,  // measure 111
0000
0000
1000
0000
0000
0000
0001
0000
0000
0000
0010
0000
0000
0000
0000
0001
0000
0000
0000
0010
0000
0000
0000
0000
0100
0000
0000
0000
0001
0000
0000
0000
0000
0100
0000
0000
0000
0001
0000
0000
0000
0000
0100
0000
0000
0000
0000
0001
,  // measure 112
0000
0000
0000
1000
0000
0000
0000
0000
0001
0000
0000
0000
1000
0000
0000
0000
0000
0001
0000
0000
0000
1000
0000
0000
0000
0000
0010
0000
0000
0000
0100
0000
0000
0000
0000
0010
0000
0000
0000
0100
0000
0000
0000
0000
0010
0000
0000
0000
,  // measure 113
0100
0000
0000
0000
0000
1000
0000
0000
0000
0001
0000
0000
0000
1000
0000
0000
0000
0000
0001
0000
0000
0000
1000
0000
0000
0000
0000
0010
0000
0000
0000
1000
0000
0000
0000
0000
0010
0000
0000
0000
0000
1000
0000
0000
0000
0000
0000
0000
,  // measure 114
0110
0100
1010
0010
0101
1000
0110
0010
,  // measure 115
0011
0000
0000
0000
0000
0000
0000
0000
0000
0000
0000
0000
0000
0000
0000
0000
1000
0000
0000
0000
0000
0000
0000
0000
0000
0000
0000
0000
0000
0000
0000
0000
0000
0000
0000
0000
0001
0000
0000
0000
0000
0000
0000
0000
0000
0000
0000
0000
0000
0000
0000
0000
0000
0000
0000
0000
1000
0000
0000
0000
0000
0000
0000
0000
0000
0000
0000
0000
0000
0000
0000
0000
0001
0000
0000
0000
0000
0000
0000
0000
0000
0000
0000
0000
0000
0000
0000
0000
0000
0000
0010
0000
0000
0000
0000
0000
0000
0000
0000
0000
0000
0000
0000
0000
0000
0000
0000
0000
0100
0000
0000
0000
0000
0000
0000
0000
0000
0000
0000
0000
0000
0000
0000
0000
0000
0000
0001
0000
0000
0000
0000
0000
0000
0000
0000
0000
0000
0000
0000
0000
0000
0000
0000
0000
0100
0000
0000
0000
0000
0000
0000
0000
0000
0000
0000
0000
0000
0000
0000
0000
0000
0000
0000
0000
0010
0000
0000
0000
0000
0000
0000
0000
0000
0000
0000
0000
0000
0000
0000
0000
0100
0000
0000
0000
0000
0000
0000
0000
0000
0000
0000
0000
,  // measure 116
0000
0000
1000
0000
0000
0000
0001
0000
0000
0000
0000
0100
0000
0000
0000
0001
0000
0000
0000
0100
0000
0000
0000
0000
0010
0000
0000
0000
0001
0000
0000
0000
0000
0010
0000
0000
0000
0000
0001
0000
0000
0000
0010
0000
0000
0000
0100
0000
,  // measure 117
0000
0000
0000
1000
0000
0000
0000
0100
0000
0000
0000
0000
1000
0000
0000
0000
0100
0000
0000
0000
0000
1000
0000
0000
0000
0010
0000
0000
0000
0000
0001
0000
0000
0000
0010
0000
0000
0000
0000
0001
0000
0000
0000
0000
0010
0000
0000
0000
,  // measure 118
0100
0000
0000
0000
0000
1000
0000
0000
0000
0100
0000
0000
0000
0000
1000
0000
0000
0000
0100
0000
0000
0000
0000
1000
0000
0000
0000
0010
0000
0000
0000
0001
0000
0000
0000
0000
0010
0000
0000
0000
0000
0001
0000
0000
0000
0010
0000
0000
,  // measure 119
0000
0000
0001
0000
0000
0000
1000
0000
0000
0000
0100
0000
0000
0000
0000
1000
0000
0000
0000
0100
0000
0000
0000
0000
0010
0000
0000
0000
1000
0000
0000
0000
0000
0010
0000
0000
0000
1000
0000
0000
0000
0000
0010
0000
0000
0000
0000
0000
,  // measure 120
0010
1000
0010
1000
0010
1000
0010
1000
,  // measure 121
0100
0001
0100
0001
0100
0001
0100
0001
,  // measure 122
1000
0100
0010
1000
0001
0010
0100
1000
0001
0100
1000
0100
,  // measure 123
1000
0000
0000
0000
0000
0000
0000
0000
0000
0000
0000
0000
0000
0000
0000
0000
0001
0000
0000
0000
0000
0000
0000
0000
0000
0000
0000
0000
0000
0000
0000
0000
0000
0000
0000
0000
1000
0000
0000
0000
0000
0000
0000
0000
0000
0000
0000
0000
0000
0000
0000
0000
0000
0000
0000
0000
0001
0000
0000
0000
0000
0000
0000
0000
0000
0000
0000
0000
0000
0000
0000
0000
1000
0000
0000
0000
0000
0000
0000
0000
0000
0000
0000
0000
0000
0000
0000
0000
0000
0000
0100
0000
0000
0000
0000
0000
0000
0000
0000
0000
0000
0000
0000
0000
0000
0000
0000
0000
0010
0000
0000
0000
0000
0000
0000
0000
0000
0000
0000
0000
0000
0000
0000
0000
0000
0000
1000
0000
0000
0000
0000
0000
0000
0000
0000
0000
0000
0000
0000
0000
0000
0000
0000
0000
0010
0000
0000
0000
0000
0000
0000
0000
0000
0000
0000
0000
0000
0000
0000
0000
0000
0000
0000
0000
0100
0000
0000
0000
0000
0000
0000
0000
0000
0000
0000
0000
0000
0000
0000
0000
0010
0000
0000
0000
0000
0000
0000
0000
0000
0000
0000
0000
,  // measure 124
0000
0000
0001
0000
0000
0000
1000
0000
0000
0000
0000
0010
0000
0000
0000
1000
0000
0000
0000
0010
0000
0000
0000
0000
0100
0000
0000
0000
1000
0000
0000
0000
0000
0100
0000
0000
0000
0000
1000
0000
0000
0000
0100
0000
0000
0000
0010
0000
,  // measure 125
0000
0000
0000
0001
0000
0000
0000
0010
0000
0000
0000
0000
0001
0000
0000
0000
0010
0000
0000
0000
0000
0001
0000
0000
0000
0100
0000
0000
0000
0000
1000
0000
0000
0000
0100
0000
0000
0000
0000
1000
0000
0000
0000
0000
0100
0000
0000
0000
,  // measure 126
0010
0000
0000
0000
0000
0001
0000
0000
0000
0010
0000
0000
0000
0000
0001
0000
0000
0000
0010
0000
0000
0000
0000
0001
0000
0000
0000
0100
0000
0000
0000
1000
0000
0000
0000
0000
0100
0000
0000
0000
0000
1000
0000
0000
0000
0100
0000
0000
,  // measure 127
0000
0000
1000
0000
0000
0000
0001
0000
0000
0000
0010
0000
0000
0000
0000
0001
0000
0000
0000
0010
0000
0000
0000
0000
0100
0000
0000
0000
0001
0000
0000
0000
0000
0100
0000
0000
0000
0001
0000
0000
0000
0000
0100
0000
0000
0000
0000
0001
,  // measure 128
0000
0000
0000
1000
0000
0000
0000
0000
0001
0000
0000
0000
1000
0000
0000
0000
0000
0001
0000
0000
0000
1000
0000
0000
0000
0000
0010
0000
0000
0000
0100
0000
0000
0000
0000
0010
0000
0000
0000
0100
0000
0000
0000
0000
0010
0000
0000
0000
,  // measure 129
0100
0000
0000
0000
0000
1000
0000
0000
0000
0001
0000
0000
0000
1000
0000
0000
0000
0000
0001
0000
0000
0000
1000
0000
0000
0000
0000
0010
0000
0000
0000
1000
0000
0000
0000
0000
0010
0000
0000
0000
0000
1000
0000
0000
0000
0000
0000
0000
,  // measure 130
0110
0100
1010
0010
0101
1000
0110
0010
,  // measure 131
0101
0L00
0110
0L00
1100
L000
0101
0L00
,  // measure 132
1001
L000
0110
0L00
0101
0L00
1001
L000
,  // measure 133
1010
00L0
0110
00L0
0101
0L00
0101
0L00
,  // measure 134
1010
L000
1010
L000
0110
00L0
0101
0L00
,  // measure 135
2000
0001
0100
0001
0010
0100
0001
0100
,  // measure 136
0001
0100
0010
0001
0100
0010
0100
0010
,  // measure 137
3100
1000
0001
1000
0100
0001
1000
0010
,  // measure 138
1000
0001
0100
0001
1000
0010
0100
0001
,  // measure 139
1000
0001
0100
0010
1000
0100
0001
1000
,  // measure 140
0001
0010
1000
0001
0100
0001
1000
0001
,  // measure 141
0100
0010
1000
0001
1000
0001
0100
1000
,  // measure 142
0010
0000
0100
0000
0001
0000
1000
0000
0001
0000
1000
0000
0001
0010
0100
1000
,  // measure 143
0010
0100
0010
1000
0001
0100
0001
1000
,  // measure 144
0001
0100
0010
1000
0010
0001
0100
0001
,  // measure 145
1000
0001
0100
0010
1000
0001
0100
0001
,  // measure 146
0100
1000
0010
0100
0001
1000
0001
0100
,  // measure 147
0010
1000
0001
0100
0001
1000
0001
0100
,  // measure 148
1000
0010
1000
0100
0001
0010
0001
1000
,  // measure 149
0100
0001
0010
1000
0001
0100
0001
0100
,  // measure 150
1000
0010
1000
0001
0100
0001
1000
0001
,  // measure 151
1001
1000
0100
0001
1000
0001
0100
0001
,  // measure 152
1000
0010
1000
0100
0001
1000
0001
0100
,  // measure 153
0010
1000
0100
0001
0010
0001
0100
1000
,  // measure 154
0100
0001
1000
0001
1000
0010
1000
0100
,  // measure 155
0001
1000
0001
0010
0100
1000
0001
0100
,  // measure 156
0001
1000
0010
0100
0001
0100
0001
1000
,  // measure 157
0010
1000
0100
0001
1000
0001
0100
0010
,  // measure 158
1000
0100
2010
0000
3210
0000
1302
0000
,  // measure 159
1003
0010
0100
1000
0010
1000
0001
1000
,  // measure 160
0001
0100
0001
1000
0100
0001
0010
1000
,  // measure 161
0001
0100
0001
0100
1000
0010
1000
0001
,  // measure 162
0100
0001
0010
1000
0001
1000
0001
0100
,  // measure 163
1000
0010
1000
0001
0100
0001
1000
0001
,  // measure 164
0100
0010
1000
0001
0100
0001
1000
0100
,  // measure 165
0010
0100
0010
1000
0001
0100
0001
0100
,  // measure 166
2001
3210
1320
0132
,  // measure 167
0013
1000
0100
0010
1000
0001
0100
0001
,  // measure 168
1000
0001
0100
0010
1000
0001
0100
0001
,  // measure 169
1000
0001
1000
0100
0001
0010
1000
0001
,  // measure 170
0100
0001
0100
1000
0100
1000
0001
0100
,  // measure 171
0010
1000
0001
0100
0001
1000
0001
0100
,  // measure 172
1000
0100
0010
1000
0001
0100
0001
1000
,  // measure 173
0001
0100
0010
1000
0001
0100
0001
0100
,  // measure 174
1000
0010
1200
0000
1320
0000
2031
0000
,  // measure 175
3100
0010
0001
0100
0001
1000
0001
0100
,  // measure 176
0010
1000
0001
0100
0001
1000
0001
0100
,  // measure 177
0010
1000
0001
0100
1000
0010
0100
0001
,  // measure 178
0100
0001
1000
0001
0100
1000
0001
1000
,  // measure 179
0001
0100
0010
1000
0100
0001
1000
0001
,  // measure 180
0100
0010
1000
0001
0100
0001
1000
0001
,  // measure 181
1000
0100
0010
0001
1000
0100
0010
0001
1000
0100
0010
0001
1000
0100
0010
0001
,  // measure 182
0001
0010
0100
1000
0001
0010
0100
1000
0001
0010
0100
1000
0001
0010
0100
1000
,  // measure 183
0010
0100
1000
0100
0010
0100
1000
0100
0010
0100
1000
0100
0010
0100
1000
0100
,  // measure 184
0010
0001
0010
0100
0010
0001
0010
0100
0010
0001
0010
0100
0010
0001
0010
0100
,  // measure 185
0101
0000
0000
0000
0000
0000
0000
0000
0000
0000
0000
0000
0000
0000
0000
0000
0010
0000
0000
0000
0000
0000
0000
0000
0000
0000
0000
0000
0000
0000
0000
0000
0000
0000
0000
0000
0100
0000
0000
0000
0000
0000
0000
0000
0000
0000
0000
0000
0000
0000
0000
0000
0000
0000
0000
0000
0010
0000
0000
0000
0000
0000
0000
0000
0000
0000
0000
0000
0000
0000
0000
0000
0100
0000
0000
0000
0000
0000
0000
0000
0000
0000
0000
0000
0000
0000
0000
0000
0000
0000
0001
0000
0000
0000
0000
0000
0000
0000
0000
0000
0000
0000
0000
0000
0000
0000
0000
0000
1000
0000
0000
0000
0000
0000
0000
0000
0000
0000
0000
0000
0000
0000
0000
0000
0000
0000
0100
0000
0000
0000
0000
0000
0000
0000
0000
0000
0000
0000
0000
0000
0000
0000
0000
0000
1000
0000
0000
0000
0000
0000
0000
0000
0000
0000
0000
0000
0000
0000
0000
0000
0000
0000
0000
0000
0001
0000
0000
0000
0000
0000
0000
0000
0000
0000
0000
0000
0000
0000
0000
0000
1000
0000
0000
0000
0000
0000
0000
0000
0000
0000
0000
0000
,  // measure 186
0000
0000
0010
0000
0000
0000
0100
0000
0000
0000
0000
1000
0000
0000
0000
0100
0000
0000
0000
1000
0000
0000
0000
0000
0001
0000
0000
0000
0100
0000
0000
0000
0000
0001
0000
0000
0000
0000
0100
0000
0000
0000
0001
0000
0000
0000
1000
0000
,  // measure 187
0000
0000
0000
0010
0000
0000
0000
1000
0000
0000
0000
0000
0010
0000
0000
0000
1000
0000
0000
0000
0000
0010
0000
0000
0000
0001
0000
0000
0000
0000
0100
0000
0000
0000
0001
0000
0000
0000
0000
0100
0000
0000
0000
0000
0001
0000
0000
0000
,  // measure 188
1000
0000
0000
0000
0000
0010
0000
0000
0000
1000
0000
0000
0000
0000
0010
0000
0000
0000
1000
0000
0000
0000
0000
0010
0000
0000
0000
0001
0000
0000
0000
0100
0000
0000
0000
0000
0001
0000
0000
0000
0000
0100
0000
0000
0000
0001
0000
0000
,  // measure 189
0000
0000
0100
0000
0000
0000
0010
0000
0000
0000
1000
0000
0000
0000
0000
0010
0000
0000
0000
1000
0000
0000
0000
0000
0001
0000
0000
0000
0010
0000
0000
0000
0000
0001
0000
0000
0000
0010
0000
0000
0000
0000
0001
0000
0000
0000
0000
0000
,  // measure 190
0001
0010
0001
0010
0001
0010
0001
0010
,  // measure 191
1000
0100
1000
0100
1000
0100
1000
0100
,  // measure 192
0010
1000
0001
0010
0100
0001
1000
0010
0100
1000
0010
1000
,  // measure 193
0010
0000
0000
0000
0000
0000
0000
0000
0000
0000
0000
0000
0000
0000
0000
0000
0100
0000
0000
0000
0000
0000
0000
0000
0000
0000
0000
0000
0000
0000
0000
0000
0000
0000
0000
0000
0010
0000
0000
0000
0000
0000
0000
0000
0000
0000
0000
0000
0000
0000
0000
0000
0000
0000
0000
0000
0100
0000
0000
0000
0000
0000
0000
0000
0000
0000
0000
0000
0000
0000
0000
0000
0010
0000
0000
0000
0000
0000
0000
0000
0000
0000
0000
0000
0000
0000
0000
0000
0000
0000
1000
0000
0000
0000
0000
0000
0000
0000
0000
0000
0000
0000
0000
0000
0000
0000
0000
0000
0001
0000
0000
0000
0000
0000
0000
0000
0000
0000
0000
0000
0000
0000
0000
0000
0000
0000
0010
0000
0000
0000
0000
0000
0000
0000
0000
0000
0000
0000
0000
0000
0000
0000
0000
0000
0001
0000
0000
0000
0000
0000
0000
0000
0000
0000
0000
0000
0000
0000
0000
0000
0000
0000
0000
0000
1000
0000
0000
0000
0000
0000
0000
0000
0000
0000
0000
0000
0000
0000
0000
0000
0001
0000
0000
0000
0000
0000
0000
0000
0000
0000
0000
0000
,  // measure 194
0000
0000
0100
0000
0000
0000
0010
0000
0000
0000
0000
0001
0000
0000
0000
0010
0000
0000
0000
0001
0000
0000
0000
0000
1000
0000
0000
0000
0010
0000
0000
0000
0000
1000
0000
0000
0000
0000
0010
0000
0000
0000
1000
0000
0000
0000
0001
0000
,  // measure 195
0000
0000
0000
0100
0000
0000
0000
0001
0000
0000
0000
0000
0100
0000
0000
0000
0001
0000
0000
0000
0000
0100
0000
0000
0000
1000
0000
0000
0000
0000
0010
0000
0000
0000
1000
0000
0000
0000
0000
0010
0000
0000
0000
0000
1000
0000
0000
0000
,  // measure 196
0001
0000
0000
0000
0000
0100
0000
0000
0000
0001
0000
0000
0000
0000
0100
0000
0000
0000
0001
0000
0000
0000
0000
0100
0000
0000
0000
1000
0000
0000
0000
0010
0000
0000
0000
0000
1000
0000
0000
0000
0000
0010
0000
0000
0000
1000
0000
0000
,  // measure 197
0000
0000
0010
0000
0000
0000
0100
0000
0000
0000
0001
0000
0000
0000
0000
0100
0000
0000
0000
0001
0000
0000
0000
0000
1000
0000
0000
0000
0100
0000
0000
0000
0000
1000
0000
0000
0000
0100
0000
0000
0000
0000
1000
0000
0000
0000
0000
0100
,  // measure 198
0000
0000
0000
0010
0000
0000
0000
0000
0100
0000
0000
0000
0010
0000
0000
0000
0000
0100
0000
0000
0000
0010
0000
0000
0000
0000
0001
0000
0000
0000
1000
0000
0000
0000
0000
0001
0000
0000
0000
1000
0000
0000
0000
0000
0001
0000
0000
0000
,  // measure 199
1000
0000
0000
0000
0000
0010
0000
0000
0000
0100
0000
0000
0000
0010
0000
0000
0000
0000
0100
0000
0000
0000
0010
0000
0000
0000
0000
0001
0000
0000
0000
0010
0000
0000
0000
0000
0001
0000
0000
0000
0000
0010
0000
0000
0000
0000
0000
0000
,  // measure 200
1001
1000
0011
0001
1100
0010
1001
0001
,  // measure 201
0101
0000
0000
0000
0000
0000
0000
0000
0000
0000
0000
0000
0000
0000
0000
0000
0010
0000
0000
0000
0000
0000
0000
0000
0000
0000
0000
0000
0000
0000
0000
0000
0000
0000
0000
0000
0100
0000
0000
0000
0000
0000
0000
0000
0000
0000
0000
0000
0000
0000
0000
0000
0000
0000
0000
0000
0010
0000
0000
0000
0000
0000
0000
0000
0000
0000
0000
0000
0000
0000
0000
0000
0100
0000
0000
0000
0000
0000
0000
0000
0000
0000
0000
0000
0000
0000
0000
0000
0000
0000
0001
0000
0000
0000
0000
0000
0000
0000
0000
0000
0000
0000
0000
0000
0000
0000
0000
0000
1000
0000
0000
0000
0000
0000
0000
0000
0000
0000
0000
0000
0000
0000
0000
0000
0000
0000
0100
0000
0000
0000
0000
0000
0000
0000
0000
0000
0000
0000
0000
0000
0000
0000
0000
0000
1000
0000
0000
0000
0000
0000
0000
0000
0000
0000
0000
0000
0000
0000
0000
0000
0000
0000
0000
0000
0001
0000
0000
0000
0000
0000
0000
0000
0000
0000
0000
0000
0000
0000
0000
0000
1000
0000
0000
0000
0000
0000
0000
0000
0000
0000
0000
0000
,  // measure 202
0000
0000
0010
0000
0000
0000
0100
0000
0000
0000
0000
1000
0000
0000
0000
0100
0000
0000
0000
1000
0000
0000
0000
0000
0001
0000
0000
0000
0100
0000
0000
0000
0000
0001
0000
0000
0000
0000
0100
0000
0000
0000
0001
0000
0000
0000
1000
0000
,  // measure 203
0000
0000
0000
0010
0000
0000
0000
1000
0000
0000
0000
0000
0010
0000
0000
0000
1000
0000
0000
0000
0000
0010
0000
0000
0000
0001
0000
0000
0000
0000
0100
0000
0000
0000
0001
0000
0000
0000
0000
0100
0000
0000
0000
0000
0001
0000
0000
0000
,  // measure 204
1000
0000
0000
0000
0000
0010
0000
0000
0000
1000
0000
0000
0000
0000
0010
0000
0000
0000
1000
0000
0000
0000
0000
0010
0000
0000
0000
0001
0000
0000
0000
0100
0000
0000
0000
0000
0001
0000
0000
0000
0000
0100
0000
0000
0000
0001
0000
0000
,  // measure 205
0000
0000
0100
0000
0000
0000
0010
0000
0000
0000
1000
0000
0000
0000
0000
0010
0000
0000
0000
1000
0000
0000
0000
0000
0001
0000
0000
0000
0010
0000
0000
0000
0000
0001
0000
0000
0000
0010
0000
0000
0000
0000
0001
0000
0000
0000
0000
0000
,  // measure 206
0001
0010
0001
0010
0001
0010
0001
0010
,  // measure 207
1000
0100
1000
0100
1000
0100
1000
0100
,  // measure 208
0010
1000
0001
0010
0100
0001
1000
0010
0100
1000
0010
1000
,  // measure 209
0010
0000
0000
0000
0000
0000
0000
0000
0000
0000
0000
0000
0000
0000
0000
0000
0100
0000
0000
0000
0000
0000
0000
0000
0000
0000
0000
0000
0000
0000
0000
0000
0000
0000
0000
0000
0010
0000
0000
0000
0000
0000
0000
0000
0000
0000
0000
0000
0000
0000
0000
0000
0000
0000
0000
0000
0100
0000
0000
0000
0000
0000
0000
0000
0000
0000
0000
0000
0000
0000
0000
0000
0010
0000
0000
0000
0000
0000
0000
0000
0000
0000
0000
0000
0000
0000
0000
0000
0000
0000
1000
0000
0000
0000
0000
0000
0000
0000
0000
0000
0000
0000
0000
0000
0000
0000
0000
0000
0001
0000
0000
0000
0000
0000
0000
0000
0000
0000
0000
0000
0000
0000
0000
0000
0000
0000
0010
0000
0000
0000
0000
0000
0000
0000
0000
0000
0000
0000
0000
0000
0000
0000
0000
0000
0001
0000
0000
0000
0000
0000
0000
0000
0000
0000
0000
0000
0000
0000
0000
0000
0000
0000
0000
0000
1000
0000
0000
0000
0000
0000
0000
0000
0000
0000
0000
0000
0000
0000
0000
0000
0001
0000
0000
0000
0000
0000
0000
0000
0000
0000
0000
0000
,  // measure 210
0000
0000
0100
0000
0000
0000
0010
0000
0000
0000
0000
0001
0000
0000
0000
0010
0000
0000
0000
0001
0000
0000
0000
0000
1000
0000
0000
0000
0010
0000
0000
0000
0000
1000
0000
0000
0000
0000
0010
0000
0000
0000
1000
0000
0000
0000
0001
0000
,  // measure 211
0000
0000
0000
0100
0000
0000
0000
0001
0000
0000
0000
0000
0100
0000
0000
0000
0001
0000
0000
0000
0000
0100
0000
0000
0000
1000
0000
0000
0000
0000
0010
0000
0000
0000
1000
0000
0000
0000
0000
0010
0000
0000
0000
0000
1000
0000
0000
0000
,  // measure 212
0001
0000
0000
0000
0000
0100
0000
0000
0000
0001
0000
0000
0000
0000
0100
0000
0000
0000
0001
0000
0000
0000
0000
0100
0000
0000
0000
1000
0000
0000
0000
0010
0000
0000
0000
0000
1000
0000
0000
0000
0000
0010
0000
0000
0000
1000
0000
0000
,  // measure 213
0000
0000
0010
0000
0000
0000
0100
0000
0000
0000
0001
0000
0000
0000
0000
0100
0000
0000
0000
0001
0000
0000
0000
0000
1000
0000
0000
0000
0100
0000
0000
0000
0000
1000
0000
0000
0000
0100
0000
0000
0000
0000
1000
0000
0000
0000
0000
0100
,  // measure 214
0000
0000
0000
0010
0000
0000
0000
0000
0100
0000
0000
0000
0010
0000
0000
0000
0000
0100
0000
0000
0000
0010
0000
0000
0000
0000
0001
0000
0000
0000
1000
0000
0000
0000
0000
0001
0000
0000
0000
1000
0000
0000
0000
0000
0001
0000
0000
0000
,  // measure 215
1000
0000
0000
0000
0000
0010
0000
0000
0000
0100
0000
0000
0000
0010
0000
0000
0000
0000
0100
0000
0000
0000
0010
0000
0000
0000
0000
0001
0000
0000
0000
0010
0000
0000
0000
0000
0001
0000
0000
0000
0000
0010
0000
0000
0000
0000
0000
0000
,  // measure 216
1001
1000
0011
0001
1100
0010
1001
0001
,  // measure 217
0101
0000
0000
0000
0000
0000
0000
0000
0000
0000
0000
0000
0000
0000
0000
0000
0010
0000
0000
0000
0000
0000
0000
0000
0000
0000
0000
0000
0000
0000
0000
0000
0000
0000
0000
0000
0100
0000
0000
0000
0000
0000
0000
0000
0000
0000
0000
0000
0000
0000
0000
0000
0000
0000
0000
0000
0010
0000
0000
0000
0000
0000
0000
0000
0000
0000
0000
0000
0000
0000
0000
0000
0100
0000
0000
0000
0000
0000
0000
0000
0000
0000
0000
0000
0000
0000
0000
0000
0000
0000
0001
0000
0000
0000
0000
0000
0000
0000
0000
0000
0000
0000
0000
0000
0000
0000
0000
0000
1000
0000
0000
0000
0000
0000
0000
0000
0000
0000
0000
0000
0000
0000
0000
0000
0000
0000
0100
0000
0000
0000
0000
0000
0000
0000
0000
0000
0000
0000
0000
0000
0000
0000
0000
0000
1000
0000
0000
0000
0000
0000
0000
0000
0000
0000
0000
0000
0000
0000
0000
0000
0000
0000
0000
0000
0001
0000
0000
0000
0000
0000
0000
0000
0000
0000
0000
0000
0000
0000
0000
0000
1000
0000
0000
0000
0000
0000
0000
0000
0000
0000
0000
0000
,  // measure 218
0000
0000
0010
0000
0000
0000
0100
0000
0000
0000
0000
1000
0000
0000
0000
0100
0000
0000
0000
1000
0000
0000
0000
0000
0001
0000
0000
0000
0100
0000
0000
0000
0000
0001
0000
0000
0000
0000
0100
0000
0000
0000
0001
0000
0000
0000
1000
0000
,  // measure 219
0000
0000
0000
0010
0000
0000
0000
1000
0000
0000
0000
0000
0010
0000
0000
0000
1000
0000
0000
0000
0000
0010
0000
0000
0000
0001
0000
0000
0000
0000
0100
0000
0000
0000
0001
0000
0000
0000
0000
0100
0000
0000
0000
0000
0001
0000
0000
0000
,  // measure 220
1000
0000
0000
0000
0000
0010
0000
0000
0000
1000
0000
0000
0000
0000
0010
0000
0000
0000
1000
0000
0000
0000
0000
0010
0000
0000
0000
0001
0000
0000
0000
0100
0000
0000
0000
0000
0001
0000
0000
0000
0000
0100
0000
0000
0000
0001
0000
0000
,  // measure 221
0000
0000
0100
0000
0000
0000
0010
0000
0000
0000
1000
0000
0000
0000
0000
0010
0000
0000
0000
1000
0000
0000
0000
0000
0001
0000
0000
0000
0010
0000
0000
0000
0000
0001
0000
0000
0000
0010
0000
0000
0000
0000
0001
0000
0000
0000
0000
0000
,  // measure 222
0001
0010
0001
0010
0001
0010
0001
0010
,  // measure 223
1000
0100
1000
0100
1000
0100
1000
0100
,  // measure 224
0010
1000
0001
0010
0100
0001
1000
0010
0100
1000
0010
1000
,  // measure 225
0010
0000
0000
0000
0000
0000
0000
0000
0000
0000
0000
0000
0000
0000
0000
0000
0100
0000
0000
0000
0000
0000
0000
0000
0000
0000
0000
0000
0000
0000
0000
0000
0000
0000
0000
0000
0010
0000
0000
0000
0000
0000
0000
0000
0000
0000
0000
0000
0000
0000
0000
0000
0000
0000
0000
0000
0100
0000
0000
0000
0000
0000
0000
0000
0000
0000
0000
0000
0000
0000
0000
0000
0010
0000
0000
0000
0000
0000
0000
0000
0000
0000
0000
0000
0000
0000
0000
0000
0000
0000
1000
0000
0000
0000
0000
0000
0000
0000
0000
0000
0000
0000
0000
0000
0000
0000
0000
0000
0001
0000
0000
0000
0000
0000
0000
0000
0000
0000
0000
0000
0000
0000
0000
0000
0000
0000
0010
0000
0000
0000
0000
0000
0000
0000
0000
0000
0000
0000
0000
0000
0000
0000
0000
0000
0001
0000
0000
0000
0000
0000
0000
0000
0000
0000
0000
0000
0000
0000
0000
0000
0000
0000
0000
0000
1000
0000
0000
0000
0000
0000
0000
0000
0000
0000
0000
0000
0000
0000
0000
0000
0001
0000
0000
0000
0000
0000
0000
0000
0000
0000
0000
0000
,  // measure 226
0000
0000
0100
0000
0000
0000
0010
0000
0000
0000
0000
0001
0000
0000
0000
0010
0000
0000
0000
0001
0000
0000
0000
0000
1000
0000
0000
0000
0010
0000
0000
0000
0000
1000
0000
0000
0000
0000
0010
0000
0000
0000
1000
0000
0000
0000
0001
0000
,  // measure 227
0000
0000
0000
0100
0000
0000
0000
0001
0000
0000
0000
0000
0100
0000
0000
0000
0001
0000
0000
0000
0000
0100
0000
0000
0000
1000
0000
0000
0000
0000
0010
0000
0000
0000
1000
0000
0000
0000
0000
0010
0000
0000
0000
0000
1000
0000
0000
0000
,  // measure 228
0001
0000
0000
0000
0000
0100
0000
0000
0000
0001
0000
0000
0000
0000
0100
0000
0000
0000
0001
0000
0000
0000
0000
0100
0000
0000
0000
1000
0000
0000
0000
0010
0000
0000
0000
0000
1000
0000
0000
0000
0000
0010
0000
0000
0000
1000
0000
0000
,  // measure 229
0000
0000
0010
0000
0000
0000
0100
0000
0000
0000
0001
0000
0000
0000
0000
0100
0000
0000
0000
0001
0000
0000
0000
0000
1000
0000
0000
0000
0100
0000
0000
0000
0000
1000
0000
0000
0000
0100
0000
0000
0000
0000
1000
0000
0000
0000
0000
0100
,  // measure 230
0000
0000
0000
0010
0000
0000
0000
0000
0100
0000
0000
0000
0010
0000
0000
0000
0000
0100
0000
0000
0000
0010
0000
0000
0000
0000
0001
0000
0000
0000
1000
0000
0000
0000
0000
0001
0000
0000
0000
1000
0000
0000
0000
0000
0001
0000
0000
0000
,  // measure 231
1000
0000
0000
0000
0000
0010
0000
0000
0000
0100
0000
0000
0000
0010
0000
0000
0000
0000
0100
0000
0000
0000
0010
0000
0000
0000
0000
0001
0000
0000
0000
0010
0000
0000
0000
0000
0001
0000
0000
0000
0000
0010
0000
0000
0000
0000
0000
0000
,  // measure 232
1001
1000
0011
0001
1100
0010
1001
0001
,  // measure 233
2002
0MM0
3223
M00M
2332
0MM0
3223
M00M
,  // measure 234
2332
0MM0
3223
M00M
2332
0MM0
3223
M00M
,  // measure 235
2332
0MM0
3223
M00M
2332
0MM0
3223
M00M
,  // measure 236
2332
0MM0
3223
M00M
2332
0MM0
3223
M00M
,  // measure 237
2002
0000
0000
0000
,  // measure 238
0000
0000
0000
0000
,  // measure 239
0000
0000
0000
0000
,  // measure 240
0000
0000
0000
0000
,  // measure 241
0000
0000
0000
0000
,  // measure 242
0000
0000
0000
0000
,  // measure 243
0000
0000
0000
0000
,  // measure 244
0000
0000
0000
0000
,  // measure 245
0000
0000
0000
0000
,  // measure 246
0000
0000
0000
0000
,  // measure 247
0000
0000
0000
0000
,  // measure 248
0000
0000
0000
0000
,  // measure 249
0000
0000
0000
0000
,  // measure 250
0000
0000
0000
0000
,  // measure 251
0000
0000
0000
0000
,  // measure 252
0000
0000
0000
0000
,  // measure 253
0000
0000
0000
0000
,  // measure 254
3333
MMMM
MMMM
0000
0000
0000
0000
0000
;

//---------------dance-single - Groove Radar----------------
#NOTES:
     dance-single:
     :
     Challenge:
     20:
     1.246636,1.602970,0.975375,1.005044,1.394452,2353.000000,2088.000000,263.000000,271.000000,40.000000,49.000000,1.246636,1.602970,0.975375,1.005044,1.394452,2353.000000,2088.000000,263.000000,271.000000,40.000000,49.000000:
// measure 0
2222
0000
0000
0000
0000
0000
0000
0000
0000
0000
0000
0000
0000
0000
0000
3333
,  // measure 1
2001
3001
0010
0001
0000
0001
0010
0100
,  // measure 2
1000
0001
0100
0001
1000
0100
0001
1000
,  // measure 3
0210
0301
0100
0010
0000
0010
1000
0100
,  // measure 4
0001
0000
1000
0000
0001
0000
0010
0000
1000
0000
0001
0010
0100
0010
0001
0000
,  // measure 5
2100
3010
0100
0001
0000
0001
0010
0100
,  // measure 6
0001
1000
0001
1000
0010
0100
0001
1000
,  // measure 7
0120
0130
0001
1000
0102
1003
0100
0001
,  // measure 8
2001
3010
1002
0103
2001
3010
1002
0103
,  // measure 9
2001
3100
0001
1000
0100
0010
0000
1000
,  // measure 10
0100
0001
1000
0001
1000
0010
0100
0001
,  // measure 11
2100
3010
0100
0001
0000
0100
0001
0100
,  // measure 12
1000
0000
0001
0000
0120
0000
1030
0000
0220
0330
0000
0220
0330
0000
0220
0330
,  // measure 13
1001
0100
0001
1000
0000
0011
1100
0010
,  // measure 14
0001
0100
1000
0001
0100
0001
1000
0010
,  // measure 15
0110
0001
0010
0100
0011
1000
0001
0100
,  // measure 16
0101
1000
1010
0100
0011
1000
0011
1000
,  // measure 17
0101
1000
0010
0100
0000
0001
0100
1000
,  // measure 18
0001
1000
0001
1000
0010
0001
0100
0001
,  // measure 19
1100
0010
0100
0001
0000
0100
0010
0001
,  // measure 20
1000
0000
0001
0000
1100
0000
0010
0000
1001
0000
0000
1001
0000
0000
1001
0000
,  // measure 21
0011
0010
0001
0100
1000
0101
1100
0010
,  // measure 22
0100
1000
1010
0100
1010
0001
0110
0001
,  // measure 23
2100
3000
0210
0300
0021
0030
0120
0030
,  // measure 24
1200
0300
0210
0300
0021
0030
0120
0030
,  // measure 25
1000
0000
0000
0000
0000
0000
0000
0000
0000
0000
0000
0000
0000
0000
0000
0000
0001
0000
0000
0000
0000
0000
0000
0000
0000
0000
0000
0000
0000
0000
0000
0000
0000
0000
0000
0000
1000
0000
0000
0000
0000
0000
0000
0000
0000
0000
0000
0000
0000
0000
0000
0000
0000
0000
0000
0000
0001
0000
0000
0000
0000
0000
0000
0000
0000
0000
0000
0000
0000
0000
0000
0000
1000
0000
0000
0000
0000
0000
0000
0000
0000
0000
0000
0000
0000
0000
0000
0000
0000
0000
0100
0000
0000
0000
0000
0000
0000
0000
0000
0000
0000
0000
0000
0000
0000
0000
0000
0000
0010
0000
0000
0000
0000
0000
0000
0000
0000
0000
0000
0000
0000
0000
0000
0000
0000
0000
1000
0000
0000
0000
0000
0000
0000
0000
0000
0000
0000
0000
0000
0000
0000
0000
0000
0000
0010
0000
0000
0000
0000
0000
0000
0000
0000
0000
0000
0000
0000
0000
0000
0000
0000
0000
0000
0000
0100
0000
0000
0000
0000
0000
0000
0000
0000
0000
0000
0000
0000
0000
0000
0000
0010
0000
0000
0000
0000
0000
0000
0000
0000
0000
0000
0000
,  // measure 26
0000
0000
0001
0000
0000
0000
1000
0000
0000
0000
0000
0010
0000
0000
0000
1000
0000
0000
0000
0010
0000
0000
0000
0000
0100
0000
0000
0000
1000
0000
0000
0000
0000
0100
0000
0000
0000
0000
1000
0000
0000
0000
0100
0000
0000
0000
0010
0000
,  // measure 27
0000
0000
0000
0001
0000
0000
0000
0010
0000
0000
0000
0000
0001
0000
0000
0000
0010
0000
0000
0000
0000
0001
0000
0000
0000
0100
0000
0000
0000
0000
1000
0000
0000
0000
0100
0000
0000
0000
0000
1000
0000
0000
0000
0000
0100
0000
0000
0000
,  // measure 28
0010
0000
0000
0000
0000
0001
0000
0000
0000
0010
0000
0000
0000
0000
0001
0000
0000
0000
0010
0000
0000
0000
0000
0001
0000
0000
0000
0100
0000
0000
0000
1000
0000
0000
0000
0000
0100
0000
0000
0000
0000
1000
0000
0000
0000
0100
0000
0000
,  // measure 29
0000
0000
1000
0000
0000
0000
0001
0000
0000
0000
0010
0000
0000
0000
0000
0001
0000
0000
0000
0010
0000
0000
0000
0000
0100
0000
0000
0000
0001
0000
0000
0000
0000
0100
0000
0000
0000
0001
0000
0000
0000
0000
0100
0000
0000
0000
0000
0000
,  // measure 30
0210
0301
0210
0301
0210
0301
0210
0301
,  // measure 31
0021
1030
0021
1030
0021
1030
0021
1030
,  // measure 32
0001
0010
0100
0001
1000
0100
0010
0001
1000
0010
0001
0010
,  // measure 33
0001
0000
0000
0000
0000
0000
0000
0000
0000
0000
0000
0000
0000
0000
0000
0000
1000
0000
0000
0000
0000
0000
0000
0000
0000
0000
0000
0000
0000
0000
0000
0000
0000
0000
0000
0000
0001
0000
0000
0000
0000
0000
0000
0000
0000
0000
0000
0000
0000
0000
0000
0000
0000
0000
0000
0000
1000
0000
0000
0000
0000
0000
0000
0000
0000
0000
0000
0000
0000
0000
0000
0000
0001
0000
0000
0000
0000
0000
0000
0000
0000
0000
0000
0000
0000
0000
0000
0000
0000
0000
0010
0000
0000
0000
0000
0000
0000
0000
0000
0000
0000
0000
0000
0000
0000
0000
0000
0000
0100
0000
0000
0000
0000
0000
0000
0000
0000
0000
0000
0000
0000
0000
0000
0000
0000
0000
0001
0000
0000
0000
0000
0000
0000
0000
0000
0000
0000
0000
0000
0000
0000
0000
0000
0000
0100
0000
0000
0000
0000
0000
0000
0000
0000
0000
0000
0000
0000
0000
0000
0000
0000
0000
0000
0000
0010
0000
0000
0000
0000
0000
0000
0000
0000
0000
0000
0000
0000
0000
0000
0000
0100
0000
0000
0000
0000
0000
0000
0000
0000
0000
0000
0000
,  // measure 34
0000
0000
1000
0000
0000
0000
0001
0000
0000
0000
0000
0100
0000
0000
0000
0001
0000
0000
0000
0100
0000
0000
0000
0000
0010
0000
0000
0000
0001
0000
0000
0000
0000
0010
0000
0000
0000
0000
0001
0000
0000
0000
0010
0000
0000
0000
0100
0000
,  // measure 35
0000
0000
0000
1000
0000
0000
0000
0100
0000
0000
0000
0000
1000
0000
0000
0000
0100
0000
0000
0000
0000
1000
0000
0000
0000
0010
0000
0000
0000
0000
0001
0000
0000
0000
0010
0000
0000
0000
0000
0001
0000
0000
0000
0000
0010
0000
0000
0000
,  // measure 36
0100
0000
0000
0000
0000
1000
0000
0000
0000
0100
0000
0000
0000
0000
1000
0000
0000
0000
0100
0000
0000
0000
0000
1000
0000
0000
0000
0010
0000
0000
0000
0001
0000
0000
0000
0000
0010
0000
0000
0000
0000
0001
0000
0000
0000
0010
0000
0000
,  // measure 37
0000
0000
0001
0000
0000
0000
1000
0000
0000
0000
0100
0000
0000
0000
0000
1000
0000
0000
0000
0100
0000
0000
0000
0000
0010
0000
0000
0000
1000
0000
0000
0000
0000
0010
0000
0000
0000
1000
0000
0000
0000
0000
0010
0000
0000
0000
0000
1000
,  // measure 38
0000
0000
0000
0001
0000
0000
0000
0000
1000
0000
0000
0000
0001
0000
0000
0000
0000
1000
0000
0000
0000
0001
0000
0000
0000
0000
0100
0000
0000
0000
0010
0000
0000
0000
0000
0100
0000
0000
0000
0010
0000
0000
0000
0000
0100
0000
0000
0000
,  // measure 39
0010
0000
0000
0000
0000
0001
0000
0000
0000
1000
0000
0000
0000
0001
0000
0000
0000
0000
1000
0000
0000
0000
0001
0000
0000
0000
0000
0100
0000
0000
0000
0001
0000
0000
0000
0000
0100
0000
0000
0000
0000
0001
0000
0000
0000
0000
0000
0000
,  // measure 40
1200
1300
2100
3100
0201
0301
0102
0103
,  // measure 41
4100
0010
3104
0010
1403
1000
0341
1000
,  // measure 42
0134
1000
1403
0010
0314
0010
4103
0010
,  // measure 43
3201
0010
0001
1000
1300
1000
0100
1000
,  // measure 44
0110
0100
0010
0100
1000
1000
0010
0010
,  // measure 45
1100
1000
0010
0100
0100
1000
0001
1000
,  // measure 46
0101
1000
0100
1000
0100
0010
0100
0100
,  // measure 47
0011
1000
0010
1000
0100
1000
0010
0010
,  // measure 48
1001
0100
0100
0100
0100
0010
0001
0010
,  // measure 49
0102
1000
0203
1000
0302
0010
2003
0010
,  // measure 50
3102
0010
2003
0100
3002
0100
0203
0010
,  // measure 51
1320
0100
1000
0100
1030
1000
0010
1000
,  // measure 52
1100
1000
0100
0001
0010
0010
0001
0010
,  // measure 53
1010
0010
0100
0100
1000
0100
0010
0001
,  // measure 54
1100
0010
0001
0010
1000
1000
1000
0010
,  // measure 55
1100
0001
0010
0001
1000
1000
0010
0100
,  // measure 56
1010
0100
0010
0010
0010
1000
1000
1000
,  // measure 57
0120
2030
3002
2003
3200
2300
3002
0203
,  // measure 58
0302
0023
2030
3200
2300
3020
2030
3200
,  // measure 59
0312
0000
0000
0000
0000
0000
0000
0000
0000
0000
0000
0000
0000
0000
0000
0000
0010
0000
0000
0000
0000
0000
0000
0000
0000
0000
0000
0000
0000
0000
0000
0000
0000
0000
0000
0000
0100
0000
0000
0000
0000
0000
0000
0000
0000
0000
0000
0000
0003
0000
0000
0000
0000
0000
0000
0000
0010
0000
0000
0000
0000
0000
0000
0000
0000
0000
0000
0000
0000
0000
0000
0000
0100
0000
0000
0000
0000
0000
0000
0000
0000
0000
0000
0000
0000
0000
0000
0000
0000
0000
0001
0000
0000
0000
0000
0000
0000
0000
0000
0000
0000
0000
0000
0000
0000
0000
0000
0000
1000
0000
0000
0000
0000
0000
0000
0000
0000
0000
0000
0000
0000
0000
0000
0000
0000
0000
0100
0000
0000
0000
0000
0000
0000
0000
0000
0000
0000
0000
0000
0000
0000
0000
0000
0000
1000
0000
0000
0000
0000
0000
0000
0000
0000
0000
0000
0000
0000
0000
0000
0000
0000
0000
0000
0000
0001
0000
0000
0000
0000
0000
0000
0000
0000
0000
0000
0000
0000
0000
0000
0000
1000
0000
0000
0000
0000
0000
0000
0000
0000
0000
0000
0000
,  // measure 60
0000
0000
0010
0000
0000
0000
0100
0000
0000
0000
0000
1000
0000
0000
0000
0100
0000
0000
0000
1000
0000
0000
0000
0000
0001
0000
0000
0000
0100
0000
0000
0000
0000
0001
0000
0000
0000
0000
0100
0000
0000
0000
0001
0000
0000
0000
1000
0000
,  // measure 61
0000
0000
0000
0010
0000
0000
0000
1000
0000
0000
0000
0000
0010
0000
0000
0000
1000
0000
0000
0000
0000
0010
0000
0000
0000
0001
0000
0000
0000
0000
0100
0000
0000
0000
0001
0000
0000
0000
0000
0100
0000
0000
0000
0000
0001
0000
0000
0000
,  // measure 62
1000
0000
0000
0000
0000
0010
0000
0000
0000
1000
0000
0000
0000
0000
0010
0000
0000
0000
1000
0000
0000
0000
0000
0010
0000
0000
0000
0001
0000
0000
0000
0100
0000
0000
0000
0000
0001
0000
0000
0000
0000
0100
0000
0000
0000
0001
0000
0000
,  // measure 63
0000
0000
0100
0000
0000
0000
0010
0000
0000
0000
1000
0000
0000
0000
0000
0010
0000
0000
0000
1000
0000
0000
0000
0000
0001
0000
0000
0000
0010
0000
0000
0000
0000
0001
0000
0000
0000
0010
0000
0000
0000
0000
0001
0000
0000
0000
0000
0000
,  // measure 64
0201
0310
0201
0310
0201
0310
0201
0310
,  // measure 65
1002
0103
1002
0103
1002
0103
1002
0103
,  // measure 66
0010
1000
0001
0010
0100
0001
1000
0010
0100
1000
0010
1000
,  // measure 67
0010
0000
0000
0000
0000
0000
0000
0000
0000
0000
0000
0000
0000
0000
0000
0000
0100
0000
0000
0000
0000
0000
0000
0000
0000
0000
0000
0000
0000
0000
0000
0000
0000
0000
0000
0000
0010
0000
0000
0000
0000
0000
0000
0000
0000
0000
0000
0000
0000
0000
0000
0000
0000
0000
0000
0000
0100
0000
0000
0000
0000
0000
0000
0000
0000
0000
0000
0000
0000
0000
0000
0000
0010
0000
0000
0000
0000
0000
0000
0000
0000
0000
0000
0000
0000
0000
0000
0000
0000
0000
1000
0000
0000
0000
0000
0000
0000
0000
0000
0000
0000
0000
0000
0000
0000
0000
0000
0000
0001
0000
0000
0000
0000
0000
0000
0000
0000
0000
0000
0000
0000
0000
0000
0000
0000
0000
0010
0000
0000
0000
0000
0000
0000
0000
0000
0000
0000
0000
0000
0000
0000
0000
0000
0000
0001
0000
0000
0000
0000
0000
0000
0000
0000
0000
0000
0000
0000
0000
0000
0000
0000
0000
0000
0000
1000
0000
0000
0000
0000
0000
0000
0000
0000
0000
0000
0000
0000
0000
0000
0000
0001
0000
0000
0000
0000
0000
0000
0000
0000
0000
0000
0000
,  // measure 68
0000
0000
0100
0000
0000
0000
0010
0000
0000
0000
0000
0001
0000
0000
0000
0010
0000
0000
0000
0001
0000
0000
0000
0000
1000
0000
0000
0000
0010
0000
0000
0000
0000
1000
0000
0000
0000
0000
0010
0000
0000
0000
1000
0000
0000
0000
0001
0000
,  // measure 69
0000
0000
0000
0100
0000
0000
0000
0001
0000
0000
0000
0000
0100
0000
0000
0000
0001
0000
0000
0000
0000
0100
0000
0000
0000
1000
0000
0000
0000
0000
0010
0000
0000
0000
1000
0000
0000
0000
0000
0010
0000
0000
0000
0000
1000
0000
0000
0000
,  // measure 70
0001
0000
0000
0000
0000
0100
0000
0000
0000
0001
0000
0000
0000
0000
0100
0000
0000
0000
0001
0000
0000
0000
0000
0100
0000
0000
0000
1000
0000
0000
0000
0010
0000
0000
0000
0000
1000
0000
0000
0000
0000
0010
0000
0000
0000
1000
0000
0000
,  // measure 71
0000
0000
0010
0000
0000
0000
0100
0000
0000
0000
0001
0000
0000
0000
0000
0100
0000
0000
0000
0001
0000
0000
0000
0000
1000
0000
0000
0000
0100
0000
0000
0000
0000
1000
0000
0000
0000
0100
0000
0000
0000
0000
1000
0000
0000
0000
0000
0100
,  // measure 72
0000
0000
0000
0010
0000
0000
0000
0000
0100
0000
0000
0000
0010
0000
0000
0000
0000
0100
0000
0000
0000
0010
0000
0000
0000
0000
0001
0000
0000
0000
1000
0000
0000
0000
0000
0001
0000
0000
0000
1000
0000
0000
0000
0000
0001
0000
0000
0000
,  // measure 73
1000
0000
0000
0000
0000
0010
0000
0000
0000
0100
0000
0000
0000
0010
0000
0000
0000
0000
0100
0000
0000
0000
0010
0000
0000
0000
0000
0001
0000
0000
0000
0010
0000
0000
0000
0000
0001
0000
0000
0000
0000
0010
0000
0000
0000
0000
0000
0000
,  // measure 74
1002
1003
0021
0031
1200
0310
2001
3001
,  // measure 75
2010
0000
0001
0010
0100
0001
0100
0010
,  // measure 76
3200
1000
0001
0010
0001
1000
0001
1000
,  // measure 77
0302
0010
1000
0100
1000
0010
1000
0100
,  // measure 78
2003
0100
0001
0010
0001
0100
0010
0100
,  // measure 79
3002
0010
1000
0010
1000
0100
1000
0010
,  // measure 80
0203
0001
1000
0001
0010
0001
0010
1000
,  // measure 81
0302
1000
0100
1000
0010
1000
0100
1000
,  // measure 82
0023
0100
1000
0001
1000
0001
1000
0100
,  // measure 83
0132
0010
1003
0010
1000
0100
0010
1000
,  // measure 84
0100
0001
1000
0001
0010
0001
0010
0001
,  // measure 85
0120
0100
1030
0001
1000
0001
0010
0001
,  // measure 86
0100
1000
0100
0001
1000
0010
1000
0100
,  // measure 87
0210
0001
1300
0001
1000
0010
0100
0001
,  // measure 88
0201
0010
0301
0100
1200
0001
1300
0010
,  // measure 89
0101
1000
0110
0100
1001
0010
0101
0010
,  // measure 90
4100
0010
0100
0001
,  // measure 91
3104
0010
0100
0010
,  // measure 92
0143
1000
0100
1000
,  // measure 93
0134
1000
0100
1000
,  // measure 94
1403
0001
0010
0001
,  // measure 95
1340
0100
0001
1000
,  // measure 96
0431
0010
0001
1000
,  // measure 97
1340
1000
0001
1000
,  // measure 98
2032
0000
0000
3113
,  // measure 99
0021
0000
0000
0000
0000
0000
0000
0000
0000
0000
0000
0000
0000
0000
0000
0000
1000
0000
0000
0000
0000
0000
0000
0000
0000
0000
0000
0000
0000
0000
0000
0000
0000
0000
0000
0000
0001
0000
0000
0000
0000
0000
0000
0000
0000
0000
0000
0000
0030
0000
0000
0000
0000
0000
0000
0000
1000
0000
0000
0000
0000
0000
0000
0000
0000
0000
0000
0000
0000
0000
0000
0000
0001
0000
0000
0000
0000
0000
0000
0000
0000
0000
0000
0000
0000
0000
0000
0000
0000
0000
0010
0000
0000
0000
0000
0000
0000
0000
0000
0000
0000
0000
0000
0000
0000
0000
0000
0000
0100
0000
0000
0000
0000
0000
0000
0000
0000
0000
0000
0000
0000
0000
0000
0000
0000
0000
0001
0000
0000
0000
0000
0000
0000
0000
0000
0000
0000
0000
0000
0000
0000
0000
0000
0000
0100
0000
0000
0000
0000
0000
0000
0000
0000
0000
0000
0000
0000
0000
0000
0000
0000
0000
0000
0000
0010
0000
0000
0000
0000
0000
0000
0000
0000
0000
0000
0000
0000
0000
0000
0000
0100
0000
0000
0000
0000
0000
0000
0000
0000
0000
0000
0000
,  // measure 100
0000
0000
1000
0000
0000
0000
0001
0000
0000
0000
0000
0100
0000
0000
0000
0001
0000
0000
0000
0100
0000
0000
0000
0000
0010
0000
0000
0000
0001
0000
0000
0000
0000
0010
0000
0000
0000
0000
0001
0000
0000
0000
0010
0000
0000
0000
0100
0000
,  // measure 101
0000
0000
0000
1000
0000
0000
0000
0100
0000
0000
0000
0000
1000
0000
0000
0000
0100
0000
0000
0000
0000
1000
0000
0000
0000
0010
0000
0000
0000
0000
0001
0000
0000
0000
0010
0000
0000
0000
0000
0001
0000
0000
0000
0000
0010
0000
0000
0000
,  // measure 102
0100
0000
0000
0000
0000
1000
0000
0000
0000
0100
0000
0000
0000
0000
1000
0000
0000
0000
0100
0000
0000
0000
0000
1000
0000
0000
0000
0010
0000
0000
0000
0001
0000
0000
0000
0000
0010
0000
0000
0000
0000
0001
0000
0000
0000
0010
0000
0000
,  // measure 103
0000
0000
0001
0000
0000
0000
1000
0000
0000
0000
0100
0000
0000
0000
0000
1000
0000
0000
0000
0100
0000
0000
0000
0000
0010
0000
0000
0000
1000
0000
0000
0000
0000
0010
0000
0000
0000
1000
0000
0000
0000
0000
0010
0000
0000
0000
0000
0000
,  // measure 104
0210
1300
0210
1300
0210
1300
0210
1300
,  // measure 105
0120
0031
0120
0031
0120
0031
0120
0031
,  // measure 106
1000
0100
0010
1000
0001
0010
0100
1000
0001
0100
1000
0100
,  // measure 107
1000
0000
0000
0000
0000
0000
0000
0000
0000
0000
0000
0000
0000
0000
0000
0000
0001
0000
0000
0000
0000
0000
0000
0000
0000
0000
0000
0000
0000
0000
0000
0000
0000
0000
0000
0000
1000
0000
0000
0000
0000
0000
0000
0000
0000
0000
0000
0000
0000
0000
0000
0000
0000
0000
0000
0000
0001
0000
0000
0000
0000
0000
0000
0000
0000
0000
0000
0000
0000
0000
0000
0000
1000
0000
0000
0000
0000
0000
0000
0000
0000
0000
0000
0000
0000
0000
0000
0000
0000
0000
0100
0000
0000
0000
0000
0000
0000
0000
0000
0000
0000
0000
0000
0000
0000
0000
0000
0000
0010
0000
0000
0000
0000
0000
0000
0000
0000
0000
0000
0000
0000
0000
0000
0000
0000
0000
1000
0000
0000
0000
0000
0000
0000
0000
0000
0000
0000
0000
0000
0000
0000
0000
0000
0000
0010
0000
0000
0000
0000
0000
0000
0000
0000
0000
0000
0000
0000
0000
0000
0000
0000
0000
0000
0000
0100
0000
0000
0000
0000
0000
0000
0000
0000
0000
0000
0000
0000
0000
0000
0000
0010
0000
0000
0000
0000
0000
0000
0000
0000
0000
0000
0000
,  // measure 108
0000
0000
0001
0000
0000
0000
1000
0000
0000
0000
0000
0010
0000
0000
0000
1000
0000
0000
0000
0010
0000
0000
0000
0000
0100
0000
0000
0000
1000
0000
0000
0000
0000
0100
0000
0000
0000
0000
1000
0000
0000
0000
0100
0000
0000
0000
0010
0000
,  // measure 109
0000
0000
0000
0001
0000
0000
0000
0010
0000
0000
0000
0000
0001
0000
0000
0000
0010
0000
0000
0000
0000
0001
0000
0000
0000
0100
0000
0000
0000
0000
1000
0000
0000
0000
0100
0000
0000
0000
0000
1000
0000
0000
0000
0000
0100
0000
0000
0000
,  // measure 110
0010
0000
0000
0000
0000
0001
0000
0000
0000
0010
0000
0000
0000
0000
0001
0000
0000
0000
0010
0000
0000
0000
0000
0001
0000
0000
0000
0100
0000
0000
0000
1000
0000
0000
0000
0000
0100
0000
0000
0000
0000
1000
0000
0000
0000
0100
0000
0000
,  // measure 111
0000
0000
1000
0000
0000
0000
0001
0000
0000
0000
0010
0000
0000
0000
0000
0001
0000
0000
0000
0010
0000
0000
0000
0000
0100
0000
0000
0000
0001
0000
0000
0000
0000
0100
0000
0000
0000
0001
0000
0000
0000
0000
0100
0000
0000
0000
0000
0001
,  // measure 112
0000
0000
0000
1000
0000
0000
0000
0000
0001
0000
0000
0000
1000
0000
0000
0000
0000
0001
0000
0000
0000
1000
0000
0000
0000
0000
0010
0000
0000
0000
0100
0000
0000
0000
0000
0010
0000
0000
0000
0100
0000
0000
0000
0000
0010
0000
0000
0000
,  // measure 113
0100
0000
0000
0000
0000
1000
0000
0000
0000
0001
0000
0000
0000
1000
0000
0000
0000
0000
0001
0000
0000
0000
1000
0000
0000
0000
0000
0010
0000
0000
0000
1000
0000
0000
0000
0000
0010
0000
0000
0000
0000
1000
0000
0000
0000
0000
0000
0000
,  // measure 114
0120
0130
2010
3010
0102
1003
0210
0310
,  // measure 115
0021
0000
0000
0000
0000
0000
0000
0000
0000
0000
0000
0000
0000
0000
0000
0000
1000
0000
0000
0000
0000
0000
0000
0000
0000
0000
0000
0000
0000
0000
0000
0000
0000
0000
0000
0000
0001
0000
0000
0000
0000
0000
0000
0000
0000
0000
0000
0000
0030
0000
0000
0000
0000
0000
0000
0000
1000
0000
0000
0000
0000
0000
0000
0000
0000
0000
0000
0000
0000
0000
0000
0000
0001
0000
0000
0000
0000
0000
0000
0000
0000
0000
0000
0000
0000
0000
0000
0000
0000
0000
0010
0000
0000
0000
0000
0000
0000
0000
0000
0000
0000
0000
0000
0000
0000
0000
0000
0000
0100
0000
0000
0000
0000
0000
0000
0000
0000
0000
0000
0000
0000
0000
0000
0000
0000
0000
0001
0000
0000
0000
0000
0000
0000
0000
0000
0000
0000
0000
0000
0000
0000
0000
0000
0000
0100
0000
0000
0000
0000
0000
0000
0000
0000
0000
0000
0000
0000
0000
0000
0000
0000
0000
0000
0000
0010
0000
0000
0000
0000
0000
0000
0000
0000
0000
0000
0000
0000
0000
0000
0000
0100
0000
0000
0000
0000
0000
0000
0000
0000
0000
0000
0000
,  // measure 116
0000
0000
1000
0000
0000
0000
0001
0000
0000
0000
0000
0100
0000
0000
0000
0001
0000
0000
0000
0100
0000
0000
0000
0000
0010
0000
0000
0000
0001
0000
0000
0000
0000
0010
0000
0000
0000
0000
0001
0000
0000
0000
0010
0000
0000
0000
0100
0000
,  // measure 117
0000
0000
0000
1000
0000
0000
0000
0100
0000
0000
0000
0000
1000
0000
0000
0000
0100
0000
0000
0000
0000
1000
0000
0000
0000
0010
0000
0000
0000
0000
0001
0000
0000
0000
0010
0000
0000
0000
0000
0001
0000
0000
0000
0000
0010
0000
0000
0000
,  // measure 118
0100
0000
0000
0000
0000
1000
0000
0000
0000
0100
0000
0000
0000
0000
1000
0000
0000
0000
0100
0000
0000
0000
0000
1000
0000
0000
0000
0010
0000
0000
0000
0001
0000
0000
0000
0000
0010
0000
0000
0000
0000
0001
0000
0000
0000
0010
0000
0000
,  // measure 119
0000
0000
0001
0000
0000
0000
1000
0000
0000
0000
0100
0000
0000
0000
0000
1000
0000
0000
0000
0100
0000
0000
0000
0000
0010
0000
0000
0000
1000
0000
0000
0000
0000
0010
0000
0000
0000
1000
0000
0000
0000
0000
0010
0000
0000
0000
0000
0000
,  // measure 120
0210
1300
0210
1300
0210
1300
0210
1300
,  // measure 121
0120
0031
0120
0031
0120
0031
0120
0031
,  // measure 122
1000
0100
0010
1000
0001
0010
0100
1000
0001
0100
1000
0100
,  // measure 123
1000
0000
0000
0000
0000
0000
0000
0000
0000
0000
0000
0000
0000
0000
0000
0000
0001
0000
0000
0000
0000
0000
0000
0000
0000
0000
0000
0000
0000
0000
0000
0000
0000
0000
0000
0000
1000
0000
0000
0000
0000
0000
0000
0000
0000
0000
0000
0000
0000
0000
0000
0000
0000
0000
0000
0000
0001
0000
0000
0000
0000
0000
0000
0000
0000
0000
0000
0000
0000
0000
0000
0000
1000
0000
0000
0000
0000
0000
0000
0000
0000
0000
0000
0000
0000
0000
0000
0000
0000
0000
0100
0000
0000
0000
0000
0000
0000
0000
0000
0000
0000
0000
0000
0000
0000
0000
0000
0000
0010
0000
0000
0000
0000
0000
0000
0000
0000
0000
0000
0000
0000
0000
0000
0000
0000
0000
1000
0000
0000
0000
0000
0000
0000
0000
0000
0000
0000
0000
0000
0000
0000
0000
0000
0000
0010
0000
0000
0000
0000
0000
0000
0000
0000
0000
0000
0000
0000
0000
0000
0000
0000
0000
0000
0000
0100
0000
0000
0000
0000
0000
0000
0000
0000
0000
0000
0000
0000
0000
0000
0000
0010
0000
0000
0000
0000
0000
0000
0000
0000
0000
0000
0000
,  // measure 124
0000
0000
0001
0000
0000
0000
1000
0000
0000
0000
0000
0010
0000
0000
0000
1000
0000
0000
0000
0010
0000
0000
0000
0000
0100
0000
0000
0000
1000
0000
0000
0000
0000
0100
0000
0000
0000
0000
1000
0000
0000
0000
0100
0000
0000
0000
0010
0000
,  // measure 125
0000
0000
0000
0001
0000
0000
0000
0010
0000
0000
0000
0000
0001
0000
0000
0000
0010
0000
0000
0000
0000
0001
0000
0000
0000
0100
0000
0000
0000
0000
1000
0000
0000
0000
0100
0000
0000
0000
0000
1000
0000
0000
0000
0000
0100
0000
0000
0000
,  // measure 126
0010
0000
0000
0000
0000
0001
0000
0000
0000
0010
0000
0000
0000
0000
0001
0000
0000
0000
0010
0000
0000
0000
0000
0001
0000
0000
0000
0100
0000
0000
0000
1000
0000
0000
0000
0000
0100
0000
0000
0000
0000
1000
0000
0000
0000
0100
0000
0000
,  // measure 127
0000
0000
1000
0000
0000
0000
0001
0000
0000
0000
0010
0000
0000
0000
0000
0001
0000
0000
0000
0010
0000
0000
0000
0000
0100
0000
0000
0000
0001
0000
0000
0000
0000
0100
0000
0000
0000
0001
0000
0000
0000
0000
0100
0000
0000
0000
0000
0001
,  // measure 128
0000
0000
0000
1000
0000
0000
0000
0000
0001
0000
0000
0000
1000
0000
0000
0000
0000
0001
0000
0000
0000
1000
0000
0000
0000
0000
0010
0000
0000
0000
0100
0000
0000
0000
0000
0010
0000
0000
0000
0100
0000
0000
0000
0000
0010
0000
0000
0000
,  // measure 129
0100
0000
0000
0000
0000
1000
0000
0000
0000
0001
0000
0000
0000
1000
0000
0000
0000
0000
0001
0000
0000
0000
1000
0000
0000
0000
0000
0010
0000
0000
0000
1000
0000
0000
0000
0000
0010
0000
0000
0000
0000
1000
0000
0000
0000
0000
0000
0000
,  // measure 130
0120
0130
2010
3010
0102
1003
0210
0310
,  // measure 131
0101
0L00
0110
0L00
1100
L000
0101
0L00
,  // measure 132
1001
L000
0110
0L00
0101
0L00
1001
L000
,  // measure 133
1010
00L0
0110
00L0
0101
0L00
0101
0L00
,  // measure 134
1010
L000
1010
L000
0110
00L0
0101
0L00
,  // measure 135
2010
0001
0100
0001
0010
0100
0001
0100
,  // measure 136
0001
0100
0010
0001
0100
0010
0100
0010
,  // measure 137
3200
1300
0001
1000
0100
0001
1000
0010
,  // measure 138
1000
0001
0210
0301
2100
3020
0230
0302
,  // measure 139
1003
0001
0100
0010
1000
0100
0012
2003
,  // measure 140
3001
0010
2000
3001
0200
0301
2000
3001
,  // measure 141
0200
0310
1000
0001
1000
0001
0100
1000
,  // measure 142
1010
0000
0100
0000
0101
0000
1000
0000
0101
0000
1000
0000
0001
0010
0100
1000
,  // measure 143
0110
0100
0010
1000
0001
0100
0001
1000
,  // measure 144
0001
0100
0010
1000
0010
0001
0100
0001
,  // measure 145
2010
3001
0100
0010
1000
0001
0100
0001
,  // measure 146
0100
1000
1020
0130
0102
2003
3002
0203
,  // measure 147
0310
1000
0001
0100
0001
1000
0012
0203
,  // measure 148
1300
0010
1000
0100
0001
0010
0001
1000
,  // measure 149
0210
0302
0023
2030
3002
0203
0302
0203
,  // measure 150
2300
3020
2030
3002
0203
0302
2003
3020
,  // measure 151
1032
1003
0100
0001
1000
0001
0100
0001
,  // measure 152
1200
0310
1000
0100
0001
1000
0001
0100
,  // measure 153
0012
1003
0100
0001
0010
0001
0100
1000
,  // measure 154
0120
0031
1000
0001
1000
0010
1000
0100
,  // measure 155
0021
1030
0001
0010
0100
1000
0001
0100
,  // measure 156
0021
1030
0010
0100
0001
0100
0001
1000
,  // measure 157
0120
1030
0100
0001
1000
0001
0100
0010
,  // measure 158
1002
0103
2010
0000
3210
0000
1302
0000
,  // measure 159
1203
0310
0100
1000
0010
1000
0001
1000
,  // measure 160
0021
0130
0001
1000
0100
0001
0010
1000
,  // measure 161
2001
3100
0001
0100
1000
0010
1000
0001
,  // measure 162
2100
3001
0010
1000
0001
1000
0001
0100
,  // measure 163
1002
0013
1000
0001
0100
0001
1000
0001
,  // measure 164
2100
3010
1000
0001
0100
0001
1000
0100
,  // measure 165
0012
0103
0010
1000
0001
0100
0001
0100
,  // measure 166
2001
3210
1320
0132
,  // measure 167
0213
1300
0100
0010
1000
0001
0100
0001
,  // measure 168
1020
0031
0100
0010
1000
0001
0100
0001
,  // measure 169
1200
0301
1000
0100
0001
0010
1000
0001
,  // measure 170
2100
3001
0100
1000
0100
1000
0001
0100
,  // measure 171
0210
1300
0001
0100
0001
1000
0001
0100
,  // measure 172
1002
0103
0010
1000
0001
0100
0001
1000
,  // measure 173
2001
3100
0010
1000
0001
0100
0001
0100
,  // measure 174
1002
0013
1200
0000
1320
0000
2031
0000
,  // measure 175
3102
0013
0001
0100
0001
1000
0001
0100
,  // measure 176
0012
1003
0001
0100
0001
1000
0001
0100
,  // measure 177
0210
1300
0001
0100
1000
0010
0100
0001
,  // measure 178
2100
3001
1000
0001
0100
1000
0001
1000
,  // measure 179
2001
3100
0010
1000
0100
0001
1000
0001
,  // measure 180
2100
3010
1000
0001
0100
0001
1000
0001
,  // measure 181
1000
0100
0010
0001
1000
0100
0010
0001
1000
0100
0010
0001
1000
0100
0010
0001
,  // measure 182
0001
0010
0100
1000
0001
0010
0100
1000
0001
0010
0100
1000
0001
0010
0100
1000
,  // measure 183
0010
0100
1000
0100
0010
0100
1000
0100
0010
0100
1000
0100
0010
0100
1000
0100
,  // measure 184
0010
0001
0010
0100
0010
0001
0010
0100
0010
0001
0010
0100
0010
0001
0010
0100
,  // measure 185
0102
0000
0000
0000
0000
0000
0000
0000
0000
0000
0000
0000
0000
0000
0000
0000
0010
0000
0000
0000
0000
0000
0000
0000
0000
0000
0000
0000
0000
0000
0000
0000
0000
0000
0000
0000
0100
0000
0000
0000
0000
0000
0000
0000
0000
0000
0000
0000
0003
0000
0000
0000
0000
0000
0000
0000
0010
0000
0000
0000
0000
0000
0000
0000
0000
0000
0000
0000
0000
0000
0000
0000
0100
0000
0000
0000
0000
0000
0000
0000
0000
0000
0000
0000
0000
0000
0000
0000
0000
0000
0001
0000
0000
0000
0000
0000
0000
0000
0000
0000
0000
0000
0000
0000
0000
0000
0000
0000
1000
0000
0000
0000
0000
0000
0000
0000
0000
0000
0000
0000
0000
0000
0000
0000
0000
0000
0100
0000
0000
0000
0000
0000
0000
0000
0000
0000
0000
0000
0000
0000
0000
0000
0000
0000
1000
0000
0000
0000
0000
0000
0000
0000
0000
0000
0000
0000
0000
0000
0000
0000
0000
0000
0000
0000
0001
0000
0000
0000
0000
0000
0000
0000
0000
0000
0000
0000
0000
0000
0000
0000
1000
0000
0000
0000
0000
0000
0000
0000
0000
0000
0000
0000
,  // measure 186
0000
0000
0010
0000
0000
0000
0100
0000
0000
0000
0000
1000
0000
0000
0000
0100
0000
0000
0000
1000
0000
0000
0000
0000
0001
0000
0000
0000
0100
0000
0000
0000
0000
0001
0000
0000
0000
0000
0100
0000
0000
0000
0001
0000
0000
0000
1000
0000
,  // measure 187
0000
0000
0000
0010
0000
0000
0000
1000
0000
0000
0000
0000
0010
0000
0000
0000
1000
0000
0000
0000
0000
0010
0000
0000
0000
0001
0000
0000
0000
0000
0100
0000
0000
0000
0001
0000
0000
0000
0000
0100
0000
0000
0000
0000
0001
0000
0000
0000
,  // measure 188
1000
0000
0000
0000
0000
0010
0000
0000
0000
1000
0000
0000
0000
0000
0010
0000
0000
0000
1000
0000
0000
0000
0000
0010
0000
0000
0000
0001
0000
0000
0000
0100
0000
0000
0000
0000
0001
0000
0000
0000
0000
0100
0000
0000
0000
0001
0000
0000
,  // measure 189
0000
0000
0100
0000
0000
0000
0010
0000
0000
0000
1000
0000
0000
0000
0000
0010
0000
0000
0000
1000
0000
0000
0000
0000
0001
0000
0000
0000
0010
0000
0000
0000
0000
0001
0000
0000
0000
0010
0000
0000
0000
0000
0001
0000
0000
0000
0000
0000
,  // measure 190
2001
3010
2001
3010
2001
3010
2001
3010
,  // measure 191
1002
0103
1002
0103
1002
0103
1002
0103
,  // measure 192
0010
1000
0001
0010
0100
0001
1000
0010
0100
1000
0010
1000
,  // measure 193
0010
0000
0000
0000
0000
0000
0000
0000
0000
0000
0000
0000
0000
0000
0000
0000
0100
0000
0000
0000
0000
0000
0000
0000
0000
0000
0000
0000
0000
0000
0000
0000
0000
0000
0000
0000
0010
0000
0000
0000
0000
0000
0000
0000
0000
0000
0000
0000
0000
0000
0000
0000
0000
0000
0000
0000
0100
0000
0000
0000
0000
0000
0000
0000
0000
0000
0000
0000
0000
0000
0000
0000
0010
0000
0000
0000
0000
0000
0000
0000
0000
0000
0000
0000
0000
0000
0000
0000
0000
0000
1000
0000
0000
0000
0000
0000
0000
0000
0000
0000
0000
0000
0000
0000
0000
0000
0000
0000
0001
0000
0000
0000
0000
0000
0000
0000
0000
0000
0000
0000
0000
0000
0000
0000
0000
0000
0010
0000
0000
0000
0000
0000
0000
0000
0000
0000
0000
0000
0000
0000
0000
0000
0000
0000
0001
0000
0000
0000
0000
0000
0000
0000
0000
0000
0000
0000
0000
0000
0000
0000
0000
0000
0000
0000
1000
0000
0000
0000
0000
0000
0000
0000
0000
0000
0000
0000
0000
0000
0000
0000
0001
0000
0000
0000
0000
0000
0000
0000
0000
0000
0000
0000
,  // measure 194
0000
0000
0100
0000
0000
0000
0010
0000
0000
0000
0000
0001
0000
0000
0000
0010
0000
0000
0000
0001
0000
0000
0000
0000
1000
0000
0000
0000
0010
0000
0000
0000
0000
1000
0000
0000
0000
0000
0010
0000
0000
0000
1000
0000
0000
0000
0001
0000
,  // measure 195
0000
0000
0000
0100
0000
0000
0000
0001
0000
0000
0000
0000
0100
0000
0000
0000
0001
0000
0000
0000
0000
0100
0000
0000
0000
1000
0000
0000
0000
0000
0010
0000
0000
0000
1000
0000
0000
0000
0000
0010
0000
0000
0000
0000
1000
0000
0000
0000
,  // measure 196
0001
0000
0000
0000
0000
0100
0000
0000
0000
0001
0000
0000
0000
0000
0100
0000
0000
0000
0001
0000
0000
0000
0000
0100
0000
0000
0000
1000
0000
0000
0000
0010
0000
0000
0000
0000
1000
0000
0000
0000
0000
0010
0000
0000
0000
1000
0000
0000
,  // measure 197
0000
0000
0010
0000
0000
0000
0100
0000
0000
0000
0001
0000
0000
0000
0000
0100
0000
0000
0000
0001
0000
0000
0000
0000
1000
0000
0000
0000
0100
0000
0000
0000
0000
1000
0000
0000
0000
0100
0000
0000
0000
0000
1000
0000
0000
0000
0000
0100
,  // measure 198
0000
0000
0000
0010
0000
0000
0000
0000
0100
0000
0000
0000
0010
0000
0000
0000
0000
0100
0000
0000
0000
0010
0000
0000
0000
0000
0001
0000
0000
0000
1000
0000
0000
0000
0000
0001
0000
0000
0000
1000
0000
0000
0000
0000
0001
0000
0000
0000
,  // measure 199
1000
0000
0000
0000
0000
0010
0000
0000
0000
0100
0000
0000
0000
0010
0000
0000
0000
0000
0100
0000
0000
0000
0010
0000
0000
0000
0000
0001
0000
0000
0000
0010
0000
0000
0000
0000
0001
0000
0000
0000
0000
0010
0000
0000
0000
0000
0000
0000
,  // measure 200
1002
1003
0021
0031
1200
0310
2001
3001
,  // measure 201
0102
0000
0000
0000
0000
0000
0000
0000
0000
0000
0000
0000
0000
0000
0000
0000
0010
0000
0000
0000
0000
0000
0000
0000
0000
0000
0000
0000
0000
0000
0000
0000
0000
0000
0000
0000
0100
0000
0000
0000
0000
0000
0000
0000
0000
0000
0000
0000
0003
0000
0000
0000
0000
0000
0000
0000
0010
0000
0000
0000
0000
0000
0000
0000
0000
0000
0000
0000
0000
0000
0000
0000
0100
0000
0000
0000
0000
0000
0000
0000
0000
0000
0000
0000
0000
0000
0000
0000
0000
0000
0001
0000
0000
0000
0000
0000
0000
0000
0000
0000
0000
0000
0000
0000
0000
0000
0000
0000
1000
0000
0000
0000
0000
0000
0000
0000
0000
0000
0000
0000
0000
0000
0000
0000
0000
0000
0100
0000
0000
0000
0000
0000
0000
0000
0000
0000
0000
0000
0000
0000
0000
0000
0000
0000
1000
0000
0000
0000
0000
0000
0000
0000
0000
0000
0000
0000
0000
0000
0000
0000
0000
0000
0000
0000
0001
0000
0000
0000
0000
0000
0000
0000
0000
0000
0000
0000
0000
0000
0000
0000
1000
0000
0000
0000
0000
0000
0000
0000
0000
0000
0000
0000
,  // measure 202
0000
0000
0010
0000
0000
0000
0100
0000
0000
0000
0000
1000
0000
0000
0000
0100
0000
0000
0000
1000
0000
0000
0000
0000
0001
0000
0000
0000
0100
0000
0000
0000
0000
0001
0000
0000
0000
0000
0100
0000
0000
0000
0001
0000
0000
0000
1000
0000
,  // measure 203
0000
0000
0000
0010
0000
0000
0000
1000
0000
0000
0000
0000
0010
0000
0000
0000
1000
0000
0000
0000
0000
0010
0000
0000
0000
0001
0000
0000
0000
0000
0100
0000
0000
0000
0001
0000
0000
0000
0000
0100
0000
0000
0000
0000
0001
0000
0000
0000
,  // measure 204
1000
0000
0000
0000
0000
0010
0000
0000
0000
1000
0000
0000
0000
0000
0010
0000
0000
0000
1000
0000
0000
0000
0000
0010
0000
0000
0000
0001
0000
0000
0000
0100
0000
0000
0000
0000
0001
0000
0000
0000
0000
0100
0000
0000
0000
0001
0000
0000
,  // measure 205
0000
0000
0100
0000
0000
0000
0010
0000
0000
0000
1000
0000
0000
0000
0000
0010
0000
0000
0000
1000
0000
0000
0000
0000
0001
0000
0000
0000
0010
0000
0000
0000
0000
0001
0000
0000
0000
0010
0000
0000
0000
0000
0001
0000
0000
0000
0000
0000
,  // measure 206
0201
0310
0201
0310
0201
0310
0201
0310
,  // measure 207
1002
0103
1002
0103
1002
0103
1002
0103
,  // measure 208
0010
1000
0001
0010
0100
0001
1000
0010
0100
1000
0010
1000
,  // measure 209
0010
0000
0000
0000
0000
0000
0000
0000
0000
0000
0000
0000
0000
0000
0000
0000
0100
0000
0000
0000
0000
0000
0000
0000
0000
0000
0000
0000
0000
0000
0000
0000
0000
0000
0000
0000
0010
0000
0000
0000
0000
0000
0000
0000
0000
0000
0000
0000
0000
0000
0000
0000
0000
0000
0000
0000
0100
0000
0000
0000
0000
0000
0000
0000
0000
0000
0000
0000
0000
0000
0000
0000
0010
0000
0000
0000
0000
0000
0000
0000
0000
0000
0000
0000
0000
0000
0000
0000
0000
0000
1000
0000
0000
0000
0000
0000
0000
0000
0000
0000
0000
0000
0000
0000
0000
0000
0000
0000
0001
0000
0000
0000
0000
0000
0000
0000
0000
0000
0000
0000
0000
0000
0000
0000
0000
0000
0010
0000
0000
0000
0000
0000
0000
0000
0000
0000
0000
0000
0000
0000
0000
0000
0000
0000
0001
0000
0000
0000
0000
0000
0000
0000
0000
0000
0000
0000
0000
0000
0000
0000
0000
0000
0000
0000
1000
0000
0000
0000
0000
0000
0000
0000
0000
0000
0000
0000
0000
0000
0000
0000
0001
0000
0000
0000
0000
0000
0000
0000
0000
0000
0000
0000
,  // measure 210
0000
0000
0100
0000
0000
0000
0010
0000
0000
0000
0000
0001
0000
0000
0000
0010
0000
0000
0000
0001
0000
0000
0000
0000
1000
0000
0000
0000
0010
0000
0000
0000
0000
1000
0000
0000
0000
0000
0010
0000
0000
0000
1000
0000
0000
0000
0001
0000
,  // measure 211
0000
0000
0000
0100
0000
0000
0000
0001
0000
0000
0000
0000
0100
0000
0000
0000
0001
0000
0000
0000
0000
0100
0000
0000
0000
1000
0000
0000
0000
0000
0010
0000
0000
0000
1000
0000
0000
0000
0000
0010
0000
0000
0000
0000
1000
0000
0000
0000
,  // measure 212
0001
0000
0000
0000
0000
0100
0000
0000
0000
0001
0000
0000
0000
0000
0100
0000
0000
0000
0001
0000
0000
0000
0000
0100
0000
0000
0000
1000
0000
0000
0000
0010
0000
0000
0000
0000
1000
0000
0000
0000
0000
0010
0000
0000
0000
1000
0000
0000
,  // measure 213
0000
0000
0010
0000
0000
0000
0100
0000
0000
0000
0001
0000
0000
0000
0000
0100
0000
0000
0000
0001
0000
0000
0000
0000
1000
0000
0000
0000
0100
0000
0000
0000
0000
1000
0000
0000
0000
0100
0000
0000
0000
0000
1000
0000
0000
0000
0000
0100
,  // measure 214
0000
0000
0000
0010
0000
0000
0000
0000
0100
0000
0000
0000
0010
0000
0000
0000
0000
0100
0000
0000
0000
0010
0000
0000
0000
0000
0001
0000
0000
0000
1000
0000
0000
0000
0000
0001
0000
0000
0000
1000
0000
0000
0000
0000
0001
0000
0000
0000
,  // measure 215
1000
0000
0000
0000
0000
0010
0000
0000
0000
0100
0000
0000
0000
0010
0000
0000
0000
0000
0100
0000
0000
0000
0010
0000
0000
0000
0000
0001
0000
0000
0000
0010
0000
0000
0000
0000
0001
0000
0000
0000
0000
0010
0000
0000
0000
0000
0000
0000
,  // measure 216
1002
1003
0021
0031
2100
3010
2001
3001
,  // measure 217
0102
0000
0000
0000
0000
0000
0000
0000
0000
0000
0000
0000
0000
0000
0000
0000
0010
0000
0000
0000
0000
0000
0000
0000
0000
0000
0000
0000
0000
0000
0000
0000
0000
0000
0000
0000
0100
0000
0000
0000
0000
0000
0000
0000
0000
0000
0000
0000
0003
0000
0000
0000
0000
0000
0000
0000
0010
0000
0000
0000
0000
0000
0000
0000
0000
0000
0000
0000
0000
0000
0000
0000
0100
0000
0000
0000
0000
0000
0000
0000
0000
0000
0000
0000
0000
0000
0000
0000
0000
0000
0001
0000
0000
0000
0000
0000
0000
0000
0000
0000
0000
0000
0000
0000
0000
0000
0000
0000
1000
0000
0000
0000
0000
0000
0000
0000
0000
0000
0000
0000
0000
0000
0000
0000
0000
0000
0100
0000
0000
0000
0000
0000
0000
0000
0000
0000
0000
0000
0000
0000
0000
0000
0000
0000
1000
0000
0000
0000
0000
0000
0000
0000
0000
0000
0000
0000
0000
0000
0000
0000
0000
0000
0000
0000
0001
0000
0000
0000
0000
0000
0000
0000
0000
0000
0000
0000
0000
0000
0000
0000
1000
0000
0000
0000
0000
0000
0000
0000
0000
0000
0000
0000
,  // measure 218
0000
0000
0010
0000
0000
0000
0100
0000
0000
0000
0000
1000
0000
0000
0000
0100
0000
0000
0000
1000
0000
0000
0000
0000
0001
0000
0000
0000
0100
0000
0000
0000
0000
0001
0000
0000
0000
0000
0100
0000
0000
0000
0001
0000
0000
0000
1000
0000
,  // measure 219
0000
0000
0000
0010
0000
0000
0000
1000
0000
0000
0000
0000
0010
0000
0000
0000
1000
0000
0000
0000
0000
0010
0000
0000
0000
0001
0000
0000
0000
0000
0100
0000
0000
0000
0001
0000
0000
0000
0000
0100
0000
0000
0000
0000
0001
0000
0000
0000
,  // measure 220
1000
0000
0000
0000
0000
0010
0000
0000
0000
1000
0000
0000
0000
0000
0010
0000
0000
0000
1000
0000
0000
0000
0000
0010
0000
0000
0000
0001
0000
0000
0000
0100
0000
0000
0000
0000
0001
0000
0000
0000
0000
0100
0000
0000
0000
0001
0000
0000
,  // measure 221
0000
0000
0100
0000
0000
0000
0010
0000
0000
0000
1000
0000
0000
0000
0000
0010
0000
0000
0000
1000
0000
0000
0000
0000
0001
0000
0000
0000
0010
0000
0000
0000
0000
0001
0000
0000
0000
0010
0000
0000
0000
0000
0001
0000
0000
0000
0000
0000
,  // measure 222
0201
0310
2001
3010
2001
3010
0201
0310
,  // measure 223
1020
0130
1002
0103
1020
0130
1002
0103
,  // measure 224
0010
1000
0001
0010
0100
0001
1000
0010
0100
1000
0010
1000
,  // measure 225
0010
0000
0000
0000
0000
0000
0000
0000
0000
0000
0000
0000
0000
0000
0000
0000
0100
0000
0000
0000
0000
0000
0000
0000
0000
0000
0000
0000
0000
0000
0000
0000
0000
0000
0000
0000
0010
0000
0000
0000
0000
0000
0000
0000
0000
0000
0000
0000
0000
0000
0000
0000
0000
0000
0000
0000
0100
0000
0000
0000
0000
0000
0000
0000
0000
0000
0000
0000
0000
0000
0000
0000
0010
0000
0000
0000
0000
0000
0000
0000
0000
0000
0000
0000
0000
0000
0000
0000
0000
0000
1000
0000
0000
0000
0000
0000
0000
0000
0000
0000
0000
0000
0000
0000
0000
0000
0000
0000
0001
0000
0000
0000
0000
0000
0000
0000
0000
0000
0000
0000
0000
0000
0000
0000
0000
0000
0010
0000
0000
0000
0000
0000
0000
0000
0000
0000
0000
0000
0000
0000
0000
0000
0000
0000
0001
0000
0000
0000
0000
0000
0000
0000
0000
0000
0000
0000
0000
0000
0000
0000
0000
0000
0000
0000
1000
0000
0000
0000
0000
0000
0000
0000
0000
0000
0000
0000
0000
0000
0000
0000
0001
0000
0000
0000
0000
0000
0000
0000
0000
0000
0000
0000
,  // measure 226
0000
0000
0100
0000
0000
0000
0010
0000
0000
0000
0000
0001
0000
0000
0000
0010
0000
0000
0000
0001
0000
0000
0000
0000
1000
0000
0000
0000
0010
0000
0000
0000
0000
1000
0000
0000
0000
0000
0010
0000
0000
0000
1000
0000
0000
0000
0001
0000
,  // measure 227
0000
0000
0000
0100
0000
0000
0000
0001
0000
0000
0000
0000
0100
0000
0000
0000
0001
0000
0000
0000
0000
0100
0000
0000
0000
1000
0000
0000
0000
0000
0010
0000
0000
0000
1000
0000
0000
0000
0000
0010
0000
0000
0000
0000
1000
0000
0000
0000
,  // measure 228
0001
0000
0000
0000
0000
0100
0000
0000
0000
0001
0000
0000
0000
0000
0100
0000
0000
0000
0001
0000
0000
0000
0000
0100
0000
0000
0000
1000
0000
0000
0000
0010
0000
0000
0000
0000
1000
0000
0000
0000
0000
0010
0000
0000
0000
1000
0000
0000
,  // measure 229
0000
0000
0010
0000
0000
0000
0100
0000
0000
0000
0001
0000
0000
0000
0000
0100
0000
0000
0000
0001
0000
0000
0000
0000
1000
0000
0000
0000
0100
0000
0000
0000
0000
1000
0000
0000
0000
0100
0000
0000
0000
0000
1000
0000
0000
0000
0000
0100
,  // measure 230
0000
0000
0000
0010
0000
0000
0000
0000
0100
0000
0000
0000
0010
0000
0000
0000
0000
0100
0000
0000
0000
0010
0000
0000
0000
0000
0001
0000
0000
0000
1000
0000
0000
0000
0000
0001
0000
0000
0000
1000
0000
0000
0000
0000
0001
0000
0000
0000
,  // measure 231
1000
0000
0000
0000
0000
0010
0000
0000
0000
0100
0000
0000
0000
0010
0000
0000
0000
0000
0100
0000
0000
0000
0010
0000
0000
0000
0000
0001
0000
0000
0000
0010
0000
0000
0000
0000
0001
0000
0000
0000
0000
0010
0000
0000
0000
0000
0000
0000
,  // measure 232
1002
1003
0021
0031
2100
3010
2001
3001
,  // measure 233
2002
0MM0
3223
M00M
2332
0MM0
3223
M00M
,  // measure 234
2332
0MM0
3223
M00M
2332
0MM0
3223
M00M
,  // measure 235
2332
0MM0
3223
M00M
2332
0MM0
3223
M00M
,  // measure 236
2332
0MM0
3223
M00M
2332
0MM0
3223
M00M
,  // measure 237
2002
0000
0000
0000
,  // measure 238
0000
0000
0000
0000
,  // measure 239
0000
0000
0000
0000
,  // measure 240
0000
0000
0000
0000
,  // measure 241
0000
0000
0000
0000
,  // measure 242
0000
0000
0000
0000
,  // measure 243
0000
0000
0000
0000
,  // measure 244
0000
0000
0000
0000
,  // measure 245
0000
0000
0000
0000
,  // measure 246
0000
0000
0000
0000
,  // measure 247
0000
0000
0000
0000
,  // measure 248
0000
0000
0000
0000
,  // measure 249
0000
0000
0000
0000
,  // measure 250
0000
0000
0000
0000
,  // measure 251
0000
0000
0000
0000
,  // measure 252
0000
0000
0000
0000
,  // measure 253
0000
0000
0000
0000
,  // measure 254
3333
MMMM
MMMM
0000
0000
0000
0000
0000
;
