#VERSION:0.83;
#TITLE:Flight of the Phoenix;
#SUBTITLE:;
#ARTIST:Jena Rose;
#TITLETRANSLIT:;
#SUBTITLETRANSLIT:;
#ARTISTTRANSLIT:;
#GENRE:;
#ORIGIN:;
#CREDIT:;
#BANNER:Flight of the Phoenix.png;
#BACKGROUND:Flight of the Phoenix-bg.png;
#PREVIEWVID:;
#JACKET:Flight of the Phoenix-jacket.png;
#CDIMAGE:;
#DISCIMAGE:;
#LYRICSPATH:;
#CDTITLE:;
#MUSIC:Flight of the Phoenix.ogg;
#OFFSET:0.000000;
#SAMPLESTART:54.620998;
#SAMPLELENGTH:12.000000;
#SELECTABLE:YES;
#BPMS:0.000=145.000;
#STOPS:;
#DELAYS:;
#WARPS:;
#TIMESIGNATURES:0.000=4=4;
#TICKCOUNTS:0.000=4;
#COMBOS:0.000=1;
#SPEEDS:0.000=1.000=0.000=0;
#SCROLLS:0.000=1.000;
#FAKES:;
#LABELS:0.000=Song Start;
#BGCHANGES:;
#KEYSOUNDS:;
#ATTACKS:
;

//---------------dance-single - ----------------
#NOTEDATA:;
#CHARTNAME:;
#STEPSTYPE:dance-single;
#DESCRIPTION:;
#CHARTSTYLE:;
#DIFFICULTY:Challenge;
#METER:16;
#RADARVALUES:0.642386,0.697039,0.440657,0.340507,0.245366,449.000000,405.000000,44.000000,34.000000,0.000000,63.000000,0.000000,0.000000,0.000000,0.642386,0.697039,0.440657,0.340507,0.245366,449.000000,405.000000,44.000000,34.000000,0.000000,63.000000,0.000000,0.000000,0.000000;
#CREDIT:;
#OFFSET:0.000000;
#BPMS:0.000000=145.000000
;
#STOPS:;
#DELAYS:;
#WARPS:;
#TIMESIGNATURES:0.000000=4=4
;
#TICKCOUNTS:0.000000=4
;
#COMBOS:0.000000=1
;
#SPEEDS:0.000000=1.000000=0.000000=0
;
#SCROLLS:0.000000=0.000000
,19.000000=1.000000
,84.000000=0.750000
,124.000000=0.600000
,128.000000=0.300000
,132.000000=1.000000
,156.000000=1.100000
,172.000000=1.200000
,188.000000=1.300000
,212.000000=1.500000
,228.000000=1.000000
;
#FAKES:;
#LABELS:0.000000=Song Start
;
#NOTES:
// measure 0
0000
0000
0000
0000
,  // measure 1
0000
0000
0000
0000
,  // measure 2
0000
0000
0000
0000
,  // measure 3
0000
0000
0000
0000
,  // measure 4
0000
0000
0000
0000
,  // measure 5
1000
0000
0001
0000
1000
0000
0001
0000
0010
0000
0000
0100
0001
0000
0001
0000
,  // measure 6
0010
0000
1000
0000
0100
0000
0001
0000
0100
0000
0000
0010
1000
0000
1000
0000
,  // measure 7
0001
0000
0100
0000
0001
0000
1000
0000
0010
0000
0000
0100
0001
0000
0010
0000
,  // measure 8
0011
0000
0011
0000
1100
0000
1100
0000
1001
0000
0000
0010
1000
0000
0010
0000
,  // measure 9
0001
0100
0001
1000
0001
0100
0001
0010
,  // measure 10
1000
0001
1000
0100
0020
0001
0230
1000
,  // measure 11
0301
0000
0100
0000
0001
0000
1000
0000
0010
0000
0000
0100
0001
0000
0010
0100
,  // measure 12
0010
0000
1000
0000
1000
0000
1000
0000
1000
0000
0000
0001
0010
0000
0010
0000
,  // measure 13
1100
0000
0001
0000
1000
0000
0001
0000
1000
0000
0000
0100
0001
0000
0100
0000
,  // measure 14
0001
0000
1000
0000
0001
0000
1000
0000
0010
0000
0000
1000
0100
0000
0010
0000
,  // measure 15
0100
0000
0001
0000
1000
0000
0001
0000
1000
0000
0000
0010
0100
0000
0001
0000
,  // measure 16
0100
0000
0100
0000
0100
0000
0100
0000
0010
0000
0000
0001
1000
0000
0100
0000
,  // measure 17
0001
0000
0010
0000
1000
0000
0001
0000
0100
0000
0000
0001
1000
0000
0010
0000
,  // measure 18
0100
0000
0001
0000
1000
0000
0001
0000
1000
0000
0000
0001
0100
0000
0010
0000
,  // measure 19
0001
0000
1000
0000
0100
0000
0001
0000
1000
0000
0000
0001
0100
0000
0010
0000
,  // measure 20
0110
0000
1100
0000
0101
0000
0101
0000
1001
0000
0000
1000
0010
0000
0010
0000
,  // measure 21
2000
0000
0010
0000
0001
0010
0100
0000
0001
0000
0000
0000
0000
0000
0001
0100
,  // measure 22
0001
0001
0010
0100
0010
0000
0100
0000
,  // measure 23
3102
0000
0000
0000
0100
0000
1000
0000
0010
0000
0000
0000
0100
1000
0100
0000
,  // measure 24
0010
0010
0100
0010
0100
1000
1000
0000
,  // measure 25
0203
0000
1000
0010
0020
0000
0300
0000
,  // measure 26
0102
0100
0030
0100
2000
0000
0013
0000
,  // measure 27
0200
0000
3001
0010
0001
0000
0010
0001
,  // measure 28
1300
0000
1000
0000
0000
0000
1000
0000
1000
0000
0000
0000
0001
1000
0010
0000
,  // measure 29
0001
0000
0100
0000
0010
0001
0100
0000
2000
0000
0010
0000
0100
0010
0100
0000
,  // measure 30
0002
0000
0010
0000
3010
0100
1000
0000
0020
0000
0100
0000
0103
1000
0001
0000
,  // measure 31
0200
0000
1000
0000
0031
1000
0001
0000
0010
0000
0001
0000
0010
1000
0010
0000
,  // measure 32
0020
0000
0000
0000
,  // measure 33
1331
0000
0100
0000
0001
0000
1000
0000
0001
0000
0010
0000
1000
0010
0001
0000
,  // measure 34
0100
0000
0001
0000
1000
0000
0001
0000
1000
0000
0010
0000
0001
1000
0100
0000
,  // measure 35
0001
0000
1000
0000
0001
0000
1000
0000
0010
0000
0100
0000
0001
0010
1000
0000
,  // measure 36
0110
0000
0110
0000
0110
0000
0110
0000
0110
0000
0000
0001
1000
0000
0100
0000
,  // measure 37
0002
0000
0010
0000
1000
0000
0100
0000
1000
0000
0000
0010
0100
0000
0100
0000
,  // measure 38
2003
0000
0001
0000
0100
0000
0001
0000
0010
0000
0000
0001
0010
0000
0100
0000
,  // measure 39
3200
0000
0010
0000
0001
0000
1000
0000
0001
0000
0000
1000
0010
0000
1000
0000
,  // measure 40
0011
0000
0011
0000
0011
0000
0011
0000
0011
0000
0000
1000
0001
0000
1000
0000
,  // measure 41
0320
0000
0100
0000
0001
0000
1000
0000
0001
0000
0000
1000
0001
0000
1000
0000
,  // measure 42
0230
0000
0001
0000
1000
0000
0001
0000
1000
0000
0000
0001
0010
0000
0010
0000
,  // measure 43
2300
0000
0100
0000
0001
0000
0100
0000
0010
0000
0000
0100
0001
0000
0010
0000
,  // measure 44
0110
0000
0110
0000
0110
0000
0110
0000
3120
0000
0000
0001
0230
0000
1000
0000
,  // measure 45
0302
0000
0010
0000
1000
0000
0010
0000
1000
0000
0000
0100
0010
0000
1000
0000
,  // measure 46
0203
0000
0001
0000
1000
0000
0001
0000
1000
0000
0000
0001
0010
0000
0010
0000
,  // measure 47
0320
0000
0100
0000
1000
0000
0001
0000
1000
0000
0000
0001
0100
0000
0100
0000
,  // measure 48
1100
0000
1100
0000
1100
0000
1100
0000
1130
0000
0000
0010
0001
0000
0100
0000
,  // measure 49
2000
0000
0010
0000
0001
0000
0100
0000
0001
0000
0000
0010
0100
0000
0100
0000
,  // measure 50
3002
0000
0010
0000
1000
0000
0010
0000
1000
0000
0000
0100
0010
0000
0100
0000
,  // measure 51
0203
0000
0001
0000
1000
0000
0001
0000
1000
0000
0000
0010
0001
0000
1000
0000
,  // measure 52
1010
0000
1010
0000
1010
0000
1010
0000
2010
0000
0000
0001
0010
0000
0001
0000
,  // measure 53
0320
0000
0001
0000
0001
0000
0001
0000
0001
0000
0000
0100
0001
0000
0001
0000
,  // measure 54
0032
0000
0010
0000
0100
0000
0010
0000
0100
0000
0000
0100
0010
0000
0010
0000
,  // measure 55
0023
0000
0001
0000
0001
0000
0001
0000
0001
0000
0000
0100
0001
0000
0001
0000
,  // measure 56
3101
0000
0101
0000
0000
0000
0101
0000
0131
0000
0000
0001
1000
0000
0001
0000
,  // measure 57
2002
0000
0000
0000
,  // measure 58
3003
0000
0000
0000
;
