#VERSION:0.83;
#TITLE:ECSTASY;
#SUBTITLE:;
#ARTIST:d-complex;
#TITLETRANSLIT:;
#SUBTITLETRANSLIT:;
#ARTISTTRANSLIT:;
#GENRE:Dance Dance Revolution 5th Mix,Dancing Stage Euromix 2;
#ORIGIN:;
#CREDIT:;
#BANNER:ECSTASY.png;
#BACKGROUND:ECSTASY-bg.png;
#PREVIEWVID:;
#JACKET:;
#CDIMAGE:;
#DISCIMAGE:;
#LYRICSPATH:;
#CDTITLE:;
#MUSIC:ECSTASY.mp3;
#OFFSET:-0.056000;
#SAMPLESTART:13.230000;
#SAMPLELENGTH:12.000000;
#SELECTABLE:YES;
#DISPLAYBPM:145.000000;
#BPMS:0.000=145.300,
96.000=141.300,
101.000=133.300,
103.000=124.800,
105.000=145.300,
185.000=150.200;
#STOPS:96.000=2.977,
185.000=6.322;
#DELAYS:;
#WARPS:;
#TIMESIGNATURES:0.000=4=4;
#TICKCOUNTS:0.000=4;
#COMBOS:0.000=1;
#SPEEDS:0.000=1.000=0.000=0;
#SCROLLS:0.000=1.000;
#FAKES:;
#LABELS:0.000=Song Start;
#BGCHANGES:;
#KEYSOUNDS:;
#ATTACKS:
;

//---------------dance-single - ----------------
#NOTEDATA:;
#CHARTNAME:;
#STEPSTYPE:dance-single;
#DESCRIPTION:;
#CHARTSTYLE:;
#DIFFICULTY:Challenge;
#METER:12;
#RADARVALUES:0.567327,0.883007,0.087175,0.116233,0.319640,410.000000,401.000000,9.000000,12.000000,0.000000,0.000000,0.000000,0.000000,0.000000,0.567327,0.883007,0.087175,0.116233,0.319640,410.000000,401.000000,9.000000,12.000000,0.000000,0.000000,0.000000,0.000000,0.000000;
#CREDIT:;
#DISPLAYBPM:145.000000;
#NOTES:
// measure 0
0000
0000
0000
0000
,  // measure 1
0000
0000
0000
0000
,  // measure 2
0000
0000
0000
0000
,  // measure 3
0000
0000
0000
0000
,  // measure 4
0100
0010
1000
0100
0001
0010
0010
0000
,  // measure 5
1000
0100
0001
1000
0001
0010
0100
0001
,  // measure 6
0100
1000
0010
0001
,  // measure 7
0020
1000
0000
0100
0000
1000
0000
0130
,  // measure 8
1001
1000
0100
0001
1000
0001
0100
0010
,  // measure 9
1000
0000
0100
0000
0001
0000
0100
0000
0010
0100
0000
0100
0001
0000
1000
0000
,  // measure 10
0100
0001
1000
0010
0100
1000
0001
0100
,  // measure 11
0001
0000
0010
0000
1000
0000
0100
0000
1000
0100
0000
0100
0010
0000
0001
0000
,  // measure 12
1000
0100
0001
1000
0001
0100
0010
0100
,  // measure 13
1000
0000
0100
0000
1000
0000
0001
0000
1000
0010
0000
0010
0100
0000
0010
0000
,  // measure 14
0001
1000
0001
0100
0001
0010
1000
0001
,  // measure 15
0100
0000
1000
0000
0100
0000
1000
0000
0001
0100
0000
0100
0001
0000
1000
0000
,  // measure 16
0100
0010
1000
0001
1000
0001
1000
0010
,  // measure 17
0001
0000
0100
0000
1000
0000
0100
0010
0001
0000
1000
0000
0001
0000
1000
0000
,  // measure 18
0010
0100
1000
0100
0001
1000
0001
1000
,  // measure 19
0010
0000
1000
0000
0100
0000
0001
0010
0100
0000
1000
0010
0100
0000
0001
0000
,  // measure 20
0020
1000
0100
1000
0031
0100
1000
0010
,  // measure 21
0100
1000
0010
0100
0001
0010
0100
1000
,  // measure 22
0100
0001
1000
0001
1000
0001
0010
0100
,  // measure 23
1000
0001
1000
0001
1000
0001
1000
0001
0010
0100
0000
0100
0010
0000
1000
0000
,  // measure 24
1001
0200
0000
0000
,  // measure 25
0000
0020
0000
0000
,  // measure 26
0000
0330
1001
0010
0001
0100
0000
0010
,  // measure 27
0000
1000
0000
0100
0010
0100
0000
0000
,  // measure 28
1000
0000
0010
0100
0001
0100
0000
0010
,  // measure 29
0000
0001
0000
0010
0100
0010
0000
0000
,  // measure 30
0001
0000
0101
0010
1000
0100
0001
1000
,  // measure 31
0001
0000
0100
0000
0010
0000
1000
0000
0100
0000
0001
0000
0010
0001
0000
0001
,  // measure 32
0100
1000
0010
1000
0100
0001
0010
1000
,  // measure 33
0001
0000
0100
0000
1000
0000
0001
0000
0100
0000
1000
0000
0010
0100
0000
0100
,  // measure 34
1000
0100
0002
0000
0000
2003
0000
0000
,  // measure 35
3200
0000
0000
0310
0001
1000
0000
0100
,  // measure 36
0010
0100
1000
0100
0001
1000
0000
0010
,  // measure 37
0100
0001
0000
0001
1000
0100
0000
0010
,  // measure 38
1000
0000
0001
0000
0101
0000
0000
0001
0000
0000
0001
0000
0000
0000
0000
0000
,  // measure 39
0000
0010
0000
0000
0100
0000
0000
0100
0000
0000
0100
0000
0000
0000
0100
0000
,  // measure 40
0000
0100
0000
0000
1000
0000
0010
0000
1000
0000
0100
0000
0001
0000
0010
0000
,  // measure 41
1000
0001
0100
0010
1000
1000
0100
0001
,  // measure 42
0101
0000
1001
0100
1000
0100
0001
1000
,  // measure 43
0010
0100
0001
1000
0001
0100
0010
1000
,  // measure 44
0100
0000
0001
0000
1000
0001
0100
1000
0001
1000
0001
1000
0010
0001
0100
0010
,  // measure 45
1000
0100
0001
1000
0001
0010
0001
0100
1000
0100
0010
1000
0100
0001
1000
0001
,  // measure 46
0000
0000
0010
0000
0110
0000
0000
0000
0010
0100
0010
0000
1000
0000
0001
0000
,  // measure 47
0100
1000
0100
0000
0010
0000
0100
0000
0001
0100
0001
0000
0010
0000
0001
0000
,  // measure 48
0010
0100
0010
0000
0001
0000
1000
0000
0101
0000
1000
0000
0010
0000
0100
0000
,  // measure 49
1000
0001
0100
0010
0001
0010
1000
0100
,  // measure 50
0001
1000
0100
1000
0020
0000
0000
0230
,  // measure 51
0000
0000
0000
0000
0302
0000
0000
0000
0000
0000
0013
0100
1000
0001
0100
1000
,  // measure 52
0010
1000
0100
0001
0010
0001
1000
0001
0100
1000
0100
0010
1000
0100
0001
1000
,  // measure 53
0001
0100
1000
0010
0100
1000
0010
1000
0010
1000
0001
0100
0001
1000
0100
0001
,  // measure 54
0010
1000
0100
0001
1000
0100
1000
0100
0002
0000
0000
0000
0000
0000
0203
0000
,  // measure 55
0000
0310
0000
0000
;
