#TITLE:Desert Druids;
#SUBTITLE:Redout OST;
#ARTIST:Aram Shahbazians, Daniel Giagnorio;
#TITLETRANSLIT:;
#SUBTITLETRANSLIT:;
#ARTISTTRANSLIT:;
#GENRE:;
#CREDIT:;
#BANNER:;
#BACKGROUND:background.jpg;
#LYRICSPATH:;
#CDTITLE:;
#MUSIC:02 - Desert Druids.mp3;
#OFFSET:0.000000;
#SAMPLESTART:73.654999;
#SAMPLELENGTH:18.000000;
#SELECTABLE:YES;
#BPMS:0.000000=290.000000
;
#STOPS:
;
#BGCHANGES:;
#KEYSOUNDS:;
#ATTACKS:;

//---------------dance-single - ----------------
#NOTES:
     dance-single:
     :
     Hard:
     9:
     0.594034,0.953516,0.241057,0.287930,0.000000,621.000000,585.000000,36.000000,43.000000,0.000000,4.000000,0.594034,0.953516,0.241057,0.287930,0.000000,621.000000,585.000000,36.000000,43.000000,0.000000,4.000000:
0000
0000
0000
0000
,
0010
0000
0010
0000
,
0100
0000
0100
0000
,
1000
0000
1000
0000
,
0001
0000
0001
0000
,
1000
1000
1000
0000
,
0010
0000
0010
0000
,
0100
0100
0100
0000
,
0001
0000
0001
0000
,
1000
0000
0001
0000
,
1000
0000
0001
0000
,
0100
0000
0010
0000
,
0100
0000
0010
0000
,
1000
0100
0001
0000
,
0100
0000
0001
0000
,
1000
0001
0100
0000
,
0010
0000
0100
0000
,
0010
0000
1000
0000
,
0001
0000
0100
0000
,
0001
0000
1000
0000
,
0010
0000
0100
0000
,
0010
0010
1000
0000
,
0100
0000
0001
0000
,
1000
1000
0001
0000
,
0010
0000
0010
0000
,
2000
0001
3100
0000
,
0002
0010
0013
0000
,
0100
0000
0010
0000
,
1000
0000
0001
0000
,
0200
0010
0310
0000
,
0002
1000
1003
0000
,
0200
0010
0301
0000
,
0020
0100
0031
0100
,
0020
0001
0130
0000
,
0200
0001
1300
0000
,
0010
0000
0100
0000
,
0001
0000
1000
0000
,
0020
0100
0130
0000
,
2000
0010
3001
0000
,
0200
0010
1300
0000
,
0002
0010
1003
0000
,
0110
0000
0100
0000
,
0001
0000
1000
0000
,
0010
0000
0100
0000
,
0001
0000
1000
0000
,
0020
0100
0130
0000
,
2000
0001
3001
0000
,
0020
0100
0031
0000
,
0200
0010
0310
0000
,
0100
0000
0010
0000
,
1000
0000
0001
0000
,
0100
0000
0001
0000
,
1000
0000
0001
0000
,
0020
1000
1030
0000
,
0200
0001
0301
0000
,
2000
0100
3010
0000
,
0002
0010
0103
0100
,
0011
0000
0100
0000
,
0001
0000
1000
0000
,
0001
0000
0100
0000
,
0010
0000
0010
0010
,
0100
0000
1000
0000
,
0100
0000
0001
0000
,
1000
0000
0001
0000
,
0100
0000
0010
0010
,
0010
0000
1000
0000
,
0100
0000
0001
0000
,
1000
0010
0010
0001
,
0001
0001
0100
0100
,
0100
0010
0010
0010
,
0100
0000
0010
0000
,
1000
0001
0001
0001
,
0100
0010
0100
0010
,
0010
1000
1000
1000
,
0100
0000
0001
0000
,
0100
0010
1000
0010
,
1000
1000
0001
0001
,
0001
0100
0100
0010
,
1000
0000
0100
0000
,
1000
0001
0001
1000
,
0100
0000
0000
0100
0000
0000
0001
0000
,
1000
0010
1000
0000
0100
0001
0100
0000
,
0010
0001
0001
0001
,
0100
0010
0100
0010
,
0010
1000
1000
1000
,
0010
0001
0100
0000
0001
1000
0001
0000
,
0010
1000
1000
1000
,
0100
0001
0001
0001
,
0100
0010
1000
0001
,
0010
1000
0010
0000
0100
0010
0100
0000
,
0010
1000
0100
0001
,
1000
0001
0100
0001
,
1000
0010
0100
1000
,
0020
0000
0000
0000
,
0000
0000
0000
0000
,
0200
0000
0000
0000
,
0000
0000
0330
0000
,
1000
0001
0100
0001
1000
0010
0100
0001
,
0100
0010
1000
0001
,
0001
1000
0001
1000
0100
0010
1000
0100
,
0001
0100
0001
1000
,
0010
0100
0001
1000
0001
0100
0010
1000
,
0100
0001
1000
0001
,
0010
0100
0001
1000
0001
1000
0010
1000
,
0100
0001
0100
0001
,
1000
0010
0001
0100
0010
0001
1000
0001
,
0100
0010
0001
1000
,
0100
0010
1000
0010
1000
0100
0001
0100
,
0001
0010
0001
1000
,
0100
0001
0100
0001
0010
1000
0010
1000
,
0001
0100
0001
1000
,
0010
0100
0010
1000
0100
0001
0100
0001
,
0010
1000
0001
0100
,
1010
0000
0100
0010
0100
0000
1000
0001
,
1000
0000
0100
0001
1000
0000
0010
0100
,
0010
0000
0100
0001
1000
0000
0010
1000
,
0010
0000
0100
0001
0100
0000
1000
0000
,
0001
0100
0001
1000
,
0010
0100
0001
0100
,
0001
1000
0010
0100
,
0001
1000
0001
0100
,
0110
0000
0100
0001
0100
0000
0010
1000
,
0100
0000
0001
1000
0001
0000
0100
0001
,
0100
0000
0010
1000
0010
0000
0100
0010
,
0100
0000
1000
0001
1000
0000
0001
0000
,
1000
1000
0010
0010
,
1000
0100
0100
1000
,
0001
0100
0001
1000
,
0001
0100
0010
0010
,
2000
0000
0000
0000
,
0020
0000
0000
0000
,
0002
0000
0000
0000
,
0000
0000
0000
3033
,
0002
0000
0000
0000
,
0200
0000
0000
0000
,
0020
0000
0000
0000
,
0000
0000
0333
0000
1000
0000
1000
0001
,
1000
0010
0100
0010
,
0101
1010
1100
0110
,
0001
1000
0001
0100
,
0110
1010
0110
1100
,
0001
0100
0001
1000
,
0110
0101
1001
0110
,
0001
1000
0010
1000
,
0110
1010
0110
1001
,
0100
0001
1000
0001
,
0110
0101
1001
1100
,
0010
0100
0001
1000
,
0101
1001
0110
1100
,
0001
1000
0001
0100
,
0110
0101
1001
0110
,
1000
0001
0100
0001
,
0110
0101
1001
0110
,
1000
0001
0100
0001
1000
0010
0100
0000
,
0001
0100
0001
1000
0010
0100
0010
0000
,
1000
0100
0001
1000
0001
0100
1000
0000
,
0010
0100
0010
1000
0001
0100
0001
0000
,
0010
1000
0100
0001
1000
0001
0100
0000
,
0010
1000
0001
0100
0001
1000
0100
0000
,
0010
0001
0100
0010
0001
1000
0001
0000
,
0100
0001
1000
0010
0001
0100
0010
0000
,
2000
0000
0000
0000
,
0002
0000
0000
0000
,
0200
0000
0000
0000
,
0000
0000
0000
3303
,
0020
0000
0000
0000
,
0200
0000
0000
0000
,
2000
0000
0000
0000
,
0000
0000
0000
3330
,
2000
0000
0000
0000
,
0002
0000
3000
0000
,
0200
0000
0003
0000
,
0020
0000
0300
0000
,
2000
0000
0030
0000
,
0002
0000
3000
0000
,
0200
0000
0003
0000
,
0020
0000
0300
0000
,
2000
0000
0000
0000
,
3030
0000
0000
0000
;

//---------------dance-single - ----------------
#NOTES:
     dance-single:
     :
     Challenge:
     10:
     0.720303,1.013111,0.261146,0.287930,0.000000,753.000000,714.000000,39.000000,43.000000,0.000000,0.000000,0.720303,1.013111,0.261146,0.287930,0.000000,753.000000,714.000000,39.000000,43.000000,0.000000,0.000000:
0000
0000
0000
0000
,
1001
0000
1000
0000
,
0010
0000
0010
0000
,
0100
0000
0100
0000
,
0001
0000
0001
0000
,
0100
0100
0100
0010
,
1000
0000
1000
0000
,
0010
0010
0010
0100
,
0001
0000
0001
0000
,
0110
0000
0001
0000
,
0100
0000
0001
0000
,
0010
0000
1000
0000
,
0010
0000
1000
0000
,
0100
0010
0001
1000
,
0010
0000
0001
0000
,
0100
0001
0010
0100
,
1000
0000
0010
0000
,
1001
0000
0100
0000
,
0001
0000
0010
0000
,
0001
0000
0100
0000
,
1000
0000
0010
0000
,
1000
1000
0100
1000
,
0010
0000
0001
0000
,
0100
0100
0001
0010
,
1000
0000
1000
0000
,
0200
0001
0310
0010
,
0002
1000
1003
1000
,
0010
0000
1000
0000
,
0100
0000
0001
0000
,
0020
1000
1030
1000
,
0002
0100
0103
0100
,
0020
1000
0031
0001
,
2000
0010
3001
0010
,
2000
0001
3010
0100
,
0020
0001
0130
0001
,
1000
0000
0010
0000
,
0001
0000
0100
0000
,
2000
0010
3010
0100
,
0200
1000
0301
0010
,
0020
1000
0130
0001
,
0002
1000
0103
0010
,
1010
0000
0010
0000
,
0001
0000
0100
0000
,
1000
0000
0010
0000
,
0001
0000
0100
0000
,
2000
0010
3010
0100
,
0200
0001
0301
0001
,
2000
0010
3001
1000
,
0020
1000
1030
0100
,
0010
0000
1000
0000
,
0100
0000
0001
0000
,
0010
0000
0001
0000
,
0100
0000
0001
0000
,
2000
0100
3100
0100
,
0020
0001
0031
0001
,
0200
0010
1300
0100
,
0002
1000
0013
0010
,
1001
1000
0010
1000
,
0001
0100
0100
0010
,
0001
0010
0010
0001
,
1000
0001
1000
1000
,
0010
1000
0100
1000
,
0010
0100
0001
0010
,
0100
0010
0001
0100
,
0010
0001
1000
1000
,
1000
0001
0100
1000
,
0010
0100
0001
0010
,
1000
1000
1000
1000
,
1000
1000
1000
1000
,
1000
1000
1000
1000
,
0010
0100
1000
0010
,
0100
0001
0001
0001
,
0001
0001
0001
0001
,
0001
0001
0001
0001
,
0010
0100
0001
0100
,
0010
1000
0100
1000
,
0100
0100
0001
0001
,
0001
0010
0010
1000
,
0100
1000
0010
1000
,
0100
0001
0001
0100
,
0010
0000
0000
0010
0000
0000
0001
0000
,
0100
0100
0010
0010
,
1000
0000
0001
0100
0001
1000
0001
1000
,
0010
0100
1000
0001
0010
0001
1000
0001
,
1000
0010
0100
0001
0100
0010
0100
0010
,
1000
0010
0001
0001
,
1000
0000
0100
0010
0100
0010
0100
1000
,
0010
0100
0001
0100
0001
1000
0001
1000
,
0010
0001
1000
0001
0100
0010
0001
0010
,
1000
1000
0010
0010
,
1000
0000
0100
0001
0010
1000
0001
1000
,
0100
1000
0001
0100
0010
0100
0001
0010
,
0100
0001
1000
0001
0010
0001
0100
0010
,
2000
0000
0000
0000
,
0000
0000
0000
0000
,
0020
0000
0000
0000
,
0000
0000
3030
0000
,
0100
0001
0010
0001
0100
1000
0010
0001
,
0010
0100
1000
0001
0100
1000
0001
1000
,
0001
0100
0001
0100
0010
1000
0100
0010
,
0001
0100
0010
0100
0001
0010
0100
0010
,
1000
0010
0001
0100
0001
0010
1000
0100
,
0010
1000
0001
1000
0100
1000
0001
0100
,
1000
0010
0001
0100
0001
0100
1000
0100
,
0010
1000
0001
1000
0010
1000
0001
0010
,
0100
1000
0001
0010
1000
0001
0100
0001
,
0010
0100
1000
0100
0001
1000
0100
0001
,
0010
1000
0100
1000
0100
0010
0001
0010
,
0001
0100
1000
0100
0001
1000
0100
1000
,
0010
0001
0010
0001
1000
0100
1000
0100
,
0001
1000
0010
0100
0001
0010
0100
0010
,
1000
0010
1000
0100
0010
0001
0010
0001
,
1000
0010
0100
0010
0001
1000
0010
0000
,
1100
0000
0010
1000
0010
0000
0100
0001
,
0100
0000
0010
0001
0100
0000
1000
0010
,
1000
0000
0010
0001
0100
0000
1000
0100
,
1000
0000
0010
0001
0010
0000
0100
0000
,
0001
0010
0001
0100
,
1000
0010
0001
0010
,
0001
0100
1000
0010
,
0001
0100
0001
0010
,
1010
0000
0010
0001
0010
0000
1000
0100
,
0010
0000
0001
0100
0001
0000
0010
0001
,
0010
0000
1000
0100
1000
0000
0010
1000
,
0010
0000
0100
0001
0100
0000
0001
0000
,
0100
0100
1000
1000
,
0100
0010
0010
0100
,
0001
0010
0001
0100
,
0001
0010
1000
1000
,
0200
0000
0000
0000
,
2000
0000
0000
0300
,
0002
0000
0000
0000
,
0000
0000
0000
3003
,
0002
0000
0000
0000
,
0020
0000
0000
0003
,
2000
0000
0000
0000
,
0000
0000
3030
0000
0100
0000
0100
0001
,
0100
1000
0010
1000
,
0011
1100
0110
1010
,
0001
0100
0001
0010
,
1010
1100
1010
0110
,
0001
0010
0001
0100
,
1010
0011
0101
1010
,
0001
0100
1000
0100
,
1010
1100
1010
0101
,
0010
0001
0100
0001
,
1010
0011
0101
0110
,
1000
0010
0001
0100
,
0011
0101
1010
0110
,
0001
0100
0001
0010
,
1010
0011
0101
1010
,
0100
0001
0010
0001
,
1010
0011
0101
1010
,
0100
0001
0010
0001
0100
1000
0010
0100
,
0001
0010
0001
0100
1000
0010
1000
0001
,
0100
0010
0001
0100
0001
0010
0100
0001
,
1000
0010
1000
0100
0001
0010
0001
0100
,
1000
0100
0010
0001
0100
0001
0010
0100
,
1000
0100
0001
0010
0001
0100
0010
0100
,
1000
0001
0010
1000
0001
0100
0001
1000
,
0010
0001
0100
1000
0001
0010
1000
0000
,
0200
0000
0000
0000
,
0002
0000
0300
0000
,
0020
0000
0000
0000
,
0000
0000
0000
0033
,
2000
0000
0000
0000
,
0020
0000
3000
0000
,
0200
0000
0000
0000
,
0000
0000
0000
0330
,
0200
0010
1000
0010
,
0302
0000
0000
0000
,
0023
0100
1000
0100
,
2030
0000
0000
0000
,
3200
0001
0010
0001
,
0302
0000
0000
0000
,
0023
0100
0001
0100
,
2030
0000
0000
0000
,
3200
0010
1000
0010
,
0310
0000
0000
0000
;
