#VERSION:0.83;
#TITLE:DXY!;
#SUBTITLE:;
#ARTIST:TaQ;
#TITLETRANSLIT:;
#SUBTITLETRANSLIT:;
#ARTISTTRANSLIT:;
#GENRE:Dance Dance Revolution 5th Mix,Dancing Stage Euromix 2;
#ORIGIN:;
#CREDIT:;
#BANNER:DXY! (Enlarged - From 5th Mix).PNG;
#BACKGROUND:DXY!-bg.png;
#PREVIEWVID:;
#JACKET:;
#CDIMAGE:;
#DISCIMAGE:DXY! (From Konamix).PNG;
#LYRICSPATH:;
#CDTITLE:;
#MUSIC:DXY!.mp3;
#OFFSET:-0.040000;
#SAMPLESTART:77.830002;
#SAMPLELENGTH:12.000000;
#SELECTABLE:YES;
#DISPLAYBPM:148.000000;
#BPMS:0.000=148.000;
#STOPS:;
#DELAYS:;
#WARPS:;
#TIMESIGNATURES:0.000=4=4;
#TICKCOUNTS:0.000=4;
#COMBOS:0.000=1;
#SPEEDS:0.000=1.000=0.000=0;
#SCROLLS:0.000=1.000;
#FAKES:;
#LABELS:0.000=Song Start;
#BGCHANGES:;
#KEYSOUNDS:;
#ATTACKS:
;

//---------------dance-single - ----------------
#NOTEDATA:;
#CHARTNAME:;
#STEPSTYPE:dance-single;
#DESCRIPTION:;
#CHARTSTYLE:;
#DIFFICULTY:Challenge;
#METER:14;
#RADARVALUES:0.738131,1.024500,0.758711,0.153663,0.480197,538.000000,459.000000,79.000000,16.000000,0.000000,0.000000,0.000000,0.000000,0.000000,0.738131,1.024500,0.758711,0.153663,0.480197,538.000000,459.000000,79.000000,16.000000,0.000000,0.000000,0.000000,0.000000,0.000000;
#CREDIT:;
#DISPLAYBPM:148.000000;
#NOTES:
// measure 0
0000
0000
0000
0000
,  // measure 1
0000
0000
0000
0000
,  // measure 2
0000
0000
0000
0000
,  // measure 3
0000
0000
0000
0000
,  // measure 4
0110
0001
0100
1000
0001
0100
1000
0000
,  // measure 5
1001
0010
1000
0001
0100
0001
1000
0000
,  // measure 6
0011
1000
0100
1000
0001
0010
1000
0000
,  // measure 7
0200
0300
0000
0000
0000
0000
0000
0000
,  // measure 8
1100
0010
0001
0010
1000
0100
0001
0000
,  // measure 9
0110
1000
0100
0001
1000
0001
0010
0000
,  // measure 10
0101
0010
0100
1000
0100
0001
1000
0000
,  // measure 11
1010
0100
0001
1000
0001
1000
0010
0000
,  // measure 12
0110
1000
0100
1000
0001
0010
0001
0000
,  // measure 13
1100
0010
0100
0010
1000
0100
0001
0000
,  // measure 14
1001
0010
1000
0001
0100
0001
1000
0100
,  // measure 15
0000
0010
0000
0010
,  // measure 16
1001
1001
0010
0000
1100
1100
0001
0000
,  // measure 17
0110
0110
1000
0000
0110
0101
1000
0000
,  // measure 18
0110
0110
1000
0000
0110
1001
0100
0000
,  // measure 19
1100
0110
1000
0000
0101
0110
0001
0000
,  // measure 20
1100
0101
1000
0000
0110
1100
0001
0000
,  // measure 21
0110
1001
0010
0000
1001
0110
0100
0000
,  // measure 22
1100
0011
0100
0000
0110
0110
1000
0000
,  // measure 23
1001
0000
0000
1001
0000
0000
0101
0000
0000
0000
0000
0000
0000
0000
0101
0000
0000
0000
1000
0000
0000
0010
0000
0000
,  // measure 24
1001
1001
0000
0000
0000
0020
0030
0000
,  // measure 25
0100
0000
0000
0000
0000
0200
0300
0000
,  // measure 26
0001
0000
0000
0000
0000
2000
3000
0000
,  // measure 27
0010
0000
0000
0000
0000
0002
0003
0000
,  // measure 28
1001
1001
0000
0000
0000
0020
0030
0000
,  // measure 29
1000
0000
0000
0000
0000
0002
0003
0000
,  // measure 30
0010
0000
0000
0000
0000
0200
0300
0000
,  // measure 31
0100
0000
0000
0000
0000
2000
3000
0000
,  // measure 32
1001
1000
0100
0001
1000
0001
0010
0001
,  // measure 33
0110
0100
1000
0100
0001
1000
0001
1000
,  // measure 34
0101
0010
1000
0100
1000
0001
0010
0001
,  // measure 35
0110
1000
0100
1000
0001
1000
0001
0010
,  // measure 36
0101
0101
1000
0100
1000
0010
0001
0100
,  // measure 37
1010
1010
0100
0001
1000
0001
0100
0010
,  // measure 38
1100
1100
0010
0001
0110
0110
1000
0100
,  // measure 39
0001
1000
0001
1000
0001
1000
0001
1000
0001
1000
0001
1000
0001
1000
0001
1000
,  // measure 40
0100
0010
1000
0100
0001
1000
0001
0100
0010
0000
0001
0000
1000
0000
0010
0000
,  // measure 41
0100
0001
1000
0010
0001
0100
0001
1000
0010
0000
0100
0000
0001
0000
1000
0000
,  // measure 42
0100
0000
0010
1000
0100
0001
1000
0001
0010
0000
0100
0000
0001
0000
1000
0000
,  // measure 43
0001
1000
0010
0100
0001
1000
0100
1000
0010
0000
0100
0000
1000
0000
0100
0000
,  // measure 44
0001
0010
1000
0010
0001
0100
1000
0100
0010
0000
0100
0000
0001
0000
1000
0000
,  // measure 45
0001
0100
0010
1000
0001
0010
0100
0001
1000
0000
0100
0000
0001
0000
1000
0000
,  // measure 46
0001
0010
1000
0100
0001
0100
1000
0001
0010
0000
0100
0000
1000
0000
0100
0000
,  // measure 47
0001
0000
0000
0000
,  // measure 48
1000
0100
0001
1000
0100
0010
1000
0001
0100
1000
0001
0010
1000
0010
0001
0100
,  // measure 49
0010
0100
1000
0001
0100
0010
1000
0001
0100
0010
0001
0010
1000
0100
0001
0100
,  // measure 50
0010
1000
0001
0010
0100
0001
1000
0001
0010
0001
1000
0001
0100
0010
0001
0010
,  // measure 51
1000
0100
0010
0100
1000
0010
0100
0010
0001
0010
1000
0100
0001
0100
1000
0100
,  // measure 52
0010
1000
0100
0001
0010
0001
1000
0001
0100
0010
0001
0010
1000
0100
0001
1000
,  // measure 53
0010
1000
0001
0010
0100
0001
1000
0001
0100
0010
0001
0010
1000
0010
0001
0010
,  // measure 54
1000
0100
0010
0100
1000
0001
0100
1000
0001
0010
1000
0100
0010
0001
0100
1000
,  // measure 55
0010
0100
0010
0100
0010
0100
0010
0100
0010
0100
0010
0100
0010
0100
0010
0100
,  // measure 56
0101
0000
0101
0000
0101
0020
0130
0000
,  // measure 57
1100
0000
1100
0000
1100
0020
0130
0000
,  // measure 58
0110
0000
0110
0000
0110
0020
0130
0000
,  // measure 59
1001
0000
1001
0000
1001
0020
0130
0000
,  // measure 60
1100
0000
1100
0000
1100
0020
0130
0000
,  // measure 61
0101
0000
0101
0000
0101
0020
0130
0000
,  // measure 62
1010
0000
1010
0000
1010
0020
0130
0000
;
