#TITLE:DROP OUT;
#SUBTITLE:;
#ARTIST:Unknown artist;
#TITLETRANSLIT:;
#SUBTITLETRANSLIT:;
#ARTISTTRANSLIT:;
#GENRE:;
#CREDIT:;
#BANNER:DROP OUT.png;
#BACKGROUND:DROP OUT-bg.png;
#LYRICSPATH:;
#CDTITLE:;
#MUSIC:DROP OUT.ogg;
#OFFSET:-7.385000;
#SAMPLESTART:17.539000;
#SAMPLELENGTH:12.000000;
#SELECTABLE:YES;
#BPMS:0.000000=260.000000
;
#STOPS:
;
#BGCHANGES:;
#KEYSOUNDS:;
#ATTACKS:;

//---------------dance-single - ----------------
#NOTES:
     dance-single:
     :
     Beginner:
     4:
     0.287544,0.490189,0.069407,0.109069,0.000000,203.000000,196.000000,7.000000,11.000000,0.000000,0.000000,0.287544,0.490189,0.069407,0.109069,0.000000,203.000000,196.000000,7.000000,11.000000,0.000000,0.000000:
// measure 0
0000
0000
0000
0000
,  // measure 1
0001
0000
0000
0000
,  // measure 2
0001
0000
0000
0000
,  // measure 3
0010
0000
0000
0000
,  // measure 4
1000
0000
0000
0000
,  // measure 5
0101
0000
0000
0000
,  // measure 6
0010
0000
0000
0000
,  // measure 7
1000
0000
0000
0000
,  // measure 8
0100
0000
0000
0000
,  // measure 9
0010
0000
0000
0000
,  // measure 10
0000
0000
0000
0000
,  // measure 11
1100
0000
1000
0000
,  // measure 12
1000
0000
0000
0000
,  // measure 13
0001
0000
0001
0000
,  // measure 14
0001
0000
0000
0000
,  // measure 15
0010
0000
0010
0000
,  // measure 16
0010
0000
0000
0000
,  // measure 17
0100
0000
0100
0000
,  // measure 18
0100
0000
0000
0000
,  // measure 19
1000
1000
1000
0000
,  // measure 20
0001
0001
0001
0000
,  // measure 21
0100
0100
0100
0000
,  // measure 22
1000
1000
1000
0000
,  // measure 23
0001
0000
0001
0000
,  // measure 24
0010
0000
0010
0000
,  // measure 25
0100
0000
0100
0000
,  // measure 26
1000
0000
1000
0000
,  // measure 27
1000
1000
1000
0000
,  // measure 28
0010
0010
0010
0000
,  // measure 29
1000
1000
1000
0000
,  // measure 30
0100
0100
0100
0000
,  // measure 31
0010
0000
0010
0000
,  // measure 32
0100
0000
0100
0000
,  // measure 33
1000
0000
0010
0000
,  // measure 34
0001
0001
0000
0000
,  // measure 35
0010
0000
0000
0000
,  // measure 36
0000
0000
0000
0000
,  // measure 37
0110
0000
0100
0000
,  // measure 38
0100
0000
0000
0000
,  // measure 39
0001
0000
0001
0000
,  // measure 40
0001
0000
0000
0000
,  // measure 41
1000
0000
1000
0000
,  // measure 42
1000
0000
0000
0000
,  // measure 43
0010
0000
0010
0000
,  // measure 44
0010
0000
0000
0000
,  // measure 45
0200
0000
0000
0000
,  // measure 46
0320
0000
0000
0000
,  // measure 47
2030
0000
0000
0000
,  // measure 48
3002
0000
0000
0000
,  // measure 49
1003
0000
1000
0000
,  // measure 50
0100
0000
0100
0000
,  // measure 51
0001
0000
1000
0000
,  // measure 52
0001
0001
0001
0001
,  // measure 53
0000
0010
0000
0100
,  // measure 54
0000
1000
0000
0001
,  // measure 55
0000
0001
0000
0100
,  // measure 56
0000
0001
0000
0100
,  // measure 57
0000
0010
0000
1000
,  // measure 58
0000
0100
0000
1000
,  // measure 59
0000
0001
0000
0100
,  // measure 60
0000
0001
0000
1000
,  // measure 61
0000
0100
0000
0001
,  // measure 62
0000
0010
0000
1000
,  // measure 63
0000
0010
0000
0001
,  // measure 64
0000
0100
0000
0001
,  // measure 65
0000
1000
0000
0100
,  // measure 66
0000
1000
0000
1000
,  // measure 67
0000
0001
0000
0001
,  // measure 68
0000
0100
0000
0100
,  // measure 69
0000
0010
0010
0010
,  // measure 70
0010
0010
0000
0010
,  // measure 71
0000
0100
0000
0100
,  // measure 72
0000
0001
0001
0000
,  // measure 73
0001
0001
0001
0001
,  // measure 74
0001
0001
0000
0001
,  // measure 75
0000
1000
0000
0000
,  // measure 76
0000
0100
0000
0000
,  // measure 77
0000
1001
0000
0000
,  // measure 78
0000
0000
0000
0000
,  // measure 79
0110
0110
0110
0000
,  // measure 80
1000
1000
1000
0000
,  // measure 81
0010
0010
0010
0000
,  // measure 82
0100
0100
0100
0000
,  // measure 83
0001
0001
0001
0000
,  // measure 84
0010
0010
0010
0000
,  // measure 85
1000
1000
1000
0000
,  // measure 86
0001
0001
0001
0000
,  // measure 87
0000
0100
0100
0100
,  // measure 88
0000
0010
0010
0010
,  // measure 89
0000
1000
1000
1000
,  // measure 90
0000
0001
0001
0001
,  // measure 91
0000
0100
0100
0100
,  // measure 92
0000
0001
0001
0001
,  // measure 93
0000
0010
0010
0010
,  // measure 94
0000
1000
1000
1000
,  // measure 95
0000
0000
0000
0200
0000
0000
0000
0302
,  // measure 96
0000
0000
0000
2003
0000
0000
0000
3020
,  // measure 97
0000
0000
0000
0230
0000
0000
0000
0302
,  // measure 98
0000
0010
0000
2000
0000
0000
0000
3003
;

//---------------dance-single - ----------------
#NOTES:
     dance-single:
     :
     Easy:
     1:
     0.389531,0.638051,0.059492,0.118984,0.000000,275.000000,269.000000,6.000000,12.000000,0.000000,0.000000,0.389531,0.638051,0.059492,0.118984,0.000000,275.000000,269.000000,6.000000,12.000000,0.000000,0.000000:
// measure 0
0000
0000
0000
0000
,  // measure 1
1000
0000
1000
0000
,  // measure 2
0001
0000
0001
0000
,  // measure 3
0100
0000
0100
0000
,  // measure 4
0010
0000
0010
0000
,  // measure 5
1000
0100
0001
0100
,  // measure 6
1000
0010
1000
0001
,  // measure 7
1000
0001
1000
0010
,  // measure 8
0001
0100
0001
1000
,  // measure 9
0020
0000
0000
0000
,  // measure 10
0000
0200
0000
0330
,  // measure 11
1000
0100
0001
0000
,  // measure 12
0100
0001
1000
0010
,  // measure 13
1000
0100
0001
0000
,  // measure 14
0100
0001
1000
0001
,  // measure 15
0100
0010
1000
0000
,  // measure 16
0010
1000
0001
1000
,  // measure 17
0001
0100
1000
0000
,  // measure 18
0010
0100
0010
1000
,  // measure 19
0001
0001
1000
1000
,  // measure 20
0010
0010
1000
1000
,  // measure 21
0100
0100
1000
1000
,  // measure 22
0001
0001
0100
0100
,  // measure 23
0001
0000
0010
0000
,  // measure 24
1000
0000
0001
0000
,  // measure 25
1000
0000
0100
0000
,  // measure 26
0001
1000
1000
0000
,  // measure 27
0100
0100
0010
0010
,  // measure 28
0001
0001
0100
0100
,  // measure 29
0001
0001
1000
1000
,  // measure 30
0100
0100
1000
1000
,  // measure 31
0010
0010
0100
1000
,  // measure 32
0001
1000
0001
0100
,  // measure 33
0001
1000
0010
1000
,  // measure 34
0100
0001
0001
0000
,  // measure 35
0002
0000
0000
0000
,  // measure 36
0000
2000
0000
3003
,  // measure 37
0010
0100
0001
0000
,  // measure 38
1000
0001
1000
0001
,  // measure 39
1000
0010
0100
0000
,  // measure 40
0001
1000
0001
0100
,  // measure 41
0010
1000
0100
0000
,  // measure 42
0001
1000
0001
0100
,  // measure 43
0010
1000
0001
0000
,  // measure 44
0100
0001
1000
0001
,  // measure 45
0010
0010
0010
0000
,  // measure 46
0100
0100
0100
0000
,  // measure 47
1000
1000
1000
0000
,  // measure 48
0100
0100
0100
0000
,  // measure 49
0001
1000
0001
1000
,  // measure 50
0010
1000
0100
0001
,  // measure 51
1000
0100
0001
1000
,  // measure 52
0010
0010
0010
0010
,  // measure 53
0000
0100
0000
0000
,  // measure 54
0000
0000
0000
0000
,  // measure 55
0000
0000
0000
0000
,  // measure 56
0000
0000
0000
0000
,  // measure 57
0000
0000
0000
0000
,  // measure 58
0000
0000
0000
0000
,  // measure 59
0000
0000
0000
0000
,  // measure 60
0000
0000
0000
0000
,  // measure 61
0000
0000
0000
0000
,  // measure 62
0000
0000
0000
0000
,  // measure 63
0000
0000
0000
0000
,  // measure 64
0000
0000
0000
0000
,  // measure 65
0000
0000
0000
0000
,  // measure 66
0000
0000
0000
0000
,  // measure 67
0000
0000
0000
0000
,  // measure 68
0000
0000
0000
0000
,  // measure 69
0000
0010
0010
0010
,  // measure 70
0010
0010
1000
0010
,  // measure 71
1000
0100
0000
0100
,  // measure 72
0000
0001
0001
0000
,  // measure 73
0001
0001
0001
0001
,  // measure 74
0001
0001
0010
0001
,  // measure 75
0010
1000
0010
0100
,  // measure 76
0001
0100
1000
0001
,  // measure 77
0100
2000
0000
0000
,  // measure 78
0000
0000
0000
0000
,  // measure 79
3000
1001
1001
1001
,  // measure 80
1001
0100
0100
0001
,  // measure 81
1000
0010
1000
0010
,  // measure 82
0001
0100
0001
0100
,  // measure 83
0001
1000
0001
1000
,  // measure 84
0100
1000
0100
0001
,  // measure 85
1000
0010
1000
0100
,  // measure 86
0001
1000
0010
0000
,  // measure 87
0000
0101
0101
1000
,  // measure 88
0001
1000
0100
1000
,  // measure 89
0001
0001
1000
0001
,  // measure 90
1000
0001
0100
1000
,  // measure 91
0100
1000
0001
1000
,  // measure 92
0001
0100
0001
0010
,  // measure 93
1000
0001
0100
0001
,  // measure 94
0100
0010
0010
0010
,  // measure 95
0010
0000
0000
0200
0000
0000
0000
0302
,  // measure 96
0000
0000
0000
2003
0000
0000
0000
3002
,  // measure 97
0000
0000
0000
0203
0000
0000
0000
0320
,  // measure 98
0000
1000
0000
0002
0000
0000
0000
0000
,  // measure 99
0033
0000
0000
0000
;
