#VERSION:0.83;
#TITLE:DOUBLE TORNARD;
#SUBTITLE:;
#ARTIST:evo-X;
#TITLETRANSLIT:;
#SUBTITLETRANSLIT:;
#ARTISTTRANSLIT:;
#GENRE:;
#ORIGIN:;
#CREDIT:;
#BANNER:DOUBLE TORNARD.png;
#BACKGROUND:;
#PREVIEWVID:;
#JACKET:DOUBLE TORNARD-jacket.png;
#CDIMAGE:;
#DISCIMAGE:;
#LYRICSPATH:;
#CDTITLE:;
#MUSIC:DOUBLE TORNARD.ogg;
#OFFSET:-7.843000;
#SAMPLESTART:21.961000;
#SAMPLELENGTH:12.000000;
#SELECTABLE:YES;
#BPMS:0.000=153.000;
#STOPS:;
#DELAYS:;
#WARPS:;
#TIMESIGNATURES:0.000=4=4;
#TICKCOUNTS:0.000=4;
#COMBOS:0.000=1;
#SPEEDS:0.000=1.000=0.000=0;
#SCROLLS:0.000=1.000;
#FAKES:;
#LABELS:0.000=Song Start;
#BGCHANGES:;
#KEYSOUNDS:;
#ATTACKS:
;

//---------------dance-single - ----------------
#NOTEDATA:;
#CHARTNAME:;
#STEPSTYPE:dance-single;
#DESCRIPTION:;
#CHARTSTYLE:;
#DIFFICULTY:Challenge;
#METER:15;
#RADARVALUES:0.681990,0.687859,0.146890,0.165251,0.748221,520.000000,504.000000,16.000000,18.000000,0.000000,0.000000,0.000000,0.000000,0.000000,0.681990,0.687859,0.146890,0.165251,0.748221,520.000000,504.000000,16.000000,18.000000,0.000000,0.000000,0.000000,0.000000,0.000000;
#CREDIT:;
#OFFSET:-7.843000;
#BPMS:0.000000=153.000000
,36.000000=114.750000
,58.500000=153.000000
,92.500000=114.750000
,115.000000=153.000000
;
#STOPS:149.000000=0.392000
,150.000000=0.392000
,151.000000=0.392000
,152.000000=0.392000
,153.000000=0.393000
,154.000000=0.392000
,155.000000=0.392000
,156.000000=0.392000
;
#DELAYS:;
#WARPS:;
#TIMESIGNATURES:0.000000=4=4
;
#TICKCOUNTS:0.000000=4
;
#COMBOS:0.000000=1
;
#SPEEDS:0.000000=1.000000=0.000000=0
;
#SCROLLS:0.000000=1.000000
;
#FAKES:;
#LABELS:0.000000=Song Start
;
#NOTES:
// measure 0
0000
0000
0000
0000
,  // measure 1
0010
0100
0001
1000
0001
0100
0001
1000
,  // measure 2
0001
1000
0010
0001
0100
0001
1000
0001
,  // measure 3
0100
0001
1000
0010
1000
0100
0001
0100
,  // measure 4
1000
0100
1000
0100
1000
0010
1000
0010
,  // measure 5
0100
0001
1000
0001
1000
0001
1000
0010
,  // measure 6
1000
0010
0100
0001
0100
0010
0001
1000
,  // measure 7
0001
1000
0001
0100
0001
1000
0010
0100
,  // measure 8
1000
0001
1000
0001
1000
0001
1000
0001
0100
0010
0100
0010
0100
0010
0100
0010
,  // measure 9
1000
0000
0000
0001
0000
0000
1000
0000
0000
0001
0000
0000
0010
0000
0000
0100
0000
0000
0001
0000
0000
0010
0000
0000
0100
0000
0000
0001
0000
0000
1000
0000
,  // measure 10
0000
0001
0000
0000
0100
0000
0000
0000
0000
0000
0000
0000
0000
0000
0000
0000
0010
0000
0000
0001
0000
0000
1000
0000
0000
0100
0000
0000
0001
0000
0000
1000
,  // measure 11
0000
0000
0001
0000
0000
0100
0000
0000
0010
0000
0000
1000
0000
0000
0001
0000
0000
0100
0000
0000
0001
0000
0000
0000
0000
0000
0000
0000
0000
0010
0000
0000
,  // measure 12
0100
0000
0000
0000
0000
0000
0001
0000
0000
0010
0000
0000
1000
0000
0000
0000
0000
0000
0001
0000
0000
0000
0000
0000
0100
0000
0000
0000
0000
0000
0001
0000
0000
0100
0000
0000
1000
0000
0000
0000
0000
0000
0001
0000
0000
0000
0000
0000
1000
0000
0000
0000
0000
0000
0010
0000
0000
1000
0000
0000
0001
0000
0000
0000
,  // measure 13
0000
0000
0100
0000
0000
0000
0000
0000
0001
0000
0000
0000
0000
0000
0000
0000
0000
0100
0000
0000
0000
0000
0000
0000
0000
0000
0010
0000
0000
0000
0000
0000
1000
0000
0000
0000
0000
0000
0001
0000
0000
0010
0000
0000
1000
0000
0000
0000
0000
0000
0001
0000
0000
0000
0000
0000
0010
0000
0000
0000
0000
0000
1000
0000
,  // measure 14
0000
0100
0000
0000
0010
0000
0000
0000
0000
0000
1000
0000
0000
0000
0000
0000
0100
0000
0000
0000
0000
0000
1000
0000
0000
0001
0000
0000
0010
0000
0000
0000
0000
0000
0100
0000
0000
0000
0000
0000
0011
0000
0000
0000
0000
0000
0000
0000
0000
0000
0000
0000
0000
0000
0000
0000
0011
0000
0000
0000
0000
0000
0000
0000
,  // measure 15
0000
0100
0001
1000
0001
1000
0010
1000
,  // measure 16
0100
0001
1000
0001
1000
0010
0001
0100
,  // measure 17
0001
1000
0010
1000
0100
0001
1000
0001
,  // measure 18
1000
0001
0100
0010
0001
0100
0001
1000
,  // measure 19
0010
1000
0100
0001
1000
0001
0100
0010
,  // measure 20
0001
0100
0001
1000
0010
0100
1000
0100
,  // measure 21
0001
0010
1000
0001
1000
0010
1000
0100
,  // measure 22
0001
0000
0100
1000
0100
1000
0100
1000
0100
1000
0010
0001
0010
0001
0010
0001
,  // measure 23
0010
0000
0001
0000
1000
0000
0000
1000
0000
0000
0001
0000
0000
0100
0000
0000
0001
0000
0000
0010
0000
0000
1000
0000
0000
0001
0000
0000
0100
0000
0000
0001
,  // measure 24
0000
0000
1000
0000
0000
0100
0000
0000
0000
0000
0000
0000
0000
0000
1000
0000
0000
0000
0000
0000
0010
0000
0000
0100
0000
0000
0001
0000
0000
1000
0000
0000
,  // measure 25
0001
0000
0000
1000
0000
0000
0010
0000
0000
0100
0000
0000
0001
0000
0000
1000
0000
0000
0010
0000
0000
0100
0000
0000
0000
0000
0000
0000
0000
0000
0001
0000
,  // measure 26
0000
0000
0010
0000
0000
0000
0000
0000
1000
0000
0000
0000
0000
0000
0001
0000
0000
0100
0000
0000
1000
0000
0000
0000
0000
0000
0001
0000
0000
0000
0000
0000
1000
0000
0000
0000
0000
0000
0001
0000
0000
1000
0000
0000
0100
0000
0000
0000
0000
0000
0010
0000
0000
0000
0000
0000
1000
0000
0000
0000
0000
0000
0001
0000
,  // measure 27
0000
0010
0000
0000
0100
0000
0000
0000
0000
0000
0001
0000
0000
0000
0000
0000
0000
0000
0000
0000
0000
0000
0000
0000
0000
0100
0000
0000
0000
0000
0000
0000
0000
0000
0010
0000
0000
0000
0000
0000
0100
0000
0000
0000
0000
0000
0001
0000
0000
0010
0000
0000
1000
0000
0000
0000
0000
0000
0001
0000
0000
0000
0000
0000
,  // measure 28
1000
0000
0000
0000
0000
0000
0010
0000
0000
1000
0000
0000
0001
0000
0000
0000
0000
0000
0100
0000
0000
0000
0000
0000
0001
0000
0000
0000
0000
0000
1000
0000
0000
0100
0000
0000
0010
0000
0000
0000
0000
0000
0001
0000
0000
0000
0000
0000
1100
0000
0000
0000
0000
0000
0000
0000
0000
0000
0000
0000
0000
0000
0000
0000
,  // measure 29
1100
0000
0000
0000
0010
0000
0010
0001
0000
0001
0100
0000
0100
1000
0000
1000
,  // measure 30
0001
0000
0001
0000
0100
0000
0010
0100
0000
0100
1000
0000
1000
0001
0000
0100
,  // measure 31
0010
0000
0010
0000
0100
0000
0100
0010
0000
0010
0100
0000
1000
0001
0000
0001
,  // measure 32
0100
0000
0100
0000
1000
0000
1000
0100
0000
0100
0010
0000
1000
0010
0000
0001
,  // measure 33
0100
0000
0010
0000
1000
0000
0100
0010
0000
0100
0010
0000
0001
0100
0000
0100
,  // measure 34
0010
0000
0100
0000
0001
0000
0001
1000
0000
1000
0100
0000
0001
0010
0000
0010
,  // measure 35
1000
0000
0100
0000
0010
0000
0010
0001
0000
0001
0100
0000
0100
0010
0000
0010
,  // measure 36
0001
0000
0001
0000
1000
0000
1000
0001
0000
0001
0010
0000
1000
0100
0000
0100
,  // measure 37
0010
0000
0010
0000
2020
0000
0000
3030
2200
0000
0000
3300
0022
0000
0000
0033
,  // measure 38
2002
0000
0000
3003
0220
0000
0000
0330
0202
0000
0000
0303
2002
0000
0000
3003
,  // measure 39
0220
0000
0000
0330
1000
0000
0001
0000
0010
0000
1000
0000
0001
0000
0100
0000
,  // measure 40
0010
1000
0001
0100
0001
0010
1000
0001
,  // measure 41
0100
0001
1000
0001
0100
1000
0010
1000
,  // measure 42
0001
0000
0100
0000
0010
1000
0010
1000
0010
1000
0010
1000
0001
0100
0001
0100
,  // measure 43
0001
0100
0001
0100
0010
0000
1000
0000
0001
0000
0100
0000
0001
0000
0010
0000
,  // measure 44
1000
0001
0100
0010
1000
0001
0100
0001
,  // measure 45
1000
0010
0001
0100
0001
1000
0001
1000
,  // measure 46
0010
1000
0100
0001
1000
0010
0001
0100
,  // measure 47
0001
0000
1000
0000
0100
0000
0001
0000
1000
0000
0001
0010
1000
0000
0010
0000
,  // measure 48
0001
0000
0100
0010
0001
0000
1000
0000
0001
0000
1000
0100
0010
0000
1000
0000
,  // measure 49
0100
0000
0001
0010
1000
0000
0001
0000
1000
0000
0010
0100
0001
0000
0100
0000
,  // measure 50
0010
0000
0001
1000
0001
1000
0001
1000
0001
1000
0001
1000
0010
0100
0010
0100
,  // measure 51
0010
0100
0010
0100
0001
0000
1000
0000
0001
0000
0100
0000
0001
0000
1000
0000
,  // measure 52
0010
0100
0010
1000
0100
0100
0100
0100
,  // measure 53
0100
0110
0110
0001
1000
0001
1010
0100
,  // measure 54
0001
0000
1000
0000
0001
0000
0100
0000
0010
0000
0100
0000
0000
0001
1000
0000
,  // measure 55
2002
0000
3003
0000
;
