#VERSION:0.83;
#TITLE:DEAD END ("GROOVE RADAR" Special);
#SUBTITLE:;
#ARTIST:N&S;
#TITLETRANSLIT:;
#SUBTITLETRANSLIT:;
#ARTISTTRANSLIT:;
#GENRE:;
#ORIGIN:;
#CREDIT:;
#BANNER:DEAD END.png;
#BACKGROUND:DEAD END-bg.png;
#PREVIEWVID:;
#JACKET:DEAD END-jacket.png;
#CDIMAGE:;
#DISCIMAGE:;
#LYRICSPATH:;
#CDTITLE:;
#MUSIC:DEAD END.mp3;
#OFFSET:0.000000;
#SAMPLESTART:42.946999;
#SAMPLELENGTH:12.000000;
#SELECTABLE:YES;
#DISPLAYBPM:*;
#BPMS:0.000=94.959,
8.000=95.000,
16.250=380.000,
144.250=190.000,
207.500=380.000,
343.500=760.000,
359.500=380.000,
367.500=760.000,
383.500=380.000,
391.500=760.000,
407.500=380.000,
415.500=760.000,
431.500=190.000,
447.750=380.000,
491.750=190.000;
#STOPS:16.000=1.105,
178.250=0.395,
207.000=1.105,
431.500=1.184;
#DELAYS:;
#WARPS:;
#TIMESIGNATURES:0.000=4=4;
#TICKCOUNTS:0.000=4;
#COMBOS:0.000=1;
#SPEEDS:0.000=1.000=0.000=0;
#SCROLLS:0.000=1.000;
#FAKES:;
#LABELS:0.000=Song Start;
#BGCHANGES:;
#KEYSOUNDS:;
#ATTACKS:
;

//---------------dance-single - ----------------
#NOTEDATA:;
#CHARTNAME:;
#STEPSTYPE:dance-single;
#DESCRIPTION:;
#CHARTSTYLE:;
#DIFFICULTY:Challenge;
#METER:18;
#RADARVALUES:1.051383,1.759121,1.017936,1.017936,1.562532,723.000000,623.000000,100.000000,100.000000,0.000000,0.000000,0.000000,0.000000,0.000000,1.051383,1.759121,1.017936,1.017936,1.562532,723.000000,623.000000,100.000000,100.000000,0.000000,0.000000,0.000000,0.000000,0.000000;
#CREDIT:;
#DISPLAYBPM:*;
#NOTES:
// measure 0
0000
0000
0000
0000
,  // measure 1
0000
0000
0000
0000
,  // measure 2
0020
0230
0302
2003
,  // measure 3
3002
0203
2300
3002
0023
0230
0302
2003
,  // measure 4
0000
3010
0000
0000
0000
0100
0000
0000
0000
0001
0000
0010
0000
1000
0000
0000
,  // measure 5
0000
0001
0000
0000
0000
0100
0000
0000
0000
0001
0000
0100
0000
1000
0000
0000
,  // measure 6
0000
0001
0000
0000
0000
1000
0000
0000
0000
0010
0000
1000
0000
0001
0000
0000
,  // measure 7
0000
0110
0000
0000
0000
1001
0000
0000
0000
1001
0000
0000
0000
0110
0000
0000
,  // measure 8
0000
0010
0000
0000
0000
0010
0000
0000
0000
1000
0000
0001
0000
0100
0000
0000
,  // measure 9
0000
0001
0000
0000
0000
1000
0000
0000
0000
0001
0000
0010
0000
0100
0000
0000
,  // measure 10
0000
0001
0000
0000
0000
1000
0000
0000
0000
0100
0000
0001
0000
1000
0000
0000
,  // measure 11
0000
1100
0000
0000
0000
0011
0000
0000
0000
1100
0000
0000
0000
0011
0000
0000
,  // measure 12
0000
1000
0000
0000
0000
0010
0000
0000
0000
0100
0000
1000
0000
0010
0000
0000
,  // measure 13
0000
0001
0000
0000
0000
1000
0000
0000
0000
0001
0000
1000
0000
0100
0000
0000
,  // measure 14
0000
0001
0000
0000
0000
0100
0000
0000
0000
0010
0000
0001
0000
1000
0000
0000
,  // measure 15
0000
0101
0000
0000
0000
1010
0000
0000
0000
0101
0000
0000
0000
1010
0000
0000
,  // measure 16
0000
0001
0000
0000
0000
0100
0000
0000
0000
0001
0000
1000
0000
0010
0000
0000
,  // measure 17
0000
1000
0000
0000
0000
0001
0000
0000
0000
0100
0000
0001
0000
1000
0000
0000
,  // measure 18
0000
0100
0000
0000
0000
0010
0000
0000
0000
0100
0000
0001
0000
0010
0000
0000
,  // measure 19
0000
1000
0000
0000
0000
0001
0000
0000
0000
0100
0000
1000
0000
0001
0000
0000
,  // measure 20
0000
0010
0000
0000
0000
1000
0000
0000
0000
0002
0000
0000
0000
0100
0000
0000
,  // measure 21
0000
1000
0000
0000
0000
1000
0000
0000
0000
1000
0000
0000
0000
0100
0000
0000
,  // measure 22
0000
0010
0000
0000
0000
0100
0000
0000
0000
0013
0000
0000
0000
1000
0000
0000
,  // measure 23
0000
0001
0000
0000
0000
0100
0000
0000
0000
0001
0000
0000
0000
0100
0000
0000
,  // measure 24
0000
0010
0000
0000
0000
1000
0000
0000
0000
0100
0000
0010
0000
0001
0000
0000
,  // measure 25
0000
1000
0000
0000
0000
0100
0000
0000
0000
1000
0000
0001
0000
0010
0000
0000
,  // measure 26
0000
0100
0000
0000
0000
0010
0000
0000
0000
1000
0000
0100
0000
0001
0000
0000
,  // measure 27
0000
1100
0000
0000
0000
0011
0000
0000
0000
1100
0000
0000
0000
0011
0000
0000
,  // measure 28
0000
0100
0000
0010
0000
1000
0000
0000
0000
0001
0000
0000
0000
1000
0000
0000
,  // measure 29
0000
0001
0000
1000
0000
0100
0000
0000
0000
0001
0000
0000
0000
0010
0000
0000
,  // measure 30
0000
1000
0000
0100
0000
0001
0000
0000
0000
0100
0000
0000
0000
0001
0000
0000
,  // measure 31
0000
1000
0000
0010
0000
0100
0000
0000
0000
1000
0000
0000
0000
0100
0000
0000
,  // measure 32
0000
0010
0000
0001
0000
0100
0000
0000
0000
0010
0000
0001
0000
0100
0000
0000
,  // measure 33
0000
0010
0000
1000
0000
0001
0000
0000
0000
1000
0000
0010
0000
0100
0000
0000
,  // measure 34
0000
0001
0000
0010
0000
0100
0000
0000
0000
0010
0000
1000
0000
0100
0000
0000
,  // measure 35
0000
0010
0000
0100
0000
1000
0000
0000
0000
0001
0000
1000
0000
0100
0000
0000
,  // measure 36
0000
0220
0000
0330
0000
0001
1000
0100
0001
0010
0100
1000
0100
0010
1000
0001
,  // measure 37
0100
0010
0100
0010
0000
0010
0000
0010
0001
0100
1000
0100
0001
0100
0010
2002
,  // measure 38
0000
3003
0000
0202
0000
0303
0000
0010
0001
1000
0001
0100
0000
0100
0000
0100
,  // measure 39
0010
1000
0001
1000
0001
1000
0001
0100
1000
0020
0000
0000
0000
0000
0000
0130
,  // measure 40
0000
2002
0000
3003
0000
1000
0001
0100
0001
0010
0100
0001
1000
0001
0100
1000
,  // measure 41
0010
1000
0100
0001
0000
0001
0000
0001
1000
0010
1000
0202
0000
0303
0000
0202
,  // measure 42
0000
0303
0000
2020
0000
3030
0000
2020
0000
3030
0000
0001
0100
0001
1000
0001
,  // measure 43
0100
1002
0000
0000
1000
0000
0000
1000
0000
0100
0000
0000
0100
0000
0000
0100
,  // measure 44
0000
0010
0000
0000
0010
0000
0000
0010
0000
2000
3003
0000
2001
0100
0001
0100
,  // measure 45
0001
0000
0000
0000
0010
0100
0010
0100
0010
0000
0000
0000
0100
0001
0100
0001
,  // measure 46
0100
0000
0000
0000
3001
0100
1000
0100
0001
0000
0000
0000
0010
0100
0010
1000
,  // measure 47
0001
0000
0000
0000
0001
1000
0100
1000
0100
0000
0000
0000
0001
0010
0100
1000
,  // measure 48
0100
0000
0000
0000
0010
0100
0001
1000
0100
0000
0000
0000
2010
0000
3200
0300
,  // measure 49
0102
0000
0003
0000
0210
0000
2300
3000
1002
0000
0003
0000
2001
0000
3200
0300
,  // measure 50
0120
0000
0030
0000
0012
0000
2003
3000
1002
0000
0003
0000
0110
0000
0110
0000
,  // measure 51
0110
0000
0110
0000
1001
0000
1001
0000
1001
0000
1001
0000
2002
3003
1000
0000
,  // measure 52
0000
0100
0000
0001
1000
0010
0000
0001
,  // measure 53
0000
0100
0000
0001
0100
0010
0000
0001
,  // measure 54
0000
0010
0000
1000
0010
0001
0000
1100
,  // measure 55
0000
0011
0000
0011
0000
1100
0000
1000
,  // measure 56
0000
1000
0000
0010
0001
0100
0000
0001
,  // measure 57
0000
0010
0000
0001
1000
0100
0000
0001
,  // measure 58
0000
0010
0000
0100
0001
0010
0000
0110
,  // measure 59
0000
1001
0000
0110
0000
1001
0000
0010
,  // measure 60
0000
1000
0000
0100
0010
1000
0000
0001
,  // measure 61
0000
0010
0000
0001
0010
0100
0000
0001
,  // measure 62
0000
0100
0000
1000
0001
0010
0000
0101
,  // measure 63
0000
1010
0000
0101
0000
1010
0000
0001
,  // measure 64
0000
0100
0000
0001
0010
1000
0000
0010
,  // measure 65
0000
0001
0000
0100
0001
0010
0000
0100
,  // measure 66
0000
1000
0000
0100
0001
1000
0000
0010
,  // measure 67
0000
0001
0000
0100
0010
0001
0000
1000
,  // measure 68
0000
0010
0000
0002
0000
0100
0000
0010
,  // measure 69
0000
0010
0000
0010
0000
0100
0000
1000
,  // measure 70
0000
0100
0000
1003
0000
0010
0000
0001
,  // measure 71
0000
0100
0000
0001
0000
0100
0000
1000
,  // measure 72
0000
0010
0000
0100
1000
0001
0000
0010
,  // measure 73
0000
0100
0000
0010
0001
1000
0000
0100
,  // measure 74
0000
1000
0000
0010
0100
0001
0000
0110
,  // measure 75
0000
1001
0000
0110
0000
1001
0000
0100
,  // measure 76
1000
0010
0000
0001
0000
0010
0000
0001
,  // measure 77
0010
0100
0000
0001
0000
1000
0000
0010
,  // measure 78
0100
0001
0000
0100
0000
0001
0000
0010
,  // measure 79
1000
0100
0000
0010
0000
0100
0000
1000
,  // measure 80
0001
0100
0000
1000
0001
0100
0000
1000
,  // measure 81
0010
0001
0000
0010
1000
0100
0000
0001
,  // measure 82
1000
0100
0000
1000
0010
0100
0000
1000
,  // measure 83
0100
0010
0000
0001
0010
0100
0000
0110
,  // measure 84
0000
0110
0000
1100
0000
2200
0000
0000
,  // measure 85
3300
0002
0000
0000
0000
0000
0000
1003
,  // measure 86
0000
0001
0000
1000
0000
0100
0000
0001
,  // measure 87
0000
1000
0000
0001
0000
0100
0000
1010
,  // measure 88
0000
0000
0000
1010
0000
0000
0000
1010
,  // measure 89
0000
0000
0000
0000
0000
0000
0000
0101
,  // measure 90
0000
0101
0000
1010
0000
2020
0000
0000
,  // measure 91
3030
0200
0000
0000
0000
0000
0000
0301
,  // measure 92
0000
1000
0000
0001
0000
1000
0000
0100
,  // measure 93
0000
0010
0000
0100
0000
1000
0000
0101
,  // measure 94
0000
0000
0000
0101
0000
0000
0000
0101
,  // measure 95
0000
0000
0000
0000
0000
0000
0000
0110
,  // measure 96
0000
0110
0000
1001
0000
2002
0000
0000
,  // measure 97
3003
0020
0000
0000
0000
0000
0000
0130
,  // measure 98
0000
1000
0000
0001
0000
0100
0000
1000
,  // measure 99
0000
0001
0000
1000
0000
0001
0000
0110
,  // measure 100
0000
0000
0000
0110
0000
0000
0000
0110
,  // measure 101
0000
0000
0000
0000
0000
0000
0000
0101
,  // measure 102
0000
0101
0000
1001
0000
2002
0000
0000
,  // measure 103
3003
2000
0000
0000
0000
0000
0000
3001
,  // measure 104
0000
0100
0000
1000
0000
0100
0000
0001
,  // measure 105
0000
1000
0000
0001
0000
1000
0000
0010
,  // measure 106
0000
0100
0000
0010
0000
0100
0000
0010
,  // measure 107
0000
0000
0100
0000
0000
0000
0010
0000
0000
0000
0100
0000
0000
0000
2000
3001
,  // measure 108
0000
1000
0000
0001
0000
0100
0000
0001
0000
0000
0000
1000
0000
0001
0000
0100
,  // measure 109
0000
0001
0000
1000
0000
0100
0000
0020
0030
1010
0000
1010
0000
0000
0000
0100
,  // measure 110
0000
0001
0000
1000
0000
0010
0000
0002
0003
0101
0000
0101
0000
0000
0000
0010
,  // measure 111
0000
0100
0000
0001
0000
0100
0000
2000
3000
1010
0000
2020
0000
3030
0000
0200
,  // measure 112
0000
0000
0000
0302
0000
0000
0000
2003
0000
0000
0000
3002
0000
0000
0000
0203
,  // measure 113
0000
0000
0000
0302
0000
0000
0000
2003
0000
0000
0000
3002
0000
0000
0000
0203
,  // measure 114
0000
0000
0000
0302
0000
0000
0000
2003
0000
0000
0000
3002
0000
0000
0000
0203
,  // measure 115
0000
0000
0000
0302
0000
0000
0000
2003
0000
0000
0000
3020
0000
0000
0000
0230
,  // measure 116
0000
0000
0000
0302
0000
0000
0000
2003
0000
0000
0000
3200
0000
0000
0000
0310
,  // measure 117
0000
0001
0000
0100
0000
0001
0000
1000
0000
0001
0000
0100
0000
1000
0000
0010
,  // measure 118
0000
0100
0000
0010
0000
1000
0000
0001
0000
0100
0000
0001
0000
1000
0000
0001
,  // measure 119
0000
0100
0000
0010
0000
0100
0000
0010
0000
1000
0000
0001
0000
0100
0000
0022
,  // measure 120
0000
0033
0000
0000
0000
0022
0000
0033
0000
0000
0000
0022
0000
0033
0000
0000
,  // measure 121
0000
0000
0000
1100
0000
0000
0000
1100
0000
0000
0000
1100
0000
0000
0000
0202
,  // measure 122
0000
0303
0000
0000
0000
0202
0000
0303
0000
0000
0000
2002
0000
3003
0000
2002
,  // measure 123
0000
0000
0000
0000
0000
0000
0000
3003
0000
0000
0000
0000
0000
0000
0000
0000
;
