#TITLE:Abyss;
#SUBTITLE:;
#ARTIST:dj TAKA;
#TITLETRANSLIT:;
#SUBTITLETRANSLIT:;
#ARTISTTRANSLIT:;
#GENRE:;
#CREDIT:;
#BANNER:Abyss (Enlarged - From 5th Mix).png;
#BACKGROUND:Abyss-bg.png;
#LYRICSPATH:;
#CDTITLE:;
#MUSIC:Abyss.mp3;
#OFFSET:-0.058000;
#SAMPLESTART:71.010002;
#SAMPLELENGTH:12.000000;
#SELECTABLE:YES;
#DISPLAYBPM:142.000000;
#BPMS:0.000000=142.000000
;
#STOPS:128.000000=2.958000
;
#BGCHANGES:;
#KEYSOUNDS:;
#ATTACKS:;

//---------------dance-single - ----------------
#NOTES:
     dance-single:
     :
     Challenge:
     13:
     0.601435,0.731257,0.150001,0.120001,0.330003,421.000000,406.000000,15.000000,12.000000,0.000000,0.000000,0.601435,0.731257,0.150001,0.120001,0.330003,421.000000,406.000000,15.000000,12.000000,0.000000,0.000000:
// measure 0
0000
0000
0000
0000
,  // measure 1
0000
0000
0000
0000
,  // measure 2
0000
0000
0000
0000
,  // measure 3
0000
0000
0000
0000
,  // measure 4
0010
0100
0001
0100
,  // measure 5
1000
0010
0100
0001
,  // measure 6
1000
0010
0001
0100
1000
0100
0100
0010
,  // measure 7
1000
0001
1000
0000
0100
0001
0100
0000
0010
1000
0010
0000
0100
0010
0100
0000
,  // measure 8
1001
0000
0010
0001
1000
0100
1000
0100
,  // measure 9
0001
0010
1000
0001
0100
0001
1000
0001
,  // measure 10
0100
0000
0000
0000
0001
0100
1000
0000
0010
0100
0001
0000
0010
1000
0100
0000
,  // measure 11
0001
1000
0010
0000
0100
0001
0010
0000
0100
1000
0100
0000
0001
0010
0001
0000
,  // measure 12
0100
0000
0001
1000
0100
0001
1000
0000
,  // measure 13
0100
0010
1000
0100
0001
1000
0010
0001
,  // measure 14
0100
0000
0010
0000
1000
0001
0010
0000
,  // measure 15
0100
0001
0000
0000
0100
0010
0000
0000
0100
1000
0000
0000
0100
1000
0000
0000
,  // measure 16
0110
1000
0000
0000
0001
0100
0000
0000
1000
0100
0000
0000
0100
0010
0000
0000
,  // measure 17
1000
0010
0000
0000
0001
0100
0000
0000
1000
0100
0000
0000
0010
0001
0000
0000
,  // measure 18
0100
0001
0000
0000
1000
0001
0000
0000
0100
1000
0000
0000
0010
0100
0000
0000
,  // measure 19
0002
0023
0032
0203
2300
3200
0320
0230
,  // measure 20
0301
0010
0000
0000
0100
0001
0000
0000
1000
0001
0000
0000
0010
1000
0000
0000
,  // measure 21
0100
0010
1000
0001
0100
0001
1000
0010
,  // measure 22
0100
0001
0000
0000
1000
0010
0000
0000
0100
0001
0000
0000
1000
0100
0000
0000
,  // measure 23
0100
0000
0010
1000
0010
0000
0001
0000
,  // measure 24
1000
0010
0001
0100
1000
0010
0001
0100
,  // measure 25
1000
0100
0001
0010
1000
0100
0001
0010
,  // measure 26
1000
0100
0010
0001
1000
0100
0010
0001
,  // measure 27
0001
0010
0100
1000
0001
0010
0100
1000
,  // measure 28
0100
0001
1000
0010
0001
0100
0010
1000
,  // measure 29
0001
0100
1000
0001
0010
0100
1000
0100
,  // measure 30
0001
0000
0000
1000
0001
0000
0001
0000
,  // measure 31
0010
0010
0010
0010
,  // measure 32
1001
0000
1000
0100
0010
0001
1000
0000
,  // measure 33
0010
0001
0010
0100
1000
0010
0001
0000
,  // measure 34
0010
0000
0010
0000
1000
0000
0100
0000
0010
0000
0001
0000
1000
0000
0000
1000
,  // measure 35
0000
0000
1000
0000
0010
0000
0000
0000
0000
0000
0100
0000
0001
1000
0001
1000
,  // measure 36
0001
1000
0000
0000
1001
0000
0000
0000
0000
0000
0000
0000
0000
0000
0000
0000
,  // measure 37
0100
0000
0010
0001
1000
0100
0010
0000
,  // measure 38
1000
0001
0100
0000
0000
0010
0100
0000
,  // measure 39
0000
0000
0001
0000
1000
0001
1000
0001
1000
0001
1000
0001
1000
0001
1000
0001
,  // measure 40
1000
0001
1000
0001
1001
0000
1000
0000
0100
0000
0001
0000
1000
0000
0010
0000
,  // measure 41
0100
0000
0001
0000
1000
0000
0001
0000
1000
0000
0010
0000
0001
0000
0100
0010
,  // measure 42
1000
0100
0001
1000
0001
1000
0010
0100
,  // measure 43
1000
0100
0001
1000
0001
1000
0010
0100
,  // measure 44
0010
1000
0110
0001
1000
0001
1000
0010
,  // measure 45
1000
0100
0011
1000
0001
0100
0001
1000
,  // measure 46
0010
0100
1100
0100
0001
1000
0011
0010
,  // measure 47
0100
0001
1100
0001
0110
1000
0011
0100
,  // measure 48
0110
0100
0010
0100
1001
0000
1000
0000
0010
0000
0001
0000
0100
0000
1000
0000
,  // measure 49
0100
0000
0001
0000
0010
0000
1000
0000
0001
1000
0100
0000
0001
0010
1000
0000
,  // measure 50
0100
0001
1000
0000
0020
0000
0000
0000
0230
0000
0000
0000
0302
0000
0000
0000
,  // measure 51
2003
0000
0000
0000
3100
0001
0010
0000
0100
0010
1000
0000
0100
0010
0001
0000
,  // measure 52
1000
0010
0001
0000
1100
0000
0000
0000
1000
0000
0100
0000
0001
0000
0000
0000
,  // measure 53
1000
0010
0100
0000
0001
1000
0010
0000
,  // measure 54
0001
0000
0100
0000
1000
0000
0000
0000
0010
0000
0100
0010
1000
0000
0000
0000
,  // measure 55
0010
0000
0010
0000
0100
0010
0100
0010
0100
0010
0100
0010
0100
0010
0100
0010
,  // measure 56
0100
0010
0100
0010
0100
0000
0000
0000
0000
0000
0000
0000
0000
0000
0000
0000
;
