#TITLE:AM-3P (303 BASS MIX);
#SUBTITLE:;
#ARTIST:KTz (remixed by U1);
#TITLETRANSLIT:;
#SUBTITLETRANSLIT:;
#ARTISTTRANSLIT:;
#GENRE:;
#CREDIT:;
#BANNER:AM-3P -303 BASS MIX-.png;
#BACKGROUND:AM-3P -303 BASS MIX--bg.png;
#LYRICSPATH:;
#CDTITLE:;
#MUSIC:AM-3P -303 BASS MIX-.ogg;
#OFFSET:-1.840000;
#SAMPLESTART:38.764000;
#SAMPLELENGTH:12.000000;
#SELECTABLE:YES;
#BPMS:0.000000=129.994995
;
#STOPS:
;
#BGCHANGES:;
#KEYSOUNDS:;
#ATTACKS:;

//---------------dance-single - ----------------
#NOTES:
     dance-single:
     :
     Beginner:
     2:
     0.119857,0.191164,0.095582,0.000000,0.000000,79.000000,70.000000,9.000000,0.000000,0.000000,0.000000,0.119857,0.191164,0.095582,0.000000,0.000000,79.000000,70.000000,9.000000,0.000000,0.000000,0.000000:
0000
0000
0000
0000
,
0000
0000
0000
0000
,
0000
0000
0000
0000
,
0000
0000
0000
0000
,
1000
0000
0010
0000
,
0001
0000
0010
0000
,
0100
0000
1000
0000
,
1000
0000
0001
0000
,
0010
0000
1000
0000
,
0010
0000
0100
0000
,
0010
0000
0001
0000
,
0100
0000
1000
0000
,
0010
0000
0010
0000
,
0100
0000
0010
0000
,
1000
0000
0001
0000
,
1000
0000
0001
0000
,
0100
0000
1000
0000
,
0100
0000
1000
0000
,
0010
0000
0100
0000
,
0001
0000
0000
0000
,
0101
0000
0000
0000
,
0010
0000
0000
0000
,
1100
0000
0000
0000
,
0010
0000
0000
0000
,
1001
0000
0000
0000
,
0100
0000
0000
0000
,
0101
0000
0000
0000
,
1100
0000
1100
0000
,
1100
0000
0000
0000
,
0010
0000
0000
0000
,
0010
0000
0000
0000
,
0010
0000
0000
0000
,
0010
0000
0000
0000
,
0001
0000
0100
0000
,
0010
0000
1000
0000
,
0100
0000
0001
0000
,
1000
0000
0001
0000
,
0100
0000
0010
0000
,
1000
0000
0100
0000
,
0001
0000
1000
0000
,
0010
0000
0010
0000
,
0110
0000
0001
0000
,
1000
0000
0100
0000
,
1000
0000
0100
0000
,
1000
0000
0010
0000
,
0101
0000
0000
0000
;

//---------------dance-single - ----------------
#NOTES:
     dance-single:
     :
     Easy:
     3:
     0.257920,0.238955,0.053101,0.010620,0.000000,170.000000,165.000000,5.000000,1.000000,0.000000,0.000000,0.257920,0.238955,0.053101,0.010620,0.000000,170.000000,165.000000,5.000000,1.000000,0.000000,0.000000:
// measure 0
0000
0000
0000
0000
,  // measure 1
0000
0000
0000
0000
,  // measure 2
0000
0000
0000
0000
,  // measure 3
0000
0000
0000
0000
,  // measure 4
1000
0001
1000
0001
,  // measure 5
0010
0010
0010
0010
,  // measure 6
0100
0010
1000
0001
,  // measure 7
1000
1000
1000
1000
,  // measure 8
0010
0100
0010
0100
,  // measure 9
0001
0001
0001
0001
,  // measure 10
1000
0001
1000
0001
,  // measure 11
0100
0100
0100
0100
,  // measure 12
0020
0100
1000
0001
,  // measure 13
0130
0100
0100
0100
,  // measure 14
0001
1000
0010
0100
,  // measure 15
0001
0001
0001
0001
,  // measure 16
1000
0010
0001
0100
,  // measure 17
0001
0001
0001
0001
,  // measure 18
1000
0001
1000
0100
,  // measure 19
0010
0010
0010
0010
,  // measure 20
0101
0010
0100
1000
,  // measure 21
0100
0010
0001
1000
,  // measure 22
0001
0100
1000
0010
,  // measure 23
0001
0100
1000
0010
,  // measure 24
0110
0001
0010
1000
,  // measure 25
0100
0001
0010
1000
,  // measure 26
0001
0010
0100
1000
,  // measure 27
0001
0010
0100
0010
,  // measure 28
0100
0010
0010
0010
,  // measure 29
1000
0001
0010
0100
,  // measure 30
1000
0001
0010
0100
,  // measure 31
1000
0001
0010
0100
,  // measure 32
1000
0001
0010
0100
,  // measure 33
1001
0100
0001
1000
,  // measure 34
0010
0100
0010
1000
,  // measure 35
0001
0010
0100
1000
,  // measure 36
0001
0100
0001
1000
,  // measure 37
1010
0100
0010
1000
,  // measure 38
0001
0001
0001
0010
,  // measure 39
1000
0100
0010
0001
,  // measure 40
1000
1000
1000
0001
,  // measure 41
0101
0010
1000
0100
,  // measure 42
0010
0001
1000
0001
,  // measure 43
1000
0010
0001
0100
,  // measure 44
0001
1000
0001
1000
,  // measure 45
0010
0000
0000
0000
;
