#VERSION:0.83;
#TITLE:the EmpErroR;
#SUBTITLE:;
#ARTIST:sasakure.UK;
#TITLETRANSLIT:;
#SUBTITLETRANSLIT:;
#ARTISTTRANSLIT:;
#GENRE:;
#ORIGIN:;
#CREDIT:;
#BANNER:the EmpErroR-bn.jpg;
#BACKGROUND:the EmpErroR-bg.jpg;
#PREVIEWVID:;
#JACKET:the EmpErroR-jacket.jpg;
#CDIMAGE:;
#DISCIMAGE:;
#LYRICSPATH:;
#CDTITLE:;
#MUSIC:the EmpErroR.mp3;
#OFFSET:0.148000;
#SAMPLESTART:97.658035;
#SAMPLELENGTH:15.000000;
#SELECTABLE:YES;
#BPMS:0.000=240.000;
#STOPS:;
#DELAYS:;
#WARPS:;
#TIMESIGNATURES:0.000=4=4;
#TICKCOUNTS:0.000=4;
#COMBOS:0.000=1;
#SPEEDS:0.000=1.000=0.000=0;
#SCROLLS:0.000=1.000;
#FAKES:;
#LABELS:0.000=Song Start;
#BGCHANGES:1.000=the EmpErroR.mp4=1.000=1=0=1===CrossFade==,
504.000=the EmpErroR-bg.jpg=1.000=0=0=1=====,
99999=-nosongbg-=1.000=0=0=0 // don't automatically add -songbackground-
;
#KEYSOUNDS:;
#ATTACKS:
;

//---------------dance-single - ----------------
#NOTEDATA:;
#CHARTNAME:;
#STEPSTYPE:dance-single;
#DESCRIPTION:;
#CHARTSTYLE:;
#DIFFICULTY:Beginner;
#METER:6;
#RADARVALUES:0.214983,0.340731,0.100842,0.124114,0.000000,194.000000,181.000000,13.000000,16.000000,0.000000,0.000000,0.000000,0.000000,0.000000,0.214983,0.340731,0.100842,0.124114,0.000000,194.000000,181.000000,13.000000,16.000000,0.000000,0.000000,0.000000,0.000000,0.000000;
#CREDIT:;
#NOTES:
0000
0000
0000
0000
,
0000
0000
0000
0000
,
0000
0000
0000
0000
,
0000
0000
0000
0000
,
0000
0000
0000
0000
,
0000
0000
0000
0000
,
0000
0000
0000
0000
,
2000
0000
0000
0000
,
3100
0100
0010
0010
,
0001
0000
0001
0000
,
1000
0000
0000
0000
,
1000
0000
1000
0000
,
0001
0000
0000
0000
,
1000
0000
1000
0000
,
0100
0000
0000
0000
,
0001
0000
0001
0000
,
0100
0000
0100
0000
,
0010
0000
0100
0000
,
0010
0000
0000
0000
,
1000
0000
0010
0000
,
1000
0000
0000
0000
,
0001
0000
0010
0000
,
0001
0000
0000
0000
,
0100
0000
0010
0000
,
0100
0000
0000
0000
,
0002
0000
0000
0000
,
2003
0000
0000
0000
,
3020
0000
0000
0000
,
2030
0000
0000
0000
,
3100
0000
0100
0000
,
0100
0000
0100
0000
,
1001
0000
0000
0000
,
1001
0000
0000
0000
,
0010
0000
0010
0000
,
0010
0000
0010
0000
,
1010
0000
0000
0000
,
0101
0000
0000
0000
,
0001
0000
0001
0000
,
0001
0000
0001
0000
,
0101
0000
0000
0000
,
1001
0000
0000
0000
,
1000
0000
1000
0000
,
1001
0000
1001
0000
,
0010
0000
0000
0010
,
0000
0000
0010
0000
,
0000
0100
0000
0000
,
0100
0000
0001
0000
,
0000
0001
0000
0000
,
0001
0000
0000
1000
,
0000
0000
0001
0000
,
1000
0000
0000
1000
,
0000
0000
1000
0000
,
0000
0010
0000
0000
,
0010
0000
0100
0000
,
0000
0100
0000
0000
,
0100
0000
0000
0001
,
0000
0000
0001
0000
,
0010
0000
0000
0010
,
0000
0000
0010
0000
,
0000
1000
0000
0000
,
0001
0000
0100
0000
,
0000
0100
0000
0000
,
0100
0000
0000
0010
,
0000
0000
0010
0010
,
0000
0000
0000
0000
,
0000
0000
0000
0000
,
1000
0000
0000
0000
,
1000
0000
0000
0000
,
0001
0000
0000
0002
,
0000
0000
0003
0000
,
0100
0000
0000
0000
,
0100
0000
0000
0000
,
0001
0000
0000
0000
,
1001
0000
0000
1000
0000
0000
0000
0000
,
0001
0000
0010
0000
,
0001
0000
0000
0000
,
0100
0000
0100
0200
,
0000
0300
0000
0000
,
1001
0000
1000
0000
,
1000
0000
0001
0000
,
1001
0000
0000
1000
0000
0000
0200
0000
,
0300
0000
0000
0000
,
1001
0000
0001
0000
,
0100
0000
0001
0000
,
1000
0000
1000
0000
,
0100
0000
0100
0000
,
1000
0000
0010
0000
,
1000
0000
1000
0000
,
0001
0000
0100
0000
,
0010
0000
0000
0000
,
1001
0000
1000
0000
,
0001
0000
0100
0000
,
0010
0000
0010
0000
,
0100
0000
0100
0000
,
0001
0000
0010
0000
,
0100
0000
1000
0000
,
0001
0000
1000
0000
,
0010
0000
0000
0000
,
0100
0000
0100
0000
,
0010
0000
0010
0000
,
0100
0000
0100
0000
,
0020
0000
0130
0000
,
1000
0000
1000
0000
,
0001
0000
0001
0000
,
1000
0000
0001
0000
,
1000
0000
1000
0000
,
0010
0000
0001
0000
,
0010
0000
0001
0000
,
1000
0000
0100
0000
,
1000
0000
0002
0000
,
1003
0000
0010
0000
,
0100
0000
0010
0000
,
1000
0000
0000
0001
0000
0000
0100
0000
,
0010
0000
0000
0010
0000
0000
0000
0000
,
0020
0000
0000
0000
,
0130
0000
0000
0000
,
2000
0000
0000
0000
,
3001
0000
0000
0000
,
0002
0000
0000
0000
,
0103
0000
0000
0000
,
0020
0030
0000
0000
,
0200
0000
0000
0000
,
0000
0000
0000
0000
,
0000
0000
0000
0000
,
0000
0000
0000
0000
,
0320
0000
0030
0000
;

//---------------dance-single - ----------------
#NOTEDATA:;
#CHARTNAME:;
#STEPSTYPE:dance-single;
#DESCRIPTION:;
#CHARTSTYLE:;
#DIFFICULTY:Easy;
#METER:11;
#RADARVALUES:0.429965,0.827490,0.349070,0.108600,0.000000,388.000000,343.000000,45.000000,14.000000,0.000000,0.000000,0.000000,0.000000,0.000000,0.429965,0.827490,0.349070,0.108600,0.000000,388.000000,343.000000,45.000000,14.000000,0.000000,0.000000,0.000000,0.000000,0.000000;
#CREDIT:;
#NOTES:
0000
0000
0000
0000
,
0000
0000
0000
0000
,
0000
0000
0000
0000
,
0000
0000
0000
0000
,
0000
0000
0000
0000
,
0000
0000
0000
0000
,
0000
0000
0000
0000
,
2000
0000
0000
0000
,
3001
0001
1000
1000
,
0010
0000
0100
0000
,
0001
0001
0100
0000
,
1000
0000
0010
0000
,
1000
1000
0010
0000
,
0001
0000
0010
0000
,
0001
0001
0010
0000
,
0200
0000
0300
0000
,
0001
0001
1000
1000
,
0010
0000
0100
0000
,
0010
0010
0100
0000
,
0001
0000
0100
0000
,
0001
0001
0100
0000
,
1000
0000
0100
0000
,
1000
1000
0100
0000
,
0001
0000
0010
0000
,
0100
0100
0010
0010
,
0001
0000
0000
0000
0001
0000
0000
1000
,
0000
0000
0000
1000
0000
0000
0000
0000
,
0010
0000
0000
0000
0010
0000
0000
0100
,
0000
0000
0000
0100
0000
0000
0000
0000
,
1001
0000
1001
0000
,
0001
0000
0001
0000
,
1000
0100
1000
1000
,
0100
1000
0001
0001
,
1000
0000
1010
0000
,
0100
0000
0101
0000
,
0001
0010
0001
0000
,
0100
0000
0100
0000
,
1001
0000
1001
0000
,
0100
0000
0100
0000
,
0001
0010
0001
0001
,
0010
0001
1000
1000
,
0001
0000
0100
0000
,
0010
0010
0100
0100
,
0110
0000
0000
0001
0000
0000
0110
0000
,
0000
1000
0000
0000
0110
0000
0000
0001
,
0000
0000
0110
0000
0000
1000
0000
0000
,
0100
0000
0010
0000
0011
0000
0000
0100
,
0000
0000
1010
0000
0000
0100
0000
0000
,
0011
0000
0000
0100
0000
0000
1010
0000
,
0000
0100
0000
0000
1001
0000
0011
0000
,
1001
0000
0000
0100
0000
0000
1001
0000
,
0000
0010
0000
0000
1100
0000
0000
0100
,
0000
0000
0011
0000
0000
0010
0000
0000
,
0001
0000
0100
0000
1001
0000
0000
0010
,
0000
0000
1010
0000
0000
0100
0000
0000
,
0101
0000
0000
0001
0000
0000
0011
0000
,
0000
1000
0000
0000
0010
0000
1000
0000
,
0100
0010
0100
0010
,
0001
0100
0001
1000
,
0001
0010
0100
1000
,
0100
0001
0100
1000
,
0100
0010
0001
0010
,
0100
1000
0100
1000
,
0001
0000
0100
0000
0010
0000
0010
0100
,
0000
0000
0000
0000
,
0000
0000
0000
0000
,
2000
0000
0010
0000
,
3100
0000
0010
0000
,
0002
0000
0100
0000
,
0013
0000
0100
0000
,
2000
0000
0010
0000
,
3001
0000
0100
0000
,
0002
0000
0010
0000
,
1003
0000
1000
0000
,
0020
0000
0100
0000
,
1030
0000
0100
0000
,
0020
0000
0001
0000
,
0130
0000
1000
0000
,
0002
0000
0010
0000
,
0103
0000
1000
0000
,
0010
0100
0000
0001
0000
1000
0020
0000
,
0030
0000
0000
0000
,
1001
0000
0001
1000
,
0001
1000
0010
1000
,
0100
0100
0010
0010
,
0100
0100
0010
0010
,
1001
0000
0001
0100
,
0001
0100
0010
1000
,
0001
0001
0010
0000
,
0100
0100
1000
0000
,
1000
0010
1000
0010
,
0100
0001
0100
0001
,
0010
0100
1000
0001
,
0100
0010
1000
0001
,
1001
0000
0001
0100
,
0001
1000
0100
1000
,
0010
0100
0001
0100
,
0010
1000
0010
1000
,
0100
0000
0110
0000
,
0001
0000
0101
0000
,
1000
0000
1100
0000
,
0001
0000
0011
1000
,
0100
0000
1010
0000
,
0100
0000
0110
0000
,
0001
0000
0101
0000
,
1001
0000
0110
0000
,
0001
0001
1000
1000
,
0010
0010
1000
1000
,
0001
0001
0010
0010
,
0100
0100
1000
1000
,
0001
0101
1000
1100
,
0001
0101
1000
1010
,
0001
0011
0100
0110
,
1001
1001
1001
0000
,
0020
0100
0000
0100
,
0000
0100
0000
0100
,
2030
0001
0000
0001
,
0000
0001
0000
0001
,
3002
0100
0000
0100
,
0000
0100
0000
0100
,
0103
0000
0000
0000
,
0010
0100
0010
0100
,
0010
0100
0010
0100
,
0010
0100
0010
0100
0010
0100
0010
0100
,
0010
0100
0010
0100
0010
0100
0010
0100
,
0020
0000
0030
0000
;

//---------------dance-single - ----------------
#NOTEDATA:;
#CHARTNAME:;
#STEPSTYPE:dance-single;
#DESCRIPTION:;
#CHARTSTYLE:;
#DIFFICULTY:Medium;
#METER:14;
#RADARVALUES:0.651597,0.924841,0.085328,0.263742,0.058178,588.000000,577.000000,11.000000,34.000000,0.000000,0.000000,0.000000,0.000000,0.000000,0.651597,0.924841,0.085328,0.263742,0.058178,588.000000,577.000000,11.000000,34.000000,0.000000,0.000000,0.000000,0.000000,0.000000;
#CREDIT:;
#NOTES:
0000
0000
0000
0000
,
0000
0000
0000
0000
,
0000
0000
0000
0000
,
0000
0000
0000
0000
,
0000
0000
0000
0000
,
0000
0000
0000
0000
,
0000
0000
0000
0000
,
2000
0000
0000
0000
,
3100
1000
0100
1000
0001
1000
0001
1000
,
0010
0010
0100
0100
,
0001
0000
0001
0000
1000
0100
1000
0000
,
0001
0001
0010
0010
,
1000
0000
1000
0000
0010
0001
0010
0000
,
0100
0100
1000
1000
,
0010
0000
0010
0000
0100
1000
0100
0000
,
0001
0001
1000
1000
,
0100
0010
0100
0010
0001
0100
0001
0100
,
1000
0000
0100
0000
1000
0100
0010
0000
,
0100
0000
0010
0000
0001
0010
0100
0000
,
1000
0000
0001
0000
0100
0010
1000
0000
,
0010
0000
0100
0000
0001
0010
0100
0000
,
1000
0000
0001
0000
1000
0001
0100
0000
,
0010
0000
0100
0000
0001
0100
0010
0000
,
1000
0000
0100
0000
1000
0100
0010
0000
,
0001
0100
0001
0100
0010
0100
0010
1000
,
0020
0000
0000
0100
0000
0000
0000
2030
,
0000
0000
0000
0010
0000
0000
3200
0000
,
0320
0000
0000
0001
0000
0000
0000
0032
,
0000
0000
0000
0100
0000
0000
0013
0000
,
1001
0000
1000
0000
1000
0001
2000
0000
,
3010
0000
1000
0010
2000
0000
3001
0000
,
0001
0010
0100
1000
0001
0010
0100
1000
,
0001
0100
0010
1000
0001
0100
0010
1000
,
0002
0000
1003
0000
0001
0100
0002
0000
,
0103
0000
0001
1000
0002
0000
0103
0000
,
0001
0000
1000
0100
0000
0100
0000
0001
,
0000
0010
0100
0000
1000
0000
0001
0000
,
1001
0000
1000
0000
1000
0001
2000
0000
,
3010
0000
1000
0010
2000
0000
3001
0000
,
1000
0100
0010
0001
1000
0100
0010
0001
,
1000
0010
0100
0001
1000
0010
0100
0001
,
2000
0000
3010
0000
0100
0010
0200
0000
,
0301
0001
1000
1000
0001
0001
1000
1000
,
0010
0010
0000
0100
0000
0000
0001
0001
,
0000
0100
0000
0000
1000
1000
0000
0100
,
0000
0000
0001
0001
0010
0010
0100
0100
,
1000
1000
0010
0000
0100
0100
0000
0010
,
0000
0000
0001
0001
0000
0100
0000
0000
,
1000
1000
0000
0100
0000
0000
0001
0001
,
0000
1000
0000
0000
0001
1000
0100
1000
,
0001
0000
0100
0000
1000
0000
0100
0001
,
0100
0000
1000
0000
0100
0001
0100
0000
,
1000
0000
0100
0001
0100
0000
1000
0000
,
0101
0000
0011
0000
0001
0000
0100
1000
,
0100
0000
0001
0000
0100
1000
0100
0000
,
0001
0000
0100
1000
0100
0000
0001
0000
,
0100
1000
0100
0000
0001
0010
0001
0010
,
0100
0000
0100
1000
0000
1000
0010
0000
,
0010
0001
0000
0001
0100
0000
0100
1000
,
0000
1000
0100
0000
0100
0001
0000
0001
,
0200
0000
0320
0000
0031
0000
0001
0100
,
0000
0100
1000
0000
1000
0100
0000
0100
,
0001
0000
0001
0010
0000
0010
0100
0000
,
0100
1000
0000
1000
0010
0100
0010
0100
,
0000
0000
0000
0000
,
0000
0000
0000
0000
,
0002
0000
0000
0000
,
0103
0000
0000
0000
,
2000
0000
0000
0000
,
3100
0000
0000
0000
,
0020
0000
0000
0000
,
0031
0000
0000
0000
,
2000
0000
0000
0000
,
3100
0000
0000
0100
0000
0000
0000
0000
,
0002
0000
0010
0000
,
0103
0000
0010
0000
,
0200
0000
1000
0000
,
0310
0000
1000
0000
,
0200
0000
0001
0000
,
0310
0000
1000
0000
,
0010
0100
0000
0001
0000
0100
0020
0000
,
0030
0000
0000
0000
,
1001
0000
0000
0001
0100
0001
0100
0010
,
0000
0000
1000
0000
0100
0000
0010
0000
0100
0010
0100
0000
0010
0000
0001
0000
,
0100
0010
0100
0010
1000
0100
0010
0001
,
0000
0001
0010
0100
1000
0001
1000
0000
,
0110
0000
0000
1000
0100
0010
0100
0010
,
0000
0000
0001
0000
0100
0000
0001
0000
0100
0010
0100
0000
0010
0000
0100
0000
,
0010
1000
0000
1010
0000
1001
0000
0100
,
0010
0100
0001
0000
0010
0000
0100
0000
1000
0000
0001
0000
1000
0000
0000
0000
,
0110
0000
0000
0100
0010
0100
0001
1000
,
0000
0000
0010
0000
1000
0000
0100
0000
0010
0001
0010
0000
0100
0000
1000
0000
,
0001
0010
0001
0010
0100
1000
0010
0100
,
0000
0100
0010
1000
0100
0010
0001
0000
,
1001
0000
0000
0100
0001
0100
0010
0100
,
0000
0000
0001
0000
1000
0000
0100
0000
0010
0100
0010
0000
0100
0000
1000
0000
,
0001
0100
0001
0100
0010
0100
0010
1000
,
0001
0001
0100
0100
0010
0010
0100
0000
,
1001
0000
0001
0100
0000
0010
0000
1000
,
0000
0100
0000
0001
0000
0100
0000
1000
,
0000
0000
0000
0010
0000
0000
0000
0000
0000
0100
0000
0000
0000
0000
0000
0001
0000
0000
0000
0001
0000
0000
0000
0001
,
0000
0000
0000
1000
0000
0000
0000
1000
0000
0000
0000
1000
0000
0000
0000
0001
0000
0000
0000
0000
0000
1000
0000
0000
,
0001
0000
0100
0010
0000
0100
0000
0001
,
0000
0100
0000
1000
0000
0100
0000
0000
,
0001
0010
0000
0100
0000
1000
0001
0000
,
0100
0100
0010
0010
1000
1000
0001
0001
,
1000
0010
1000
0010
0100
0001
0100
0001
,
0010
0100
0010
0100
1000
0010
1000
0010
,
0100
0000
0000
0001
0000
0000
0010
0000
0000
0001
0000
0000
0010
0000
0000
0100
0000
0000
0000
0100
0000
0000
0000
0100
,
0000
0000
0000
1000
0000
0000
0000
1000
0000
0000
0000
1000
0000
0000
0000
0010
0000
0000
0100
0000
0000
0010
0000
0000
,
1000
0001
1000
0001
0100
0010
0100
0010
,
1000
0001
1000
0001
0100
0010
0100
0010
,
1000
0100
0010
0001
1000
0100
0010
0001
,
1000
1000
0010
0010
0100
0100
0001
0001
,
0020
0000
0000
0001
0000
0000
0000
0032
,
0000
0000
0000
1000
0000
0000
0203
0000
,
0320
0000
0000
1000
0000
0000
0000
0230
,
0000
0000
0000
0010
0000
0000
0301
0000
,
0002
0000
0000
0100
0000
0000
0000
2003
,
0000
0000
0000
0010
0000
0000
3200
0000
,
1300
0000
0000
0000
,
1000
1000
0001
0001
,
1000
0001
1000
0001
,
0100
0010
0100
0010
0100
0010
0100
0010
,
1000
0000
0001
0000
1000
0000
0001
0000
1000
0000
0001
0000
1000
0001
1000
0001
,
2000
0000
3000
0000
;

//---------------dance-single - ----------------
#NOTEDATA:;
#CHARTNAME:;
#STEPSTYPE:dance-single;
#DESCRIPTION:;
#CHARTSTYLE:;
#DIFFICULTY:Hard;
#METER:18;
#RADARVALUES:0.866580,1.606303,0.380098,0.465427,0.279256,782.000000,733.000000,49.000000,60.000000,0.000000,0.000000,0.000000,0.000000,0.000000,0.866580,1.606303,0.380098,0.465427,0.279256,782.000000,733.000000,49.000000,60.000000,0.000000,0.000000,0.000000,0.000000,0.000000;
#CREDIT:;
#NOTES:
0000
0000
0000
0000
,
0000
0000
0000
0000
,
0000
0000
0000
0000
,
0000
0000
0000
0000
,
0000
0000
0000
0000
,
0000
0000
0000
0000
,
0000
0000
0000
0000
,
0200
0000
0000
0000
,
0310
0100
0010
0100
0001
1000
0001
1000
,
0010
0000
0100
0000
0001
0100
0010
1000
,
0000
1100
0000
0100
0010
0000
0011
0000
,
0001
0000
0100
0000
0001
1000
0010
0100
,
0000
0101
0000
0001
0010
0000
1001
0000
,
0010
0000
1000
0000
0100
0010
0001
1000
,
0000
1010
0000
0001
0100
0000
0110
0000
,
0002
0010
0000
0010
2003
0100
0000
0100
,
3001
0010
0001
0010
0100
1000
0100
1000
,
1001
0000
0010
0100
1001
0000
0010
0000
,
1100
0000
0001
0010
1100
0000
0001
0000
,
1001
0000
1000
0010
1001
0000
0100
0000
,
0101
0000
0001
0010
0101
0000
1100
0000
,
0020
0000
0001
0030
0010
2000
0000
0100
,
0000
0001
0000
3200
0010
0000
1300
0000
,
0002
0010
0000
0010
2003
0100
0000
0100
,
3001
0010
0001
0010
0100
1000
0100
1000
,
0001
0100
0001
0100
0000
0010
1000
0010
,
0000
1000
0100
2000
0000
0100
3100
0000
,
0010
0001
0010
0001
0000
1000
0001
1000
,
0000
0010
0100
0020
0000
0100
0130
0000
,
0002
0000
0100
0000
0000
0100
0000
0000
,
0100
0000
0000
0100
0003
0000
0110
0000
,
1000
0010
1000
0000
0001
0000
1000
0000
0100
0000
0010
0000
0001
0000
0010
0000
,
0100
1000
0100
0000
0010
0000
0001
0000
1000
0000
0010
0000
0100
0000
0001
0000
,
2000
0000
0010
0000
0000
0010
0000
0000
,
0010
0000
0000
0010
3000
0000
1010
0000
,
0001
0020
0000
0100
0000
0100
0000
0130
,
1000
0001
1000
0000
0001
0000
0100
0000
0000
0000
0010
0000
0100
0000
0000
0000
,
0002
0000
1000
0000
0000
1000
0000
0000
,
1000
0000
0000
1000
0003
0000
1001
0000
,
0001
0010
0001
0000
0100
0000
0010
0000
1000
0000
0100
0000
0010
0000
0001
0000
,
0100
0001
0100
0000
0010
0000
1000
0000
0001
0000
0010
0000
0100
0000
1000
0000
,
0002
0000
0010
0000
0000
0010
0003
0000
,
1000
1000
0001
0001
1000
1000
0001
0100
,
0110
0010
1000
1010
0000
0000
1010
0010
,
1000
1100
0000
0000
1100
1000
0001
0101
,
0000
0000
0101
0001
0010
0010
0100
0100
,
1000
1000
0001
0100
0110
0010
1000
1100
,
0000
0000
1100
1000
0001
0011
0000
0000
,
0011
0001
0100
0110
0000
0000
0110
0010
,
1000
0000
0001
0000
1000
0000
0001
0000
1000
0010
1000
0010
0100
0001
1000
0001
,
0200
0000
0310
0200
1000
0300
0200
0000
,
0310
0200
0001
0300
0200
0000
0310
0200
,
1000
0300
0120
0000
0130
0020
0100
0030
,
0200
0000
0302
0000
2003
0000
3010
2000
,
0100
3000
2000
0000
3100
2000
0010
3000
,
2000
0000
3010
2000
0100
3000
1002
0000
,
0013
0002
0100
0003
0100
0100
0010
0010
,
1000
1000
0100
0100
0010
0001
0100
0100
,
0010
0010
1000
0100
0010
0010
0001
0001
,
1000
0001
0100
0100
0010
0010
1000
0001
,
0020
1030
0020
0031
0100
0010
0100
0010
,
0100
0010
0100
0010
0100
0010
0100
0010
,
0100
0010
0100
0010
0100
0010
0100
0010
,
0100
0010
0100
0010
1000
1000
0001
0001
,
0000
0000
0000
0000
,
0000
0000
0000
0000
,
0001
0000
0100
0010
0000
1000
0000
0100
,
0000
0001
0000
0100
0000
1000
0000
0001
,
0100
0000
0000
0010
0000
0000
0000
0000
0000
0100
0000
0000
0000
0000
0000
0010
0000
0000
0000
0010
0000
0000
0000
1000
,
0000
0000
0000
1000
0000
0000
0000
0001
0000
0000
0000
1000
0000
0000
0000
0001
0000
0000
0000
0000
0000
0100
0000
0000
,
0010
0000
1000
0001
0000
1000
0000
0100
,
0000
0001
0000
1000
0000
0100
0000
0001
,
1000
0100
0000
0010
0000
0001
0002
0000
,
0003
0000
0000
0000
,
1000
0000
0010
0100
0000
0001
0000
0010
,
0000
1000
0000
0010
0000
0001
0000
1000
,
0010
0000
0000
0100
0000
0000
0000
0000
0000
0010
0000
0000
0000
0000
0000
0100
0000
0000
0000
0100
0000
0000
0000
0001
,
0000
0000
0000
0001
0000
0000
0000
1000
0000
0000
0000
0001
0000
0000
0000
1000
0000
0000
0000
0000
0000
0010
0000
0000
,
0100
0000
0001
1000
0000
0001
0000
0010
,
0000
1000
0000
0001
0000
0010
0000
1000
,
0001
0010
0000
0100
0000
1000
2000
0000
,
3000
0000
0000
0000
,
0110
0100
0001
0010
1000
0010
0001
0010
,
1000
0000
0100
0000
1000
0000
0100
0000
0010
0100
0010
0000
1000
0000
0001
0000
,
1000
0010
1000
0000
0001
0000
0010
0000
0100
0000
1000
0000
0010
0000
1000
0000
,
0001
0010
0001
0000
1000
0000
0100
0000
0010
0000
0001
0000
1000
0100
0010
0100
,
1000
0100
0010
0100
1000
0100
0001
0100
,
0010
0000
0001
0000
0010
0000
1000
0000
0010
0001
0100
0000
0010
0000
0100
0000
,
0001
0001
1000
1000
0001
1000
0001
0001
,
1000
0010
0100
0000
0010
0000
0200
0000
0000
0000
0010
0000
0310
0000
0000
0000
,
0110
0010
1000
0100
0001
0100
1000
0100
,
0001
0000
0010
0000
0001
0000
0010
0000
0100
0010
0100
0000
0001
0000
1000
0000
,
0001
0100
0001
0000
1000
0000
0100
0000
0010
0000
0001
0000
0100
0000
0001
0000
,
1000
0100
1000
0000
0001
0000
0010
0000
0100
0000
1000
0000
0001
0010
0100
0010
,
0001
0010
0100
0010
0001
0010
1000
0010
,
0100
0000
1000
0000
0100
0000
0001
0000
0100
1000
0010
0000
0100
0000
0010
0000
,
1000
0100
0001
0100
1000
0001
1000
0001
,
0100
0100
0010
0010
0100
0010
1001
0000
,
2100
3010
0102
0013
,
2100
3010
0102
0013
,
2100
3001
0102
1003
,
2100
0000
0000
0000
3001
0000
0000
0000
0100
0001
0100
0001
0100
0001
0100
0001
,
2000
3010
0102
0013
,
2100
3010
0102
0013
,
2100
3001
0102
1003
,
0010
0000
0010
0000
0100
0000
0100
0000
0001
1000
0001
1000
0001
1000
0001
1000
,
0010
0000
0100
0000
0010
0100
0010
0000
1000
0000
0001
0000
1000
0000
0010
0000
,
0100
0010
0100
0000
0010
0000
1000
0100
1000
0000
0001
0100
0001
0000
0010
0000
,
0100
0000
0010
0000
0001
0000
0100
0000
1000
0000
0100
0000
0001
0000
0100
0010
,
1000
0000
0001
0100
0010
0000
0100
0000
0001
0010
0001
0010
0100
0010
0100
0010
,
0001
1000
0001
1000
0010
0100
0010
0100
,
0001
0001
0100
0100
0010
0010
1000
1000
,
0001
0100
0010
0001
1000
0001
0010
1000
,
0001
1000
0001
1000
0001
1000
0001
1000
0010
0100
0010
0100
0010
0100
0010
0100
,
0020
0000
0000
1000
0000
0000
0000
2030
,
0000
0000
0000
0001
0000
0000
3020
0000
,
0230
0000
0000
0001
0000
0000
0000
0320
,
0000
0000
0000
0100
0000
0000
1030
0000
,
2000
0000
0000
0010
0000
0000
0000
3002
,
0000
0000
0000
0100
0000
0000
0200
0000
,
0303
0000
0000
0000
,
0001
1000
0001
1000
,
0001
1000
0001
1000
0001
1000
0001
1000
,
0001
1000
0001
1000
0001
1000
0001
1000
0001
1000
0001
1000
0001
1000
0001
1000
,
0010
0100
0010
0100
0001
1000
0001
1000
0010
0100
0010
0100
0001
1000
0001
1000
,
0020
0000
0030
0000
;

//---------------dance-double - ----------------
#NOTEDATA:;
#CHARTNAME:;
#STEPSTYPE:dance-double;
#DESCRIPTION:;
#CHARTSTYLE:;
#DIFFICULTY:Easy;
#METER:11;
#RADARVALUES:0.388964,0.632786,0.201685,0.116357,0.000000,351.000000,325.000000,26.000000,15.000000,0.000000,0.000000,0.000000,0.000000,0.000000,0.388964,0.632786,0.201685,0.116357,0.000000,351.000000,325.000000,26.000000,15.000000,0.000000,0.000000,0.000000,0.000000,0.000000;
#CREDIT:;
#NOTES:
00000000
00000000
00000000
00000000
,
00000000
00000000
00000000
00000000
,
00000000
00000000
00000000
00000000
,
00000000
00000000
00000000
00000000
,
00000000
00000000
00000000
00000000
,
00000000
00000000
00000000
00000000
,
00000000
00000000
00000000
00000000
,
00000020
00000000
00000000
00000000
,
00000130
00000100
00000010
00000010
,
00001000
00000000
00000001
00000000
,
00000010
00000010
00000100
00000000
,
00001000
00000000
00000001
00000000
,
00000100
00000100
00000010
00000000
,
00010000
00000000
00000100
00000000
,
00010000
00010000
00001000
00000000
,
00010100
00000000
00101000
00000000
,
00010000
01000000
00010000
01000000
,
00100000
00000000
00100000
00000000
,
10000000
10000000
01000000
00000000
,
10000000
00000000
00010000
00000000
,
01000000
01000000
00010000
00000000
,
00100000
00000000
01000000
00000000
,
10000000
10000000
01000000
00000000
,
00100000
00001000
00010000
00000000
,
00001000
00001000
00010000
00010000
,
00011000
00000000
00000000
00010000
00000000
00000000
00000000
00001000
,
00000000
00000000
00000000
00010000
00000000
00000000
00001000
00000000
,
01100000
00000000
00000000
01000000
00000000
00000000
00000000
00100000
,
00000000
00000000
00000000
01000000
00000000
00000000
00100000
00000000
,
10010000
00000000
10000000
00000000
00000000
10000000
00000000
00000000
,
10000000
00000000
00000000
10000000
00000000
00000000
10000000
00000000
,
00100000
00000000
01000000
01000000
00000000
00010000
00000000
00010000
,
00000000
00100000
00000000
00100000
00000000
00001000
00000000
00000000
,
00011000
00000000
00010000
00000000
00000000
00010000
00000000
00000000
,
00010000
00000000
00000000
00010000
00000000
00000000
00001000
00000000
,
00010000
00000000
00001000
00001000
00000000
00010000
00000000
00000100
,
00000000
00000010
00000000
00000010
00000000
00000001
00000100
00000000
,
00000101
00000000
00000001
00000000
00000000
00000001
00000000
00000000
,
00000001
00000000
00000000
00000001
00000000
00000000
00001000
00000000
,
00000010
00000000
00000100
00000100
00000000
00001000
00000000
00001000
,
00000000
00010000
00000000
00000100
00000000
00000010
00000000
00000000
,
00000110
00000000
00000100
00000000
00000000
00010000
00000000
00000000
,
00011000
00001000
00011000
00010000
,
00011000
00000000
00000000
00000100
00000000
00000000
00011000
00000000
,
00000000
01000000
00000000
00000000
00011000
00000000
00000000
00000010
,
00000000
00000000
00011000
00000000
00000000
00100000
00000000
00000000
,
00001000
00000000
00010000
00000000
00100000
00000000
00000000
00100000
,
00000000
00000000
10000000
00000000
00000000
10000000
00000000
00000000
,
01000000
00000000
00000000
01000000
00000000
00000000
00010000
00000000
,
00000000
00010000
00000000
00000000
00001000
00000000
00010000
00000000
,
00000010
00000000
00000000
00000010
00000000
00000000
00000100
00000000
,
00000000
00000100
00000000
00000000
00001000
00000000
00000000
00001000
,
00000000
00000000
00010000
00000000
00000000
00010000
00000000
00000000
,
00100000
00000000
10000000
00000000
01000000
00000000
00000000
01000000
,
00000000
00000000
00100000
00000000
00000000
00100000
00000000
00000000
,
00001000
00000000
00000000
00001000
00000000
00000000
00010000
00000000
,
00000000
00010000
00000000
00000000
00001000
00000000
00000100
00000000
,
00000010
00000010
00001000
00001000
,
00000001
00000001
00000010
00000010
,
00000100
00001000
00010000
01000000
,
00100000
00100000
10000000
10000000
,
00010000
00010000
10000000
10000000
,
00100000
00100000
01000000
01000000
,
00001000
00000000
00001000
00000000
00010000
00000000
00010000
00001000
,
00000000
00000000
00000000
00000000
,
00000000
00000000
00000000
00000000
,
00000020
00000000
00000000
00000000
,
00000030
00000000
00000000
00000000
,
00000200
00000000
00000000
00000000
,
00000300
00000000
00000000
00000000
,
00200000
00000000
00000000
00000000
,
00300000
00000000
00000000
00000000
,
02000000
00000000
00000000
00000000
,
03000000
00000000
00000000
00000000
,
00020000
00000000
00001000
00000000
,
00031000
00000000
00010000
00000000
,
00000200
00000000
00001000
00000000
,
00001300
00000000
00000100
00000000
,
00020000
00000000
00100000
00000000
,
00130000
00000000
10000000
00000000
,
00020000
00000000
00000000
00000000
,
02030000
00000000
03000000
00000000
,
10010000
00000000
10000000
00000000
,
00010000
00000000
00100000
00100000
,
01000000
10000000
00100000
00000000
,
01000000
00010000
00100000
00000000
,
00011000
00000000
00010000
00000000
,
00000100
00000100
00010000
00000000
,
00000100
00000010
00000100
00000010
,
00000001
00000001
00001000
00000000
,
00001001
00000000
00000001
00000000
,
00000100
00000100
00000010
00000000
,
00001000
00000001
00000010
00000100
,
00001000
00000010
00000100
00000001
,
00001001
00000000
00000010
00000000
,
00000100
00000100
00000010
00000000
,
00000100
00010000
00001000
00010000
,
00100000
00100000
10000000
10000000
,
11000000
00000000
00100000
00000000
,
01010000
00000000
00100000
00000000
,
10010000
00000000
01000000
00000000
,
10010000
00000000
00100000
00010000
,
01010000
00000000
00100000
00000000
,
00011000
00000000
00001000
00000000
,
01100000
00000000
01000000
00000000
,
00001000
00010000
00001000
00010000
,
00000100
00000100
00000010
00000010
,
00000001
00000010
00000100
00001000
,
00000010
00000010
00000100
00001000
,
00010000
00100000
10000000
00100000
,
10000000
00010000
00100000
01000000
,
10000000
01000000
00100000
00010000
,
01000000
01000000
00100000
00100000
,
00010000
00001000
00010100
00001000
,
00000200
00000000
00000000
00000000
00000000
00000000
00000000
00000310
,
00000000
00000000
00000000
00000001
00000000
00000000
00000100
00000000
,
00002000
00000000
00000000
00000000
00000000
00000000
00000000
00013000
,
00000000
00000000
00000000
00100000
00000000
00000000
10000000
00000000
,
02000000
00000000
00000000
00000000
00000000
00000000
00000000
03100000
,
00000000
00000000
00000000
00010000
00000000
00000000
01000000
00000000
,
00002000
00000000
00003000
00000000
,
00010000
00000000
00001000
00000000
,
00010000
00000000
00001000
00000000
,
00010000
00001000
00010000
00001000
,
00010000
00001000
00010000
00001000
00010000
00001000
00010000
00001000
,
00020000
00000000
00030000
00000000
;

//---------------dance-double - ----------------
#NOTEDATA:;
#CHARTNAME:;
#STEPSTYPE:dance-double;
#DESCRIPTION:;
#CHARTSTYLE:;
#DIFFICULTY:Medium;
#METER:14;
#RADARVALUES:0.680409,0.924841,0.255985,0.193928,0.007757,614.000000,581.000000,33.000000,25.000000,0.000000,0.000000,0.000000,0.000000,0.000000,0.680409,0.924841,0.255985,0.193928,0.007757,614.000000,581.000000,33.000000,25.000000,0.000000,0.000000,0.000000,0.000000,0.000000;
#CREDIT:;
#NOTES:
00000000
00000000
00000000
00000000
,
00000000
00000000
00000000
00000000
,
00000000
00000000
00000000
00000000
,
00000000
00000000
00000000
00000000
,
00000000
00000000
00000000
00000000
,
00000000
00000000
00000000
00000000
,
00000000
00000000
00000000
00000000
,
00000020
00000000
00000000
00000000
,
00000130
00000010
00000100
00000010
00001000
00000010
00001000
00000010
,
00001000
00000001
00000010
00000100
,
00001000
00010000
00100000
11000000
,
10000000
00100000
01000000
00010000
,
00001000
00000010
00000100
00000101
,
00000010
00000100
00001000
00010000
,
01000000
00100000
10000000
10010000
,
00100000
01010000
10000000
10010000
,
00100000
01000000
00100000
01000000
00010000
00100000
00010000
00100000
,
00001000
00011000
00100000
00110000
,
00001000
00000000
00010000
00000000
00000100
00000010
00000001
00000000
,
00000100
00000101
00001000
00001100
,
00000001
00000000
00000010
00000000
00000100
00010000
00000010
00000000
,
00000100
00000110
00001000
00001100
,
00000100
00000000
00000010
00000000
00000100
00001000
00000100
00000000
,
00010000
00001000
00010000
00000000
00000100
00001000
00000100
00000000
,
00010000
00001000
00010000
00001000
00100000
00010000
01000000
00010000
,
20000000
00000000
00000000
00100000
00000000
00000000
00000000
30020000
,
00000000
00000000
00000000
00100000
00000000
00000000
00031000
00000000
,
00002000
00000000
00000000
00000010
00000000
00000000
00000000
00003002
,
00000000
00000000
00000000
00000010
00000000
00000000
00001003
00000000
,
00011000
00000000
00010000
00000000
00010000
01000000
00000000
01000000
,
10000000
00000000
10000000
01000000
00000000
01000000
00010000
00000000
,
10000000
01000000
00100000
00010000
10000000
01000000
00100000
00010000
,
10000000
00100000
01000000
00010000
10000000
00100000
01000000
00010000
,
10000000
00000000
01000000
00000000
01000000
00010000
00000000
00010000
,
00001000
00000000
00001000
00000100
00000000
00000100
00000001
00000000
,
00000010
00000000
00000100
00000010
00000000
00000010
00000000
00000010
,
00000001
00001000
00000001
00002000
00000000
00000010
00003010
00000000
,
00001001
00000000
00000001
00000000
00000001
00000010
00000000
00000010
,
00001000
00000000
00001000
00010000
00000000
00010000
00100000
00000000
,
10000000
01000000
00100000
00010000
10000000
01000000
00100000
00010000
,
10000000
00100000
01000000
00010000
10000000
00100000
01000000
00010000
,
00100000
00000000
01000000
00000000
10000000
01000000
00000000
00000000
,
00100000
00010000
00100000
00010000
00001000
00000100
00001000
00000100
,
00010000
00010000
00100000
01000000
00000000
00000000
00100000
00100000
,
01000000
00010000
00000000
00000000
10000000
10000000
00100000
01000000
,
00000000
00000000
00001000
00001000
00010000
00001000
01000000
00001000
,
00010000
00000100
00010000
00000100
00000010
00000010
00000001
00000100
,
00000000
00000000
00000010
00000010
00001000
00000100
00000000
00000000
,
00010000
00010000
00000100
00001000
00000000
00000000
00000010
00000010
,
00000100
00000001
00000010
00000100
00001000
00000010
00000100
00001000
,
00010000
00100000
10000000
00100000
,
00010000
00001000
00000100
00000001
,
00000100
00001000
00010000
00100000
,
10000000
01000000
00100000
00000000
00010000
00000000
00001000
00000000
,
00000100
00000001
00000100
00001000
,
00010000
00100000
10000000
00100000
,
00010000
00000000
00001000
00000000
00000010
00000100
00000010
00000100
,
00000001
00000000
00000001
00000010
00000000
00000010
00001000
00000000
,
00001000
00010000
00000000
00010000
00100000
00000000
00100000
10000000
,
00000000
10000000
01000000
00000000
01000000
00010000
00000000
00010000
,
00001000
00000000
00010000
00000000
00000100
00000010
00000100
00000010
,
00000100
00010000
00000100
00010000
00001000
00010000
00001000
00010000
,
00100000
00010000
00100000
00010000
00100000
01000000
00100000
01000000
,
00010000
10000000
00010000
00100000
00001000
00001000
00010000
00010000
,
00000000
00000000
00000000
00000000
,
00000000
00000000
00000000
00000000
,
00000020
00000000
00000000
00000000
,
00000130
00000000
00000000
00000000
,
00002000
00000000
00000000
00000000
,
00003001
00000000
00000000
00000000
,
00020000
00000000
00000000
00000000
,
10030000
00000000
00000000
00000000
,
02000000
00000000
00000000
00000000
,
03100000
00000000
00000000
00000000
,
00012000
00000000
00010000
00000000
,
00103000
00000000
01000000
00000000
,
21000000
00000000
00100000
00000000
,
30010000
00000000
01000000
00000000
,
00010200
00000000
00001000
00000000
,
00000310
00000000
00000001
00000000
,
00000001
00001000
00000000
00000200
00000000
00001300
00000020
00000000
,
00000230
00000000
00000300
00000000
,
00001001
00000000
00000000
00000001
00000100
00000010
00000100
00000010
,
00000000
00001000
00000100
00000010
00001000
00010000
00001000
00010000
,
00100000
10000000
01000000
00100000
00010000
00100000
01000000
10000000
,
00100000
00010000
00001000
00000100
00001000
00010000
00100000
01000000
,
00010000
00000000
00000000
00100000
00010000
00100000
00010000
01000000
,
00000000
00100000
01000000
00010000
00001000
00010000
00100000
00001000
,
00000100
00000010
00000000
00000010
00000000
00000100
00000000
00000100
,
00000010
00001000
00000100
00000020
00000000
00000100
00000130
00000000
,
00000110
00000000
00000000
00000001
00000010
00000100
00001000
00000010
,
00000000
00000100
00000010
00000100
00010000
00100000
00010000
00100000
,
00001000
00010000
00100000
01000000
00100000
00010000
00001000
00010000
,
00001000
00000100
00000010
00000100
00001000
00010000
00001000
00010000
,
00100000
00000000
00000000
10000000
01000000
00100000
01000000
10000000
,
00000000
00100000
01000000
00010000
00001000
00000010
00001000
00000010
,
00000100
00000001
00000000
00000001
00000010
00000100
00000000
00000100
,
00000010
00000010
00000001
00000001
00000100
00000100
00001000
00000000
,
00011000
00100000
00110000
01000000
,
11000000
10000000
10100000
01000000
,
00011000
00000100
00011000
00100000
,
00011000
00000000
00000010
00000000
00011000
00001000
00010000
00001000
,
01001000
01000000
10100000
00100000
,
00011000
00010000
00000101
00000010
,
00011000
00100000
00011000
00000100
,
00011000
00010000
00000100
00000100
00001000
00001000
00000010
00000010
,
00001000
00000001
00000010
00000001
00000010
00000100
00001000
00000010
,
00000100
00001000
00010000
00001000
00010000
00000100
00001000
00010000
,
00100000
00001000
00010000
00001000
00010000
00100000
01000000
00010000
,
00100000
01000000
10000000
00100000
01000000
00010000
01000000
00010000
,
10000000
00100000
00010000
00001000
00010000
00000100
00001000
00000010
,
00010000
00000100
00000010
00000100
00001000
00000100
00010000
00001000
,
00010000
00000100
00001000
00000100
00010000
00001000
00010000
00000100
,
00001000
00001000
00010000
00010000
00100000
00100000
01000000
01000000
,
20000000
00000000
00000000
00100000
00000000
00000000
00000000
30020000
,
00000000
00000000
00000000
00100000
00000000
00000000
00031000
00000000
,
00002000
00000000
00000000
00000010
00000000
00000000
00000000
00003002
,
00000000
00000000
00000000
00000010
00000000
00000000
00001003
00000000
,
00002000
00000000
00000000
00000100
00000000
00000000
00000000
00023000
,
00000000
00000000
00000000
00100000
00000000
00000000
01030000
00000000
,
00002000
00000000
00003000
00000000
,
00010000
00010000
00001000
00001000
,
00010000
00001000
00010000
00001000
,
00100000
00010000
00100000
00010000
00100000
00010000
00100000
00010000
,
00001000
00000000
00000100
00000000
00001000
00000000
00000100
00000000
00001000
00000000
00000100
00000000
00010000
00001000
00010000
00001000
,
00020000
00000000
00030000
00000000
;

//---------------dance-double - ----------------
#NOTEDATA:;
#CHARTNAME:;
#STEPSTYPE:dance-double;
#DESCRIPTION:;
#CHARTSTYLE:;
#DIFFICULTY:Hard;
#METER:17;
#RADARVALUES:0.848849,1.411600,0.217199,0.566269,0.221078,766.000000,738.000000,28.000000,73.000000,0.000000,0.000000,0.000000,0.000000,0.000000,0.848849,1.411600,0.217199,0.566269,0.221078,766.000000,738.000000,28.000000,73.000000,0.000000,0.000000,0.000000,0.000000,0.000000;
#CREDIT:;
#NOTES:
// measure 0
00000000
00000000
00000000
00000000
,  // measure 1
00000000
00000000
00000000
00000000
,  // measure 2
00000000
00000000
00000000
00000000
,  // measure 3
00000000
00000000
00000000
00000000
,  // measure 4
00000000
00000000
00000000
00000000
,  // measure 5
00000000
00000000
00000000
00000000
,  // measure 6
00000000
00000000
00000000
00000000
,  // measure 7
00000020
00000000
00000000
00000000
,  // measure 8
00001030
00000001
00001000
00000001
00000010
00000100
00000010
00000100
,  // measure 9
00001000
00000000
00000010
00000000
00000100
00001000
00010000
00000100
,  // measure 10
00000000
00001000
00000000
00000100
00010000
00000000
00001000
00000000
,  // measure 11
00100000
00000000
00010000
00000000
01000000
00010000
00100000
00001000
,  // measure 12
00000000
00010000
00000000
00100000
01000000
00000000
00010000
00000000
,  // measure 13
00001000
00000000
00000100
00000000
00000010
00000001
00000010
00001000
,  // measure 14
00000000
00000010
00000000
00001000
00010000
00000000
00000100
00000000
,  // measure 15
00020000
00001000
00000000
00001000
00030200
00001000
00000000
00001000
,  // measure 16
00010300
00001000
00010000
00001000
00100000
01000000
00100000
01000000
,  // measure 17
10010000
00000000
10000000
00010000
01010000
00000000
00100000
00000000
,  // measure 18
00011000
00000000
00000100
00001000
00001010
00000000
00000001
00000000
,  // measure 19
00000101
00000000
00000010
00001000
00001010
00000000
00000100
00000000
,  // measure 20
00011000
00000000
00100000
00010000
01010000
00000000
10000000
00000000
,  // measure 21
12000000
00000000
00100000
00000000
13000000
00200000
00000000
01000000
,  // measure 22
00000000
00320000
00000000
00001000
00030200
00000000
00020300
00000000
,  // measure 23
00032000
00010000
00000000
00010000
00203000
00010000
00000000
00010000
,  // measure 24
00301000
00010000
00001000
00010000
00000010
00000100
00000010
00000100
,  // measure 25
00001001
00000001
00000100
00000010
00000000
00010000
00001000
00010000
,  // measure 26
00000000
00000010
00000100
00000020
00000000
00001000
00001030
00000000
,  // measure 27
00010000
00001000
00010000
00100000
00000000
01000000
00100000
01000000
,  // measure 28
00000000
00001000
00010000
00002000
00000000
00010000
00013000
00000000
,  // measure 29
00010200
00000000
00020300
00000000
00030010
00020000
00000000
00030100
,  // measure 30
00020000
00000000
00031000
00020000
00000000
01030000
00010000
00000000
,  // measure 31
00001000
00010000
00001000
00000000
00100000
00000000
01000000
00000000
10000000
00000000
01000000
00000000
00100000
00000000
00001000
00000000
,  // measure 32
00010000
00001000
00010000
00000000
00000010
00000000
00000100
00000000
00000001
00000000
00000100
00000000
00000010
00001000
00000010
00000000
,  // measure 33
00000200
00000000
00002300
00000000
01003000
00002000
00000000
00103000
,  // measure 34
00002000
00000000
00013000
00002000
00000000
00003100
00001000
00000000
,  // measure 35
00010000
00000020
00000000
00000100
00000000
00000100
00000000
00000130
,  // measure 36
00000010
00001000
00000100
00000000
00000010
00000000
00000200
00000000
00000000
00000000
00000010
00000000
00000310
00000000
00000000
00000000
,  // measure 37
00020100
00000000
00032000
00000000
01003000
00002000
00000000
00103000
,  // measure 38
00002000
00000000
00013000
00002000
00000000
00003100
00001000
00000000
,  // measure 39
00010000
00001000
00010000
00000000
00000100
00000000
00000010
00000000
00000001
00000000
00000010
00000000
00000100
00000000
00010000
00000000
,  // measure 40
00001000
00010000
00001000
00000000
01000000
00000000
00100000
00000000
10000000
00000000
00100000
00000000
01000000
00010000
01000000
00000000
,  // measure 41
00200000
00000000
02300000
00000000
03010000
02000000
00000000
13000000
,  // measure 42
00010000
00100000
10000000
00100000
00010000
00001000
00000100
00000001
,  // measure 43
00000100
00000100
00000010
00000100
00000000
00001000
00010000
00010000
,  // measure 44
00001000
00010000
00000000
00100000
01000000
01000000
00100000
01000000
,  // measure 45
00000000
00010000
00100000
00100000
00010000
00010000
01000000
01000000
,  // measure 46
00001000
00001000
00010000
00010000
00000010
00000100
00000100
00000010
,  // measure 47
00000000
00010000
00001000
00001000
00010000
00001000
00000000
01000000
,  // measure 48
00100000
00100000
01000000
00100000
00000000
10000000
01000000
01000000
,  // measure 49
10000000
00000000
00100000
00000000
00010000
00000000
00100000
00000000
10000000
00010000
10000000
00010000
10000000
00100000
10000000
00100000
,  // measure 50
02000000
00000000
03010000
02000000
10000000
03000000
02000000
00000000
,  // measure 51
13000000
02000000
00010000
03000000
02000000
00000000
03010000
02000000
,  // measure 52
10000000
03000000
02000000
00000000
03100000
00020000
00000000
00031000
,  // measure 53
00000200
00000000
00000301
00000000
00000020
00000000
00001030
00000020
,  // measure 54
00000001
00000030
00000020
00000000
00000031
00000020
00001000
00000030
,  // measure 55
00000020
00000000
00001030
00000020
00000001
00000030
00000020
00000000
,  // measure 56
00000031
00000020
00001000
00000030
00000010
00000010
00000001
00000001
,  // measure 57
00001000
00000100
00000001
00000100
00001000
00010000
00100000
10000000
,  // measure 58
00100000
00010000
00001000
00000100
00000001
00000100
00001000
00000010
,  // measure 59
00000001
00000010
00001000
00010000
01000000
10000000
01000000
00010000
,  // measure 60
00100000
00010000
00001000
00000100
00010000
00001000
00010000
00001000
,  // measure 61
00010000
00001000
00010000
00001000
00010000
00001000
00010000
00001000
,  // measure 62
00010000
00001000
00010000
00001000
00010000
00001000
00010000
00001000
,  // measure 63
00010000
00001000
00010000
00001000
00000100
00000100
00000010
00000010
,  // measure 64
00000000
00000000
00000000
00000000
,  // measure 65
00000000
00000000
00000000
00000000
,  // measure 66
00000010
00000000
00000010
00000100
00000000
00000100
00000000
00001000
,  // measure 67
00000000
00000100
00000000
00000001
00000000
00000010
00000000
00000100
,  // measure 68
00001000
00000000
00000000
00000010
00000000
00000000
00000000
00000000
00000000
00000010
00000000
00000000
00000000
00000000
00000000
00000100
00000000
00000000
00000000
00000001
00000000
00000000
00000000
00000100
,  // measure 69
00000000
00000000
00000000
00000010
00000000
00000000
00000000
00001000
00000000
00000000
00000000
00000010
00000000
00000000
00000000
00000100
00000000
00000000
00000000
00000000
00000000
00000100
00000000
00000000
,  // measure 70
00001000
00000000
00001000
00010000
00000000
00001000
00000000
00001000
,  // measure 71
00000000
00010000
00000000
00100000
00000000
01000000
00000000
00010000
,  // measure 72
00010000
00100000
00000000
01000000
00000000
10000000
00020000
00000000
,  // measure 73
00030000
00000000
00000000
00000000
,  // measure 74
01000000
00000000
01000000
00100000
00000000
00100000
00000000
00010000
,  // measure 75
00000000
00100000
00000000
10000000
00000000
01000000
00000000
00100000
,  // measure 76
00010000
00000000
00000000
01000000
00000000
00000000
00000000
00000000
00000000
01000000
00000000
00000000
00000000
00000000
00000000
00100000
00000000
00000000
00000000
10000000
00000000
00000000
00000000
00100000
,  // measure 77
00000000
00000000
00000000
01000000
00000000
00000000
00000000
00010000
00000000
00000000
00000000
01000000
00000000
00000000
00000000
00100000
00000000
00000000
00000000
00000000
00000000
00100000
00000000
00000000
,  // measure 78
00010000
00000000
00010000
00001000
00000000
00010000
00000000
00010000
,  // measure 79
00000000
00001000
00000000
00000100
00000000
00000010
00000000
00001000
,  // measure 80
00001000
00000100
00000000
00000010
00000000
00000001
00002000
00000000
,  // measure 81
00003000
00000000
00000000
00000000
,  // measure 82
00001100
00000000
00000000
00000100
00001000
00010000
00100000
01000000
,  // measure 83
00000000
00000000
10000000
00000000
01000000
00000000
00100000
00000000
00010000
00100000
00010000
00000000
00100000
00000000
01000000
00000000
,  // measure 84
10000000
00100000
10000000
00000000
01000000
00000000
00010000
00000000
00001000
00000000
00000010
00000000
00000001
00000000
00000010
00000000
,  // measure 85
00000100
00001000
00000100
00000000
00010000
00000000
00001000
00000000
00000010
00000000
00001000
00000000
00010000
00000000
00000100
00000000
,  // measure 86
00001100
00000000
00000000
00000010
00001000
00000001
00000100
00000010
,  // measure 87
00000000
00000000
00000100
00000000
00001000
00000000
00010000
00000000
00100000
01000000
00100000
00000000
10000000
00000000
00010000
00000000
,  // measure 88
02000000
00100000
00000000
00100000
03002000
00100000
00000000
00100000
,  // measure 89
10003000
00010000
10000000
00000000
00010000
00000000
00200000
00000000
00000000
00000000
01000000
00000000
01300000
00000000
00000000
00000000
,  // measure 90
01010000
00000000
00000000
01000000
00010000
00001000
00000010
00000100
,  // measure 91
00000000
00000000
00000001
00000000
00000010
00000000
00000100
00000000
00001000
00000100
00001000
00000000
00000100
00000000
00000010
00000000
,  // measure 92
00000001
00000100
00000001
00000000
00000010
00000000
00001000
00000000
00010000
00000000
00100000
00000000
10000000
00000000
00100000
00000000
,  // measure 93
01000000
00010000
01000000
00000000
00001000
00000000
00010000
00000000
00100000
00000000
00010000
00000000
00001000
00000000
01000000
00000000
,  // measure 94
01010000
00000000
00000000
01000000
00010000
10000000
00100000
01000000
,  // measure 95
00000000
00000000
00100000
00000000
00010000
00000000
00001000
00000000
00000100
00000010
00000100
00000000
00000001
00000000
00001000
00000000
,  // measure 96
00000020
00000100
00000000
00000100
00020030
00000100
00000000
00000100
,  // measure 97
00031000
00010000
00001000
00001000
00100000
00010000
10010000
00000000
,  // measure 98
10200000
10300000
00210000
00310000
,  // measure 99
00012000
00013000
00002100
00003100
,  // measure 100
00000120
00000000
00000000
00000000
00000000
00000000
00000130
00000000
00000000
00000000
00000000
00000000
00002000
00000000
00000000
00000010
00000000
00000000
00003000
00000010
00000000
00000000
00000000
00000010
,  // measure 101
00000000
00000000
00000000
00000000
00000000
00000000
00000100
00000000
00000000
00000000
00000000
00000000
00000000
00000000
00000100
00000000
00000000
00000000
00000000
00000000
00000000
00000000
00000100
00000000
00000001
00000000
00000000
00000100
00000000
00000000
00000001
00000000
00000000
00000000
00000000
00000000
00001000
00000000
00000000
00000000
00000000
00000000
00000010
00000000
00000000
00000000
00000000
00000000
,  // measure 102
00002010
00003100
00010200
00010300
,  // measure 103
00210000
00310000
01200000
01300000
,  // measure 104
21000000
31000000
01020000
01030000
,  // measure 105
00010000
00000000
00100000
00000000
00010000
00000000
00100000
00000000
00001000
00010000
00001000
00010000
00001000
00010000
00001000
00010000
,  // measure 106
00001000
00010000
00000100
00010000
00000010
00001000
00000001
00001000
,  // measure 107
00000010
00001000
00000100
00010000
00001000
00100000
01000000
00100000
,  // measure 108
00010000
01000000
10000000
01000000
00010000
00100000
00010000
00001000
,  // measure 109
00000010
00000100
00001000
00100000
00010000
00001000
00000010
00000100
,  // measure 110
00000010
00000010
00001000
00001000
00010000
00010000
00100000
00100000
,  // measure 111
10000000
10000000
00100000
00100000
00010000
00010000
00001000
00001000
,  // measure 112
00000010
00000010
00000010
00000010
00000100
00000100
00000100
00000100
,  // measure 113
00000001
00000000
00001000
00000000
00000001
00000000
00000010
00000000
00000100
00001000
00000100
00001000
00000001
00001000
00000001
00001000
,  // measure 114
00000010
00000100
00000010
00010000
00000000
00001000
00010000
00001000
,  // measure 115
00000000
01000000
00100000
02000000
00000000
00010000
03010000
00000000
,  // measure 116
10000000
01000000
10000000
00010000
00000000
00100000
00001000
00100000
,  // measure 117
00000000
00000100
00001000
00000200
00000000
00000010
00000310
00000000
,  // measure 118
00000001
00000010
00000100
00001000
00000000
00000010
00000100
00001000
,  // measure 119
00000000
00000100
00001000
00020000
00000000
00001000
00002000
00000000
,  // measure 120
00033000
00000000
00000000
00000000
,  // measure 121
00001000
00010000
00001000
00010000
,  // measure 122
00001000
00010000
00001000
00010000
00001000
00010000
00001000
00010000
,  // measure 123
00001000
00010000
00001000
00010000
00001000
00010000
00001000
00010000
00001000
00010000
00001000
00010000
,  // measure 124
00001000
00010000
00001000
00010000
00001000
00010000
00001000
00010000
00001000
00010000
00001000
00010000
00001000
00010000
00001000
00010000
,  // measure 125
00002000
00000000
00003000
00000000
;

//---------------dance-single - ----------------
#NOTEDATA:;
#CHARTNAME:;
#STEPSTYPE:dance-single;
#DESCRIPTION:;
#CHARTSTYLE:;
#DIFFICULTY:Challenge;
#METER:19;
#RADARVALUES:0.992910,1.606303,0.589540,0.511969,0.597297,896.000000,820.000000,76.000000,66.000000,0.000000,0.000000,0.000000,0.000000,0.000000,0.992910,1.606303,0.589540,0.511969,0.597297,896.000000,820.000000,76.000000,66.000000,0.000000,0.000000,0.000000,0.000000,0.000000;
#CREDIT:;
#NOTES:
0000
0000
0000
0000
,
0000
0000
0000
0000
,
0000
0000
0000
0000
,
0000
0000
0000
0000
,
0000
0000
0000
0000
,
0000
0000
0000
0000
,
0000
0000
0000
0000
,
0200
0000
0000
0000
,
0310
0010
0100
0100
0001
0001
1000
1000
,
0001
0000
0100
0000
0001
0100
0010
1000
,
0000
1100
0000
0100
0010
0000
0011
0000
,
0001
0000
0100
0000
0001
1000
0010
0100
,
0000
0101
0000
0001
0010
0000
1001
0000
,
0010
0000
1000
0000
0100
0010
0001
1000
,
0000
1010
0000
0001
0100
0000
0110
0000
,
0002
0010
0000
0010
2003
0100
0000
0100
,
3001
0001
0010
0010
0100
0100
1000
1000
,
1001
0000
0010
0100
1001
0000
0010
0000
,
1100
0000
0001
0010
1100
0000
0001
0000
,
1001
0000
1000
0010
1001
0000
0100
0000
,
0101
0000
0001
0010
0101
0000
1100
0000
,
0020
0000
0001
0030
0010
2000
0000
0100
,
0000
0001
0000
3200
0010
0000
1300
0000
,
0002
0010
0000
0010
2003
0100
0000
0100
,
3001
0001
0100
0100
0010
0010
1000
1000
,
0001
0100
0001
0100
0000
0010
1000
0010
,
0000
1000
0100
2000
0000
0100
3100
0000
,
0010
0001
0010
0001
0000
1000
0001
1000
,
0000
0010
0100
0020
0000
0100
0130
0000
,
0002
0000
0100
0000
0000
0100
0000
0000
,
0100
0000
0000
0100
0003
0000
0110
0000
,
1000
0100
0010
0001
1000
0100
0010
0001
1000
0010
0100
0001
1000
0010
0100
0001
,
1000
0100
0010
0001
1000
0100
0010
0001
1000
0010
0100
0001
1000
0010
0100
0001
,
2000
0000
0010
0000
0000
0010
0000
0000
,
0010
0000
0000
0010
3000
0000
1010
0000
,
0001
0020
0000
0100
0000
0100
0000
0130
,
1000
0001
1000
0000
0001
0000
0100
0000
0000
0000
0010
0000
0100
0000
0000
0000
,
0002
0000
1000
0000
0000
1000
0000
0000
,
1000
0000
0000
1000
0003
0000
1001
0000
,
0001
0010
0100
1000
0001
0010
0100
1000
0001
0100
0010
1000
0001
0100
0010
1000
,
0001
0010
0100
1000
0001
0010
0100
1000
0001
0100
0010
1000
0001
0100
0010
1000
,
0002
0000
0010
0000
0000
0010
0003
0000
,
1000
1000
0001
0001
1001
1001
1100
1100
,
0110
0010
0001
0101
0000
0000
1010
0010
,
1000
1100
0000
0000
0110
0010
0001
0101
,
0000
0000
1010
1000
1100
0100
0110
0010
,
0011
0001
1001
0100
0110
0010
1000
1100
,
0000
0000
0101
0001
1000
1100
0000
0000
,
0110
0010
1000
1100
0000
0000
0101
0001
,
1000
0010
1000
0010
1000
0010
1000
0010
0100
0001
0100
0010
1000
0100
0010
0001
,
0200
0000
0310
0200
1000
0300
0200
0000
,
0310
0200
0001
0300
0200
0000
0310
0200
,
1000
0300
0120
0000
0130
0020
0100
0030
,
0200
0000
0302
0000
2003
0000
3010
2000
,
0100
3000
2000
0000
3100
2000
0010
3000
,
2000
0000
3010
2000
0100
3000
1002
0000
,
0013
0002
0100
0003
0100
0100
0010
0010
,
1000
1000
0100
0100
0010
0001
0100
0100
,
0010
0010
1000
0100
0010
0010
0001
0001
,
1000
0001
0100
0100
0010
0010
1000
0001
,
0101
0100
1010
0010
0100
0100
0100
0100
,
0100
0100
0100
0100
0100
0100
0100
0100
,
0100
0100
0100
0100
0100
0100
0100
0100
,
0100
0100
0100
0100
0011
1010
1000
1000
,
0000
0000
0000
0000
,
0000
0000
0000
0000
,
0002
0000
0100
0010
0000
1000
0000
0100
,
0003
0001
0000
0010
0000
0100
0000
1000
,
0002
0000
0000
0010
0000
0000
0000
0000
0000
0100
0000
0000
0000
0000
0000
0010
0000
0000
0000
0100
0000
0000
0000
1000
,
0003
0000
0000
0010
0000
0000
0000
0100
0000
0000
0000
1000
0000
0000
0000
0001
0000
0000
0000
0000
0000
0100
0000
0000
,
0020
0000
1000
0001
0000
1000
0000
0100
,
0030
0001
0000
1000
0000
0100
0000
0001
,
2000
0100
0000
0010
0000
0001
0002
0000
,
3003
0000
0000
0000
,
2001
0000
0001
0100
0000
0010
0000
0001
,
3000
0100
0000
0001
0000
1000
0000
0010
,
2000
0000
0000
0001
0000
0000
0000
0000
0000
0100
0000
0000
0000
0000
0000
0001
0000
0000
0000
0010
0000
0000
0000
0100
,
3000
0000
0000
0001
0000
0000
0000
0010
0000
0000
0000
0100
0000
0000
0000
0001
0000
0000
0000
0000
0000
0001
0000
0000
,
0200
0000
1000
0010
0000
0001
0000
1000
,
0300
0001
0000
1000
0000
0100
0000
0001
,
2000
0010
0000
0100
0000
0010
0020
0000
,
3030
0000
0000
0000
,
0110
0100
0001
0010
1000
0010
0001
0010
,
1000
0000
0100
0000
1000
0000
0100
0000
0010
0100
0010
0000
1000
0000
0001
0000
,
1000
0010
0100
0001
0100
0010
1000
0010
0100
0001
0010
0100
1000
0100
0010
0001
,
0100
0010
1000
0010
0100
0001
0100
0010
1000
0001
0010
0100
1000
0100
0010
0001
,
1000
0100
0010
0100
1000
0100
0001
0100
,
0010
0000
0001
0000
0010
0000
1000
0000
0010
0001
0100
0000
0010
0000
0100
0000
,
0001
0001
1000
1000
0001
1000
0001
0001
,
1000
0010
0100
0000
0010
0000
0200
0000
0000
0000
0010
0000
0310
0000
0000
0000
,
0110
0010
1000
0100
0001
0100
1000
0100
,
0001
0000
0010
0000
0001
0000
0010
0000
0100
0010
0100
0000
0001
0000
1000
0000
,
0001
0100
0010
1000
0010
0100
0001
0100
0010
1000
0100
0010
0001
0010
0100
1000
,
0010
0100
0001
0100
0010
1000
0010
0100
0001
1000
0100
0010
0001
0010
0100
1000
,
0001
0010
0100
0010
0001
0010
1000
0010
,
0100
0000
1000
0000
0100
0000
0001
0000
0100
1000
0010
0000
0100
0000
0010
0000
,
1000
1000
0001
0001
1000
0001
1000
1000
,
0110
0110
0101
0101
1010
1001
0101
0000
,
2100
3010
0102
0013
,
2100
3010
0102
0013
,
2100
0000
0000
0000
0000
0000
3001
0000
0000
0000
0000
0000
0102
0000
0000
0100
0000
0000
0003
0100
0000
0000
0000
0100
,
0020
0000
0000
0000
0000
0000
1000
0000
0000
0000
0000
0000
0030
0000
1000
0000
0000
0000
0000
0000
0000
0000
1000
0000
0001
0000
0000
0010
0000
0000
0001
0000
0000
0010
0000
0000
0001
0000
0000
0010
0000
0000
0001
0000
0000
0010
0000
0000
,
2100
3010
0102
0013
,
2100
3010
0102
0013
,
2100
0000
3001
0000
0102
0100
1003
0000
,
0010
0000
0010
0000
0100
0000
0100
0000
0001
1000
0001
1000
0001
1000
0001
1000
,
0010
0000
0100
0000
0010
0100
0010
0000
1000
0001
1000
0001
1000
0000
0010
0000
,
0100
0010
0100
0000
0010
0000
1000
0100
1000
0000
0001
0100
0001
0000
0010
0000
,
0001
1000
0010
1000
0001
0000
1000
0010
0100
0010
1000
0000
0001
0000
0100
0010
,
1000
0000
0001
0100
0010
0000
1000
0001
1000
0010
0100
1000
0100
0001
0010
0000
,
0001
0001
1000
1000
0010
0010
0100
0100
,
1001
1001
0101
0101
0110
1010
1001
0101
,
1000
0100
0010
0001
0001
0010
0100
1000
,
0001
0100
0010
0100
0010
1000
0100
0010
0100
1000
0100
1000
0010
0001
0010
1000
,
0200
0000
0000
1000
0000
0000
0000
2300
,
0000
0000
0000
0001
0000
0000
3020
0000
,
0230
0000
0000
0001
0000
0000
0000
0320
,
0000
0000
0000
0100
0000
0000
1030
0000
,
2000
0000
0000
0010
0000
0000
0000
3002
,
0000
0000
0000
0100
0000
0000
0200
0000
,
0303
0000
0000
0000
,
0010
0100
0010
0100
0010
0100
0010
0100
0010
0100
0010
0100
0010
0100
0010
0100
,
0001
0100
0010
0100
0010
0100
0010
0100
0001
0100
0010
0100
0010
0100
0010
0100
,
0001
0100
0010
0100
0001
1000
0010
0100
0010
1000
0010
0100
0010
0100
0010
0100
,
0001
0100
0010
1000
0010
0100
0001
1000
0010
0100
0001
1000
0010
0100
0001
0100
,
0020
0000
0030
0000
;

//---------------dance-double - ----------------
#NOTEDATA:;
#CHARTNAME:;
#STEPSTYPE:dance-double;
#DESCRIPTION:;
#CHARTSTYLE:;
#DIFFICULTY:Challenge;
#METER:19;
#RADARVALUES:0.947475,1.606303,0.411127,0.659354,0.457669,855.000000,802.000000,53.000000,85.000000,0.000000,0.000000,0.000000,0.000000,0.000000,0.947475,1.606303,0.411127,0.659354,0.457669,855.000000,802.000000,53.000000,85.000000,0.000000,0.000000,0.000000,0.000000,0.000000;
#CREDIT:;
#NOTES:
00000000
00000000
00000000
00000000
,
00000000
00000000
00000000
00000000
,
00000000
00000000
00000000
00000000
,
00000000
00000000
00000000
00000000
,
00000000
00000000
00000000
00000000
,
00000000
00000000
00000000
00000000
,
00000000
00000000
00000000
00000000
,
00000020
00000000
00000000
00000000
,
00001030
00001000
00000001
00000001
00000010
00000010
00000100
00000100
,
00001000
00000000
00000010
00000000
00000100
00001000
00010000
00000100
,
00000000
00010000
00000000
00100000
00010000
00000000
00001000
00000000
,
00100000
00000000
00010000
00000000
01000000
00010000
00100000
00001000
,
00000000
00010000
00000000
10000000
01000000
00000000
00010000
00000000
,
00001000
00000000
00000100
00000000
00000010
00000001
00000010
00001000
,
00000000
00000010
00000000
00001000
00010000
00000000
00000100
00000000
,
00020000
00001000
00000000
00001000
00030200
00001000
00000000
00001000
,
00010300
00010000
00100000
00100000
10000000
10000000
00010000
00010000
,
10010000
00000000
10000000
00100000
01010000
00000000
00100000
00000000
,
00011000
00000000
00000100
00010000
00001010
00000000
00000001
00000000
,
00000101
00000000
00000010
00000100
00001010
00000000
00000100
00000000
,
00011000
00000000
00100000
00001000
01010000
00000000
10000000
00000000
,
12000000
00000000
00100000
00000000
03010000
00020000
00000000
00001000
,
00000000
00032000
00000000
00000010
00003200
00000000
00020300
00000000
,
00032000
00010000
00000000
00010000
00203000
00010000
00000000
00010000
,
00301000
00001000
00000100
00000100
00000001
00000001
00001000
00001000
,
00001001
00000010
00000100
00000010
00000000
00010000
00001000
00010000
,
00000000
00000010
00000100
00000020
00000000
00001000
00001030
00000000
,
00010000
00001000
00010000
00100000
00000000
01000000
00100000
01000000
,
00000000
00001000
00010000
00002000
00000000
01000000
01003000
00000000
,
00010200
00000000
00020300
00000000
00030010
00020000
00000000
00030100
,
00020000
00000000
00031000
00020000
00000000
01030000
00010000
00000000
,
00100000
01000000
00010000
10000000
00100000
01000000
00010000
10000000
00100000
00000000
00010000
00000000
00001000
00000000
00000100
00000000
,
00000001
00000010
00000100
00001000
00000001
00000010
00000100
00001000
00000100
00000000
00001000
00000000
00010000
00000000
01000000
00000000
,
01200000
00000000
02300000
00000000
03010000
02000000
00000000
03001000
,
02000000
00000000
03010000
02000000
00000000
13000000
01000000
00000000
,
00010000
00002000
00000000
00000100
00000000
00000100
00000000
00003100
,
00000010
00000001
00000100
00000000
00000010
00000000
00000200
00000000
00000000
00000000
00000010
00000000
00000310
00000000
00000000
00000000
,
00001002
00000000
00002003
00000000
00003001
00002000
00000000
00003010
,
00002000
00000000
00003100
00002000
00000000
00013000
00001000
00000000
,
00010000
00100000
01000000
10000000
00010000
00100000
01000000
10000000
00100000
00000000
00010000
00000000
00001000
00000000
00000100
00000000
,
00000010
00000100
00000001
00001000
00000010
00000100
00000001
00001000
00000100
00000000
00001000
00000000
00010000
00000000
01000000
00000000
,
02100000
00000000
03020000
00000000
10030000
00020000
00000000
00130000
,
00110000
00010000
00011000
00001000
00001100
00000100
00000110
00000010
,
00001001
00000001
00000010
00000100
00000000
00000000
00010100
00000100
,
00001000
00010000
00000000
00000000
01010000
00010000
00100000
01000000
,
00000000
00000000
11000000
01000000
10000000
10000000
00100000
00100000
,
00001000
00001000
00000010
00000010
00000101
00000001
00000010
00000100
,
00000000
00000000
00001100
00000100
00001000
00010000
00000000
00000000
,
01010000
00010000
00100000
01000000
00000000
00000000
11000000
01000000
,
10000000
00100000
10000000
00100000
10000000
00010000
10000000
00100000
01000000
00010000
01000000
00010000
00100000
00001000
00010000
00001000
,
00020000
00000000
00130000
00020000
00001000
00030000
00020000
00000000
,
00031000
00020000
00100000
00030000
00020000
00000000
00130000
00020000
,
00001000
00030000
00012000
00000000
00013000
00002000
00000100
00003000
,
00000210
00000000
00000302
00000000
00000023
00000000
00000031
00000020
,
00000100
00000030
00000020
00000000
00000130
00000020
00000001
00000030
,
00000020
00000000
00000031
00000020
00000100
00000030
00001200
00000000
,
00001300
00000200
00000010
00000300
00000010
00000010
00000100
00000100
,
00001000
00010000
00100000
01000000
00010000
00100000
01000000
10000000
,
01000000
00100000
00010000
00001000
00100000
00010000
00001000
00000100
,
00010000
00001000
00000100
00000010
00000100
00001000
00010000
00100000
,
00001000
00010000
00100000
01000000
10000000
10000000
01000000
01000000
,
00100000
00100000
00010000
00010000
00001000
00001000
00000100
00000100
,
00000010
00000010
00000001
00000001
00000010
00000010
00010000
00010000
,
00100000
00100000
00001000
00001000
00000110
00000100
00001001
00000001
,
00000000
00000000
00000000
00000000
,
00000000
00000000
00000000
00000000
,
00000120
00000000
00000100
00000100
00000000
00000100
00000000
00001000
,
00000030
00000100
00000000
00000001
00000000
00000010
00000000
00000100
,
00002000
00000000
00000000
00000010
00000000
00000000
00000000
00000000
00000000
00000010
00000000
00000000
00000000
00000000
00000000
00000001
00000000
00000000
00000000
00000001
00000000
00000000
00000000
00000001
,
00003000
00000000
00000000
00000010
00000000
00000000
00000000
00000010
00000000
00000000
00000000
00000010
00000000
00000000
00000000
00000100
00000000
00000000
00000000
00000000
00000000
00010000
00000000
00000000
,
00000200
00000000
00010000
00010000
00000000
00001000
00000000
00001000
,
00000300
00010000
00000000
00100000
00000000
01000000
00000000
00010000
,
00020000
00100000
00000000
01000000
00000000
10000000
20000000
00000000
,
30030000
00000000
00000000
00000000
,
02100000
00000000
00100000
00100000
00000000
00100000
00000000
00010000
,
03000000
00100000
00000000
10000000
00000000
01000000
00000000
00100000
,
00020000
00000000
00000000
01000000
00000000
00000000
00000000
00000000
00000000
01000000
00000000
00000000
00000000
00000000
00000000
10000000
00000000
00000000
00000000
10000000
00000000
00000000
00000000
10000000
,
00030000
00000000
00000000
01000000
00000000
00000000
00000000
01000000
00000000
00000000
00000000
01000000
00000000
00000000
00000000
00100000
00000000
00000000
00000000
00000000
00000000
00001000
00000000
00000000
,
00200000
00000000
00001000
00001000
00000000
00010000
00000000
00010000
,
00300000
00001000
00000000
00000100
00000000
00000010
00000000
00001000
,
00002000
00000100
00000000
00000010
00000000
00000001
00000002
00000000
,
00003003
00000000
00000000
00000000
,
00001001
00000000
00000000
00000001
00000010
00000100
00001000
00010000
,
00000000
00000000
10000000
00000000
01000000
00000000
00100000
00000000
00010000
00100000
00010000
00000000
00100000
00000000
01000000
00000000
,
10000000
00100000
01000000
00010000
00100000
01000000
10000000
01000000
00100000
00010000
00100000
00010000
00100000
00001000
00100000
00001000
,
00010000
00001000
00000100
00000010
00001000
00000100
00000010
00000001
00000010
00000100
00001000
00000010
00001000
00000010
00000100
00000010
,
00000200
00000000
00000000
00000310
00001000
00000001
00000100
00000010
,
00000000
00000000
00000100
00000000
00001000
00000000
00010000
00000000
00100000
01000000
00100000
00000000
10000000
00000000
00010000
00000000
,
02000000
00100000
00000000
00100000
03002000
00100000
00000000
00100000
,
10003000
00010000
10000000
00000000
00010000
00000000
00200000
00000000
00000000
00000000
01000000
00000000
01300000
00000000
00000000
00000000
,
10010000
00000000
00000000
10000000
01000000
00100000
00010000
00001000
,
00000000
00000000
00000001
00000000
00000010
00000000
00000100
00000000
00001000
00000100
00001000
00000000
00000100
00000000
00000010
00000000
,
00000001
00000100
00000010
00001000
00000100
00000010
00000001
00000010
00000100
00001000
00000100
00001000
00000100
00010000
00000100
00010000
,
00001000
00010000
00100000
01000000
00010000
00100000
01000000
10000000
01000000
00100000
00010000
01000000
00010000
01000000
00100000
01000000
,
00200000
00000000
00000000
01300000
00010000
10000000
00100000
01000000
,
00000000
00000000
00100000
00000000
00010000
00000000
00001000
00000000
00000100
00000010
00000100
00000000
00000001
00000000
00001000
00000000
,
00000020
00000100
00000000
00000100
00020030
00000100
00000000
00000100
,
00030010
00000010
00001000
00001000
00100000
00100000
10000000
00000000
,
10200000
10300000
00210000
00310000
,
00012000
00013000
00002100
00003100
,
00000120
00000000
00000000
00000000
00000000
00000000
00000130
00000000
00000000
00000000
00000000
00000000
00000201
00000000
00000000
00000010
00000000
00000000
00000300
00000010
00000000
00000000
00000000
00000010
,
00002000
00000000
00000000
00000000
00000000
00000000
00000001
00000000
00000000
00000000
00000000
00000000
00003000
00000000
00000001
00000000
00000000
00000000
00000000
00000000
00000000
00000000
00000001
00000000
00001000
00000000
00000000
00000010
00000000
00000000
00001000
00000000
00000000
00000010
00000000
00000000
00001000
00000000
00000000
00000010
00000000
00000000
00001000
00000000
00000000
00000010
00000000
00000000
,
00002010
00003100
00010200
00010300
,
00210000
00310000
01200000
01300000
,
21000000
31000000
01020000
01030000
,
00100000
00000000
00100000
00000000
01000000
00000000
01000000
00000000
00001000
00010000
00001000
00010000
00001000
00010000
00001000
00010000
,
00001000
00000100
00000010
00000001
00001000
00000100
00000001
00000010
,
00001000
01000000
10000000
00010000
00100000
00010000
00000100
00000010
,
00000100
00010000
01000000
10000000
01000000
00010000
00001000
00010000
,
00000100
00000010
00000100
00001000
00100000
01000000
00100000
00010000
,
00000100
00000100
00000010
00000010
00001000
00001000
01000000
01000000
,
00100000
00100000
00010000
00010000
00000100
00000100
00000010
00000010
,
00000101
00000001
00001100
00000100
00011000
00010000
01001000
00001000
,
00100000
00001000
00100000
00001000
00100000
00001000
00100000
00001000
00010000
00000000
00001000
00000000
00000100
00000000
00000001
00000000
,
00001001
00000010
00000100
00000010
00000000
00010000
00001000
00010000
,
00000000
00000010
00000100
00000020
00000000
00001000
00001030
00000000
,
00010000
00001000
00010000
00100000
00000000
01000000
00100000
01000000
,
00000000
00001000
00010000
00002000
00000000
01000000
01003000
00000000
,
10010000
01000000
00100000
01000000
00000000
00001000
00010000
00001000
,
00000000
01000000
00100000
02000000
00000000
00010000
00020000
00000000
,
03030000
00000000
00000000
00000000
,
00001000
00010000
00001000
00010000
00001000
00010000
00001000
00010000
00001000
00010000
00001000
00010000
00001000
00010000
00001000
00010000
,
00000100
00010000
00001000
00010000
00001000
00010000
00001000
00010000
00000100
00010000
00001000
00010000
00001000
00010000
00001000
00010000
,
00000100
00010000
00001000
00010000
00000100
00010000
00001000
00010000
00001000
00010000
00001000
00010000
00001000
00010000
00001000
00010000
,
00000100
00010000
00001000
01000000
00001000
00010000
00001000
01000000
00001000
00010000
00001000
01000000
00001000
00010000
00000100
00010000
,
00002000
00000000
00003000
00000000
;
