#VERSION:0.83;
#TITLE:Xperanza;
#SUBTITLE:;
#ARTIST:aran;
#TITLETRANSLIT:;
#SUBTITLETRANSLIT:;
#ARTISTTRANSLIT:;
#GENRE:;
#ORIGIN:;
#CREDIT:;
#BANNER:Xperanza-bn.png;
#BACKGROUND:Xperanza-bg.png;
#PREVIEWVID:;
#JACKET:Xperanza-jacket.png;
#CDIMAGE:;
#DISCIMAGE:;
#LYRICSPATH:;
#CDTITLE:;
#MUSIC:Xperanza.mp3;
#OFFSET:1.662001;
#SAMPLESTART:71.502029;
#SAMPLELENGTH:15.000000;
#SELECTABLE:YES;
#BPMS:0.000=200.000,
184.000=100.000,
192.000=200.000;
#STOPS:332.000=0.075,
332.500=0.075,
333.000=0.075,
333.500=0.075;
#DELAYS:;
#WARPS:;
#TIMESIGNATURES:0.000=4=4;
#TICKCOUNTS:0.000=4;
#COMBOS:0.000=1;
#SPEEDS:0.000=1.000=0.000=0;
#SCROLLS:0.000=1.000;
#FAKES:;
#LABELS:0.000=Song Start;
#BGCHANGES:2.000=Xperanza.avi=1.000=1=0=0=StretchNoLoop==CrossFade==,
99999=-nosongbg-=1.000=0=0=0 // don't automatically add -songbackground-
;
#KEYSOUNDS:;
#ATTACKS:
;

//---------------dance-single - ----------------
#NOTEDATA:;
#CHARTNAME:;
#STEPSTYPE:dance-single;
#DESCRIPTION:;
#CHARTSTYLE:;
#DIFFICULTY:Beginner;
#METER:2;
#RADARVALUES:0.143884,0.245042,0.065508,0.040943,0.000000,123.000000,115.000000,8.000000,5.000000,0.000000,0.000000,0.000000,0.000000,0.000000,0.143884,0.245042,0.065508,0.040943,0.000000,123.000000,115.000000,8.000000,5.000000,0.000000,0.000000,0.000000,0.000000,0.000000;
#CREDIT:;
#NOTES:
0000
0000
0000
0000
,
0000
0000
0000
0000
,
1000
0000
0000
0000
,
0000
0000
0000
0000
,
0001
0000
0000
0000
,
0000
0000
0000
0000
,
0100
0000
0000
0000
,
0000
0000
0000
0000
,
0010
0000
0000
0000
,
0000
0000
0000
0000
,
1000
0000
0000
0000
,
1000
0000
0000
0000
,
0001
0000
0000
0000
,
0001
0000
0000
0000
,
0100
0000
0000
0000
,
0100
0000
0000
0000
,
0010
0000
0010
0000
,
0020
0000
0030
0000
,
0100
0000
0000
0000
,
0100
0000
0000
0000
,
0001
0000
0000
0000
,
0100
0000
0000
0000
,
0001
0000
0000
0000
,
0001
0000
0001
0000
,
0001
0000
0000
0000
,
1000
0000
1000
0000
,
1000
0000
0000
0000
,
0100
0000
0100
0000
,
0100
0000
0000
0000
,
0010
0000
0000
0000
,
1001
0000
0000
0000
,
0001
0000
0000
0000
,
1000
0000
0000
0000
,
0001
0000
0000
0000
,
0100
0000
0000
0000
,
0100
0000
0100
0000
,
0100
0000
0000
0000
,
0010
0000
0000
0000
,
1001
0000
0000
0000
,
0100
0000
0000
0000
,
1000
0000
0000
0000
,
1000
0000
0000
0000
,
0001
0000
0000
0000
,
0001
0000
0000
0000
,
0100
0000
0000
0000
,
0100
0000
0000
0000
,
0002
0000
0000
0000
,
0003
0000
0000
0000
,
1000
0000
1000
0000
,
1000
0000
1000
0000
,
1000
0000
0000
0000
,
0001
0000
0000
0000
,
1000
0000
0000
0000
,
1000
0000
0000
0000
,
1000
0000
0010
0000
,
0010
0000
0000
0000
,
1001
0000
0000
0000
,
1001
0000
0000
0000
,
1001
0000
0000
0000
,
0200
0000
0300
0000
,
0001
0000
0000
0000
,
0001
0000
0000
0000
,
0001
0000
0000
0000
,
1000
0000
1000
0000
,
0100
0000
0000
0000
,
0100
0000
0000
0000
,
0100
0000
0000
0000
,
0010
0000
0010
0000
,
0100
0000
0000
0000
,
1000
0000
0000
0000
,
1000
0000
0000
0000
,
0001
0000
0000
0000
,
1001
0000
0000
0000
,
1001
0000
0000
0000
,
0010
0000
0000
0000
,
0100
0000
0010
0000
,
0010
0000
0000
0000
,
0000
0000
0000
0000
,
1000
0000
0000
0000
,
0000
0000
0000
0000
,
1001
0000
0000
0000
,
0001
0000
0000
0000
,
0100
0000
0010
0000
,
0200
0000
0300
0000
,
0000
0010
0000
0010
,
0000
1000
0000
0001
,
0000
0001
0000
0001
,
0000
0000
0000
1000
,
0000
1000
0000
0100
,
0000
0100
0000
1000
,
0000
1000
0000
0010
,
0000
0000
0000
0100
,
0000
0100
0000
0100
,
0000
0010
0000
0100
,
0000
0100
0000
0010
,
0000
0000
0000
1000
,
0000
0001
0000
0001
,
0000
1000
0000
0001
,
0000
0100
0000
0100
,
0000
0020
0000
0030
;

//---------------dance-single - ----------------
#NOTEDATA:;
#CHARTNAME:;
#STEPSTYPE:dance-single;
#DESCRIPTION:;
#CHARTSTYLE:;
#DIFFICULTY:Easy;
#METER:7;
#RADARVALUES:0.329881,0.408403,0.253844,0.122828,0.000000,282.000000,251.000000,31.000000,15.000000,0.000000,0.000000,0.000000,0.000000,0.000000,0.329881,0.408403,0.253844,0.122828,0.000000,282.000000,251.000000,31.000000,15.000000,0.000000,0.000000,0.000000,0.000000,0.000000;
#CREDIT:;
#NOTES:
0000
0000
0000
0000
,
0000
0000
0000
0000
,
1000
0000
0000
0000
,
1000
0000
0000
0000
,
0001
0000
0000
0000
,
0001
0000
0000
0000
,
0100
0100
0000
0000
,
0010
0000
0000
0000
,
0001
0001
0000
0000
,
2000
0000
0000
3001
,
1001
0000
0000
0000
,
0001
0000
0000
0000
,
0110
0000
0000
0000
,
0100
0000
0000
0000
,
0101
0000
1001
0000
,
1100
0000
1001
0000
,
0001
1000
0001
1000
,
0020
0000
0130
0000
,
0001
0000
0001
0000
,
0001
0000
0001
0000
,
1000
0000
0001
0000
,
0100
0100
0100
0000
,
1001
0000
0001
0000
,
0001
0001
1001
0000
,
1000
0000
1000
0000
,
0010
0010
1010
0000
,
0001
0000
0010
0000
,
0001
0001
0101
0000
,
1000
0100
1000
0100
,
0001
0000
0001
0000
,
1002
0000
0103
0000
,
1000
0000
0100
0000
,
0001
0000
0100
0000
,
1000
0100
0001
0000
,
0101
0000
1100
0000
,
1001
0000
0110
0000
,
0010
0100
0010
0000
,
1000
0001
1000
0000
,
0200
0000
0000
0000
,
0320
0000
0001
0000
,
0031
0000
1000
0000
,
0001
1000
0001
0000
,
2000
0000
0010
0000
,
3002
0000
0100
0000
,
0103
0001
0100
0000
,
0100
1000
0100
0000
,
1002
0000
0000
0000
,
2003
0000
0000
3000
,
1100
0000
1001
0000
,
0101
0000
0011
0000
,
0001
1000
0100
1000
,
0010
0000
0110
0000
,
0001
0100
0001
0001
,
0000
1000
0000
1000
,
0010
0100
0010
0010
,
0100
0000
1001
0000
,
0010
0000
1000
0000
,
0100
0000
0001
0000
,
0010
1000
0100
0001
,
0020
0000
0130
0000
,
0001
0100
0001
0100
,
1000
0100
1000
0100
,
0001
0100
0001
0001
,
1000
0000
0001
0000
,
0001
0010
0001
0010
,
1000
0010
1000
0010
,
0001
0010
0100
0010
,
0001
0001
1000
0000
,
1000
0010
0100
0000
,
0010
1000
0100
0100
,
0010
0001
0100
0000
,
0001
0010
0100
0100
,
1001
0000
0110
0000
,
0010
0100
1001
0000
,
0001
1000
0100
0100
,
0001
0100
0020
0000
,
0130
0000
0000
0000
,
0100
0000
0000
0000
,
0010
0000
0000
0000
,
0010
0000
0000
0000
,
1001
0000
0101
0000
,
1001
0000
1100
0000
,
0001
0010
0100
1000
,
2002
0000
3003
1000
,
0010
1000
0100
1000
,
0001
1000
0100
0001
,
0100
0001
0010
0001
,
1000
0001
0100
0020
,
0000
0130
0001
0100
,
0010
1000
0000
0100
,
0001
0100
1000
0100
,
0001
0100
0000
0010
,
1000
0100
0010
0001
,
0100
0010
0010
1000
,
0001
0100
0100
0001
,
1000
0000
0110
0001
,
0100
0010
0010
0000
,
0010
0000
0010
1000
,
0100
0010
0001
1000
,
0010
0200
0000
0000
0000
0000
0300
0000
;

//---------------dance-single - ----------------
#NOTEDATA:;
#CHARTNAME:;
#STEPSTYPE:dance-single;
#DESCRIPTION:;
#CHARTSTYLE:;
#DIFFICULTY:Medium;
#METER:12;
#RADARVALUES:0.579046,0.694285,0.433992,0.163771,0.000000,495.000000,442.000000,53.000000,20.000000,0.000000,0.000000,0.000000,0.000000,0.000000,0.579046,0.694285,0.433992,0.163771,0.000000,495.000000,442.000000,53.000000,20.000000,0.000000,0.000000,0.000000,0.000000,0.000000;
#CREDIT:;
#NOTES:
0000
0000
0000
0000
,
0000
0000
0000
0000
,
0020
0000
0000
0000
,
0230
0000
0000
0000
,
0302
0000
0000
0000
,
2003
0000
0000
0000
,
3001
0000
0001
0000
0000
1000
0000
1000
,
0000
0010
0000
0010
0000
0000
0000
0000
,
0001
0100
1000
0100
,
0001
0001
1000
0000
,
1001
0000
0001
0000
,
1000
0000
0000
0100
,
0110
0000
0001
0000
,
1000
0000
1000
0010
,
0110
0000
0011
0000
,
1100
0000
0101
0000
,
0001
0010
0100
1000
,
0001
0000
0100
0000
0010
0100
0010
0000
,
1001
0000
1100
0000
,
0110
0000
0011
0000
,
1001
0100
0010
0001
,
0100
0000
0010
0000
1000
0000
0100
0010
,
0001
0000
0101
0000
0001
1000
0100
0000
,
1000
1000
0100
0000
1000
0000
0010
0000
,
1001
0100
0010
0001
,
0100
0100
1000
0000
0100
0100
0001
0000
,
1001
0000
0001
0000
0010
0010
0100
0000
,
0010
1000
0010
0000
0100
0000
0010
0000
,
1001
0100
0101
1000
,
0001
0010
1100
0001
,
0100
0010
0100
0010
1000
0000
0010
0000
,
0100
0001
0100
0000
0010
0100
0010
0000
,
1000
0100
0010
0000
0100
0010
0100
0000
,
0000
0001
1000
0000
1100
0000
0101
0000
,
0001
0100
0001
0000
1100
0000
1001
0000
,
0001
0010
0001
0000
1100
0000
0001
0000
,
1000
0010
1000
0000
0100
0010
0100
0000
,
0010
0001
1000
0100
1000
0000
0010
0000
,
0102
0000
0010
0000
0000
2003
0000
0100
,
0000
0010
0000
3002
0000
0100
0000
0000
,
0103
0000
0100
0010
0100
0010
0000
1001
,
0000
0000
0000
0010
0000
0010
0000
0000
,
0012
0000
0100
0000
0000
2003
0000
0100
,
0000
0001
0000
3020
0000
0100
0000
0000
,
1030
0100
1000
0100
,
1000
0001
0100
1000
0100
0000
0001
0000
,
2000
0000
0000
0000
,
3020
0000
0000
0000
0230
0000
0010
0310
,
1001
0100
0101
0001
,
0011
1100
1001
0010
,
1000
0100
1000
0001
0100
0001
0100
0000
,
0010
0100
1001
0100
,
0010
0001
0010
0000
0100
1000
0100
1000
,
0000
0010
0100
0000
0001
0010
0001
0010
,
0000
0100
0001
0000
1000
0010
1000
0010
,
0000
0100
0001
0000
0120
0000
0000
0000
,
1030
0000
0100
0000
,
0001
0000
0010
0000
,
0100
1000
0001
0100
,
0010
1000
0100
0010
0001
0000
0200
0000
,
0310
1000
0010
1000
0100
1000
0100
1000
,
0010
1000
0100
1000
0001
1000
0010
1000
,
0001
0010
0001
0010
1000
0010
1000
0000
,
0011
1001
1100
1000
,
0001
0100
0001
0100
0010
0100
0010
0100
,
1000
0100
0010
0100
0001
0100
0010
0000
,
0001
0010
0001
0000
1000
0100
1000
0000
,
0010
0100
0010
0100
0001
0000
1000
0000
,
0110
0000
0011
0000
0001
1000
0100
0000
,
1000
0001
0100
0000
0001
1000
0100
0000
,
0010
0001
1000
0000
0010
1000
0100
0000
,
0010
0001
0100
0000
0010
0100
0010
0000
,
1001
0000
1100
0000
0001
0100
0001
0000
,
0011
1100
1001
0010
,
1000
0100
1000
0100
0010
0100
0010
0000
,
0001
0100
0010
0100
1000
0100
0001
0000
,
1002
0000
0000
0000
,
2003
0000
0000
0000
,
3200
0000
0010
0000
,
0302
0000
0100
0000
,
0103
0000
1000
0000
0000
0100
1000
0100
,
0000
0101
0000
0011
0000
1001
0000
0000
,
0001
0100
0010
1000
,
0001
0100
0010
1000
0001
0100
0010
0100
,
1000
0100
0001
0010
0100
0000
0001
0100
,
0010
0100
1000
0010
0100
0000
0001
1000
,
0100
0000
0001
0100
1000
0000
0001
0100
,
1000
0000
0001
0010
0100
0000
1100
0000
,
0101
0000
0000
0001
0100
0001
0000
1100
,
0000
0110
0000
1001
0000
0000
0001
1000
,
0100
0000
1000
0100
0010
0000
0001
0010
,
0100
1000
0010
0000
0110
0000
0001
0100
,
1000
0100
0010
0000
0001
0010
0100
0010
,
1000
0000
0001
0100
1000
0000
0001
0010
,
0100
0000
1000
0010
0100
0000
0001
0100
,
1000
0100
0000
0010
0000
0010
0100
0010
,
1000
0000
0100
0010
0100
0110
0000
0001
,
0000
0100
0000
0010
0000
1000
0001
0100
,
0001
0000
1000
0100
0010
0000
0001
0010
,
0100
2000
0000
0000
0000
0000
3000
0000
;

//---------------dance-single - ----------------
#NOTEDATA:;
#CHARTNAME:;
#STEPSTYPE:dance-single;
#DESCRIPTION:;
#CHARTSTYLE:;
#DIFFICULTY:Hard;
#METER:15;
#RADARVALUES:0.853947,1.021008,0.679648,0.212902,0.245656,730.000000,647.000000,83.000000,26.000000,0.000000,0.000000,0.000000,0.000000,0.000000,0.853947,1.021008,0.679648,0.212902,0.245656,730.000000,647.000000,83.000000,26.000000,0.000000,0.000000,0.000000,0.000000,0.000000;
#CREDIT:;
#NOTES:
0000
0000
0000
0000
,
0000
0000
0000
0000
,
0210
0000
0010
0000
0000
0001
0001
0302
,
0000
0010
0000
1000
0000
0100
0000
0023
,
0000
0000
0000
0000
0100
0000
0000
0230
,
0000
1000
0000
0010
0000
0010
0000
0000
,
0320
0000
0001
0000
0000
0100
0100
0100
,
0000
0032
0000
0100
0000
1000
0000
0000
,
0023
0000
0032
0000
,
0203
1300
0020
0000
,
0130
0000
1000
0000
0000
1000
0100
0100
,
0000
0010
0000
0100
0000
0010
0000
0100
,
1001
0000
1000
0100
1000
0100
0000
0001
,
0000
0100
0000
0001
0000
0001
0010
0000
,
1001
0001
0100
0001
0110
1000
0100
1000
,
0110
0010
0100
0001
1100
0010
0001
0100
,
1000
0100
0001
0100
0010
1000
0100
0010
,
0001
0010
0100
1000
0010
0100
0001
0100
,
0110
0000
1000
0100
0110
0000
0001
1000
,
1010
0000
0100
0010
0011
0000
0001
1000
,
1100
0101
0011
1100
,
0001
0100
0001
0100
1001
0000
0110
0000
,
1001
0000
0001
0100
0001
0000
0010
0000
,
0100
0001
0100
0010
0100
0000
1000
0000
,
0110
0101
0010
0100
,
1000
0100
0001
0010
0100
0000
0010
0000
,
1001
1100
1001
0001
,
0001
0100
0001
1000
0001
0000
1000
0000
,
0010
0100
1000
0000
0001
0010
1000
0100
,
0000
0000
0010
0000
0100
0000
1000
0000
0100
0000
0010
0000
0001
0000
1000
0001
,
0020
0000
0001
0000
1030
0000
0100
0010
,
0001
0000
0200
0000
1300
0000
0001
0010
,
0100
0000
1100
0000
0101
0000
0010
0100
,
1000
0000
0001
1000
0100
0000
0000
0000
0010
0000
0001
0000
0010
0000
0100
0000
,
1001
0001
0011
0000
1100
0100
0011
1000
,
1010
0000
0110
1000
1100
0001
0101
0000
,
0001
0010
0100
1000
0001
0100
1000
0100
,
0001
0000
1000
0000
0010
0000
1000
0000
0100
0000
0010
0000
0001
1000
0100
1000
,
0100
0000
0100
0000
0000
0100
0100
0010
,
0000
0110
0000
1001
0000
0010
0000
1000
,
0100
0000
0001
0100
0001
0100
0000
0010
,
0000
0010
0000
1010
0000
0101
0000
0000
,
0011
0000
1100
0000
0100
0100
0010
0100
,
0000
1100
0000
0101
0000
1100
0000
0000
,
0001
0010
0001
0000
1000
0010
1000
0001
,
0000
0000
0001
0000
0001
0000
0100
0000
0010
0000
0010
0000
1000
0000
0100
0010
,
0002
0000
0023
0000
,
0230
0000
0000
0000
0000
0000
0000
0000
0000
0000
0000
0000
0000
0000
0000
0000
2300
0000
0000
0000
0000
0000
0000
0000
3001
0000
0000
0001
1000
0000
0000
0001
,
1000
0100
1000
0000
1000
0100
1000
0000
,
1000
0001
1000
0000
1000
0001
0001
0000
,
0001
0010
0001
0000
0001
0100
0001
0000
,
0001
0010
0100
0000
1000
0100
0001
0000
,
0100
0010
0100
0010
0001
0100
0010
0110
,
0000
1000
0100
0001
0100
0010
0100
1100
,
0001
0010
0001
0100
1000
0100
0001
0010
,
0001
0000
0000
0010
0000
0000
0100
0000
0000
1000
0000
0000
0001
0000
0010
0000
1000
0000
0010
0000
0001
0000
0100
0000
,
0010
0001
0101
0010
,
1100
0010
0101
0010
,
1001
0100
0110
1001
,
0110
0000
0000
0000
0010
0000
0010
0000
2000
0000
0000
0000
3001
0100
0010
0100
,
0001
0000
0010
0000
0100
0000
0100
1000
0100
0000
0010
0000
0001
0000
0001
0100
,
0001
0000
0010
0000
0100
0000
0100
1000
0100
0000
0010
0000
0001
0000
0001
1000
,
0001
0000
1000
0000
1000
0000
0001
1000
0001
0000
0100
0000
0010
0000
0000
0000
,
0010
0000
0000
1000
0001
0000
0001
0010
0100
0000
1000
0000
0010
0000
0100
0001
,
0010
0000
0010
0000
0100
0000
0100
1000
0010
0000
0010
0000
0100
0000
0100
0001
,
0010
0000
0010
0000
0100
0000
1000
0010
0001
0000
0001
0000
0010
0000
0010
1000
,
0100
0000
0100
0000
0010
0000
0001
0010
1000
0000
0010
0000
1001
0000
0000
0000
,
1001
0000
0000
0001
0100
0000
0010
0000
0100
0000
0000
0000
0001
0000
0020
0000
,
0130
0000
0100
0000
0010
0000
0001
0100
0010
0000
0010
0000
1000
0000
0100
0010
,
0001
0000
0001
0000
1000
0000
0010
0100
1000
0000
1000
0000
0100
0000
0001
0010
,
0100
0000
0100
0000
1000
0000
0100
0010
0001
0000
0001
0000
1000
0000
1000
0010
,
0100
0000
0010
0000
0100
0000
0000
0000
1001
0000
0100
0010
0100
0000
0100
0010
,
0100
0000
0001
1000
0100
0000
0100
0000
0010
0000
0010
0000
1001
0000
0001
1000
,
0100
0000
1001
0000
0001
0000
1000
0001
0100
0000
0010
0000
0110
0000
0100
0000
,
0001
0100
0001
0000
1000
0000
0010
0000
0100
0010
0100
0000
0001
0000
0010
0000
,
0100
0010
0100
0010
0001
1000
0010
0100
0001
0010
0100
1000
,
0020
0000
0100
0000
0000
0100
0100
0100
,
0000
2030
0000
0010
0000
3200
0000
2300
,
0000
0000
3001
1000
0010
0200
0000
0301
,
0000
0000
0000
0100
0000
0100
0000
0001
,
1001
1000
0100
1000
1001
0001
0100
0001
,
1001
1000
0010
1000
1001
0001
0010
0001
,
1001
0000
1001
0000
0110
0000
0010
0010
,
1100
0110
0011
1001
0110
0010
1000
0100
,
0010
0001
0010
0000
0100
0000
1000
0000
0010
1000
0010
0000
0100
0000
0001
0000
,
0100
0001
0100
0000
1000
0000
0100
0000
0001
0100
0001
0000
0010
0000
0100
0000
,
1000
0100
1000
0000
0010
0000
0100
0000
0010
0100
0010
0000
0100
0000
0001
0000
,
0010
0001
0010
0000
0100
0000
1000
0000
1001
0000
0000
0000
0010
0000
1000
0000
,
0100
0010
0100
0000
0010
0000
0001
0000
0100
0010
0100
0000
0010
0000
0100
0000
,
0010
1000
0100
0000
0010
0000
0100
0000
0010
0001
0100
0000
0010
0000
1000
0000
,
0100
0010
0001
1000
0001
1000
0100
1000
,
0001
0100
0001
1000
0100
0010
1001
0000
,
0001
0100
1100
0000
0001
0010
1010
0001
,
1000
0010
1010
0000
0100
0010
0101
0000
,
0010
1000
1100
0000
0011
0000
0101
0100
,
1100
0000
0000
0000
0101
0000
0000
0001
1000
0000
1000
0000
0110
0000
0000
0000
,
0010
1000
0110
0100
0001
1001
0000
1000
,
0100
1000
0000
0001
0100
0001
0010
0010
,
0100
1000
0010
0010
0100
0002
0000
0013
,
0100
2002
0000
0000
0000
0000
3003
0000
;

//---------------dance-double - ----------------
#NOTEDATA:;
#CHARTNAME:;
#STEPSTYPE:dance-double;
#DESCRIPTION:;
#CHARTSTYLE:;
#DIFFICULTY:Easy;
#METER:7;
#RADARVALUES:0.338069,0.368484,0.253844,0.147394,0.000000,289.000000,258.000000,31.000000,18.000000,0.000000,0.000000,0.000000,0.000000,0.000000,0.338069,0.368484,0.253844,0.147394,0.000000,289.000000,258.000000,31.000000,18.000000,0.000000,0.000000,0.000000,0.000000,0.000000;
#CREDIT:;
#NOTES:
// measure 0
00000000
00000000
00000000
00000000
,  // measure 1
00000000
00000000
00000000
00000000
,  // measure 2
00000002
00000000
00000000
00000000
,  // measure 3
00002003
00000000
00000000
00000000
,  // measure 4
00003200
00000000
00000000
00000000
,  // measure 5
00020300
00000000
00000000
00000000
,  // measure 6
00031000
00001000
00000000
00000000
,  // measure 7
00100000
00100000
00000000
00000000
,  // measure 8
01000000
01000000
00000000
00000000
,  // measure 9
10000000
00010000
00000000
10010000
,  // measure 10
00010000
00010000
00000000
01000000
,  // measure 11
00000000
00100000
00000000
00010000
,  // measure 12
00011000
00000100
00000000
00000001
,  // measure 13
00000000
00000100
00000000
00000010
,  // measure 14
00001010
00000000
00101000
00000000
,  // measure 15
01010000
00000000
11000000
00000000
,  // measure 16
10000000
00100000
10000000
00100000
,  // measure 17
01000000
00010000
00200000
00000000
,  // measure 18
01300000
00000000
01000000
00000000
,  // measure 19
01000000
00000000
01000000
00000000
,  // measure 20
01100000
00000000
10010000
00000000
,  // measure 21
01100000
00000000
01010000
00000000
,  // measure 22
00010000
00100000
00010000
00000000
,  // measure 23
00002000
00000000
00003100
00000000
,  // measure 24
00000010
00000001
00000010
00000000
,  // measure 25
00000200
00000000
00010300
00000000
,  // measure 26
00010000
00001000
00010000
00000000
,  // measure 27
00200000
00000000
01300000
00000000
,  // measure 28
10010000
00000000
01010000
00000000
,  // measure 29
00001000
00010000
00000100
00000100
,  // measure 30
00000020
00000000
00000031
00000000
,  // measure 31
00001000
00000000
00000001
00001000
,  // measure 32
00000100
00000000
00000100
00000000
,  // measure 33
00010000
00000000
00001000
00001000
,  // measure 34
01000000
01000000
00100000
00100000
,  // measure 35
10000000
00010000
00100000
00000000
,  // measure 36
00001100
00000000
00000011
00000000
,  // measure 37
00001001
00000000
00000110
00000000
,  // measure 38
00000010
00000010
00000000
00001000
,  // measure 39
00001000
00000000
00010000
00000000
,  // measure 40
10000000
00100000
10000000
00000000
,  // measure 41
00010000
01000000
00010000
00000000
,  // measure 42
00001000
00000000
00001000
00000000
,  // measure 43
00000001
00000000
00000001
00000000
,  // measure 44
00000100
00000010
00000100
00000000
,  // measure 45
00001000
00010000
00001000
00000000
,  // measure 46
00200000
00000000
00000000
00000000
,  // measure 47
02300000
00000000
03200000
00000000
,  // measure 48
00310000
00010000
10000000
00000000
,  // measure 49
10000000
10000000
00010000
00000000
,  // measure 50
00100000
00100000
00001000
00000000
,  // measure 51
00000100
00000100
00010000
00000000
,  // measure 52
00001100
00000000
00000010
00000001
,  // measure 53
00000010
00000000
00000100
00010000
,  // measure 54
00000100
00000000
00100000
00010000
,  // measure 55
00100000
00000000
20020000
00000000
,  // measure 56
30030000
00000000
10100000
00000000
,  // measure 57
11000000
00000000
01010000
00000000
,  // measure 58
00100000
00000000
00001000
00000000
,  // measure 59
00000100
00000000
00000001
00000001
,  // measure 60
00000010
00000010
00000100
00000100
,  // measure 61
00001000
00001000
00010000
00010000
,  // measure 62
01000000
01000000
00100000
00100000
,  // measure 63
10000000
00010000
10000000
00000000
,  // measure 64
01000000
01000000
00100000
00100000
,  // measure 65
00010000
00010000
00001000
00001000
,  // measure 66
00000010
00000010
00000100
00000100
,  // measure 67
00000001
00001000
00000001
00000000
,  // measure 68
00000020
00000000
00000130
00000000
,  // measure 69
00010000
00001000
00010000
00000000
,  // measure 70
00200000
00000000
01300000
00000000
,  // measure 71
00010000
10000000
01000000
00000000
,  // measure 72
10000000
10000000
00100000
00000000
,  // measure 73
01000000
00010000
00010000
00000000
,  // measure 74
00011000
00000000
00001100
00000000
,  // measure 75
00000001
00000100
00001000
00010000
,  // measure 76
00001000
00000000
00010000
00000000
,  // measure 77
00001000
00000000
00100000
00000000
,  // measure 78
01000000
00000000
00100000
00000000
,  // measure 79
00010000
00000000
10000000
00000000
,  // measure 80
11000000
00000000
00110000
00000000
,  // measure 81
11000000
00000000
01010000
00000000
,  // measure 82
00100000
00001000
00001000
00000000
,  // measure 83
00020000
00000000
00000000
00030000
,  // measure 84
00010000
00001000
00100000
01000000
,  // measure 85
10000000
10000000
00000000
10000000
,  // measure 86
00100000
00010000
00100000
01000000
,  // measure 87
00010000
00100000
00000000
00001000
,  // measure 88
00000100
00000010
00000010
00000100
,  // measure 89
00000001
00000001
00000000
00001100
,  // measure 90
00000000
00010100
00000000
00000010
,  // measure 91
00000100
00000110
00000000
00001000
,  // measure 92
00010000
10000000
00100000
01000000
,  // measure 93
00010000
00100000
00001000
00010000
,  // measure 94
00000100
00000010
00000001
00000000
,  // measure 95
00000100
00000000
00000100
00001000
,  // measure 96
00010000
00000000
00000000
00000000
00010000
01000000
00000000
00000000
,  // measure 97
00000000
01100000
00000000
00000000
10000000
00000000
00010000
00000000
,  // measure 98
00100000
00001000
00010000
00000000
,  // measure 99
00000010
00000200
00000000
00000000
00000000
00000000
00000000
00000000
,  // measure 100
00000300
00000000
00000000
00000000
;

//---------------dance-double - ----------------
#NOTEDATA:;
#CHARTNAME:;
#STEPSTYPE:dance-double;
#DESCRIPTION:;
#CHARTSTYLE:;
#DIFFICULTY:Medium;
#METER:12;
#RADARVALUES:0.597763,0.655083,0.425804,0.131017,0.000000,511.000000,459.000000,52.000000,16.000000,0.000000,0.000000,0.000000,0.000000,0.000000,0.597763,0.655083,0.425804,0.131017,0.000000,511.000000,459.000000,52.000000,16.000000,0.000000,0.000000,0.000000,0.000000,0.000000;
#CREDIT:;
#NOTES:
// measure 0
00000000
00000000
00000000
00000000
,  // measure 1
00000000
00000000
00000000
00000000
,  // measure 2
00000012
00000000
00000000
00000000
,  // measure 3
00000203
00000000
00000000
00000000
,  // measure 4
00002300
00000000
00000000
00000000
,  // measure 5
00203000
00000000
00000000
00000000
,  // measure 6
01300000
00000000
01000000
00000000
00000000
10000000
00000000
10000000
,  // measure 7
00000000
00100000
00000000
00100000
00000000
00010000
00000000
00000000
,  // measure 8
00000100
00000000
00000010
00000000
00000100
00000000
00000010
00000200
,  // measure 9
00000000
00000000
00000310
00000000
,  // measure 10
00001001
00000000
00000100
00000000
00000000
00000001
00001000
00000001
,  // measure 11
00000000
00001000
00000000
00001000
00000000
00000100
00000000
00000000
,  // measure 12
10010000
00000000
10000000
00100000
01000000
00100000
00000000
01000000
,  // measure 13
00000000
01000000
00000000
00100000
00000000
10000000
00010000
00000000
,  // measure 14
00110000
00001000
00011000
00100000
,  // measure 15
00110000
00000100
00001100
00010000
,  // measure 16
00001000
00100000
00010000
01000000
00100000
00000000
10000000
00000000
,  // measure 17
01000000
10000000
00010000
01000000
00100000
00000000
01000000
00000000
,  // measure 18
10010000
00000000
01100000
00000000
,  // measure 19
00011000
00000000
00000110
00000000
,  // measure 20
00000101
00000100
00000110
00000000
,  // measure 21
00001100
00011000
00110000
00000000
,  // measure 22
10000000
10000000
00100000
10000000
,  // measure 23
01000000
10000000
00100000
00010000
00100000
00000000
01000000
00000000
,  // measure 24
00010000
00001000
00000100
00000000
,  // measure 25
00000010
00000001
00000010
00001000
00000010
00000000
00000001
00000000
,  // measure 26
00000101
00000100
00001000
00000000
,  // measure 27
00010000
00000100
00001000
00000100
00010000
00000000
00001000
00000000
,  // measure 28
00101000
00100000
01100000
10000000
,  // measure 29
00100000
01000000
00100000
00000000
10000000
01000000
00100000
00000000
,  // measure 30
10020000
00000000
00130000
00001000
,  // measure 31
00000200
00000000
00000301
00000010
,  // measure 32
00002000
00000000
00013000
01000000
,  // measure 33
10000000
00100000
01000000
00000000
00010000
01000000
00010000
00000000
,  // measure 34
10010000
00110000
00001000
00001100
,  // measure 35
00001100
00000001
00000011
00000000
,  // measure 36
00001000
00000001
00001000
00000000
00000100
00010000
00000100
00000000
,  // measure 37
00010000
00001000
00100000
00000000
01000000
10000000
00100000
00000000
,  // measure 38
01000000
00000000
01000000
00000000
00000000
00100000
00100000
01000000
,  // measure 39
00000000
10010000
00000000
00110000
00000000
11000000
00000000
00000000
,  // measure 40
10000000
00010000
10000000
00000000
00100000
00010000
00100000
00010000
,  // measure 41
00000000
00000010
00000000
00000110
00000000
00000100
00000000
00000000
,  // measure 42
00000100
00000010
00000100
00000000
00000000
00001000
00001000
00010000
,  // measure 43
00000000
00000100
00000000
00000110
00000000
00000010
00000000
00000000
,  // measure 44
00000010
00000100
00001000
00000000
00010000
00100000
00010000
00000000
,  // measure 45
10000000
00100000
01000000
00010000
00100000
00000000
01000000
00000000
,  // measure 46
20000000
00000000
00100000
00000000
,  // measure 47
30020000
00000000
01000000
20030000
,  // measure 48
30100000
00000000
10000000
00000000
01000000
10000000
00100000
10000000
,  // measure 49
00000000
00000000
00010000
00000000
00001000
00000100
00001000
00000100
,  // measure 50
00000000
00000010
00000001
00000000
00001000
00000010
00001000
00000010
,  // measure 51
00000000
00010000
00001000
00000000
00100000
00000000
01010000
00000000
,  // measure 52
10000000
00100000
01000000
00000000
00010000
00100000
00010000
00100000
,  // measure 53
00000000
00001000
00000100
00000000
00000001
00000100
00000001
00000100
,  // measure 54
00000000
00000010
00001000
00000000
00010000
00100000
00010000
00100000
,  // measure 55
00000000
01000000
10000000
00000000
20020000
00000000
30030000
00000000
,  // measure 56
01100000
00000000
10010000
00000000
,  // measure 57
01100000
00000000
10010000
00000000
,  // measure 58
01100000
00010000
00001000
00000100
,  // measure 59
00000001
00000000
00000010
00000010
00000100
00000000
00002000
00000000
,  // measure 60
00003010
00010000
00000100
00010000
00000010
00010000
00000100
00001000
,  // measure 61
00000001
00001000
00000010
00010000
00000100
00000000
00010000
00000000
,  // measure 62
00001000
00100000
00001000
01000000
00001000
00010000
00001000
00000000
,  // measure 63
00100000
00010000
10000000
00000000
00100000
00000000
01000000
00000000
,  // measure 64
00010000
00001000
00010000
00100000
00010000
01000000
00010000
00100000
,  // measure 65
00010000
00001000
00010000
00000000
00100000
00000000
00001000
00000000
,  // measure 66
00010000
00000100
00010000
00001000
00010000
00100000
00010000
00000000
,  // measure 67
00001000
00010000
00001000
00000000
00010000
00000000
00011000
00000000
,  // measure 68
00000100
00000010
00000001
00000000
00000010
00001000
00010000
00000000
,  // measure 69
00001000
00010000
00001000
00000000
00100000
00010000
10000000
00000000
,  // measure 70
01000000
10000000
01000000
00000000
10000000
00010000
10000000
00000000
,  // measure 71
00010000
00001000
00010000
00000000
00001000
00000001
00001000
00000000
,  // measure 72
00000010
00000100
00001000
00000000
00010000
00000000
00100000
00010000
,  // measure 73
00001000
00000000
00010000
00000000
00000100
00010000
00001000
00000000
,  // measure 74
00110000
10000000
10100000
10000000
,  // measure 75
01000000
00100000
00010000
00001000
00000100
00000010
00000001
00001000
,  // measure 76
00000010
00000000
00000010
00000000
00000000
00000100
00000010
00000010
,  // measure 77
00000000
00000100
00000000
00000010
00000000
00001000
00000000
00020000
,  // measure 78
00000000
00000000
00000000
00000000
10030000
00000000
00000000
10000000
,  // measure 79
00000000
00000000
00000000
00010000
00000000
00010000
00000000
00000000
,  // measure 80
11000000
01010000
01100000
10000000
,  // measure 81
00110000
00010000
01010000
00001000
,  // measure 82
00001100
00011000
00110000
10000000
,  // measure 83
00100000
10000000
01000000
00100000
00010000
01000000
00100000
01000000
,  // measure 84
00010000
00000000
00001000
00000100
00001000
00000000
00010000
00100000
,  // measure 85
00010000
00000000
00001000
00000100
00000010
00000000
00000001
00000100
,  // measure 86
00000010
00000000
00000100
00001000
00010000
00000000
00001000
00000000
,  // measure 87
00010000
00000000
00110000
00000000
11000000
00000000
10000000
00100000
,  // measure 88
10000000
00000000
00010000
00001000
00010000
00000000
00100000
00001000
,  // measure 89
00100000
00000000
00000010
00001000
00000100
00000000
00000010
00000001
,  // measure 90
00000010
00000100
00001000
00010000
01000000
00000000
00010000
10000000
,  // measure 91
00100000
00000000
01000000
00010000
00100000
00000000
01000000
10000000
,  // measure 92
00100000
00010000
00001000
00000000
00010000
00000100
00000010
00000001
,  // measure 93
00000100
00001000
00000100
00000000
00000001
00000100
00000001
00000000
,  // measure 94
00001100
00000000
00010000
00001000
00100000
00000000
00010000
10000000
,  // measure 95
00100000
00000000
00000000
01100000
00000000
00100000
00100000
00000000
,  // measure 96
10000000
01000000
00100000
00010000
00010000
01000000
00000000
00100000
,  // measure 97
00000000
00010000
00000000
00000100
00000000
00000010
00000001
00001000
,  // measure 98
00000100
00010000
00100000
01000000
00100000
01000000
00000000
00010000
,  // measure 99
00001000
00000200
00000000
00000000
00000000
00000000
00000000
00000000
,  // measure 100
00000300
00000000
00000000
00000000
;

//---------------dance-double - ----------------
#NOTEDATA:;
#CHARTNAME:;
#STEPSTYPE:dance-double;
#DESCRIPTION:;
#CHARTSTYLE:;
#DIFFICULTY:Hard;
#METER:16;
#RADARVALUES:0.780250,0.982624,0.696025,0.245656,0.159676,667.000000,582.000000,85.000000,30.000000,0.000000,0.000000,0.000000,0.000000,0.000000,0.780250,0.982624,0.696025,0.245656,0.159676,667.000000,582.000000,85.000000,30.000000,0.000000,0.000000,0.000000,0.000000,0.000000;
#CREDIT:;
#NOTES:
// measure 0
00000000
00000000
00000000
00000000
,  // measure 1
00000000
00000000
00000000
00000000
,  // measure 2
00000012
00000000
00001000
00000000
00000000
00000100
00000000
00000203
,  // measure 3
00000000
00000010
00000000
00001000
00000000
00001000
00000000
00000000
,  // measure 4
00002300
00000000
00000000
00000000
00010000
00000000
00000000
00203000
,  // measure 5
00000000
00000000
00000000
00010000
00000000
00310000
00000000
00000000
,  // measure 6
20010000
00000000
00000000
00000000
00000000
00100000
00000000
30200000
,  // measure 7
00000000
01000000
00000000
00010000
00000000
01000000
00000000
00000000
,  // measure 8
00320000
00000000
00001000
00000000
,  // measure 9
00030200
00000010
00000310
00000001
,  // measure 10
00001001
00000000
00001000
00000000
00000000
00000100
00001000
00000100
,  // measure 11
00000000
00010100
00000000
00101000
00000000
00110000
00000000
10000000
,  // measure 12
01000000
00000000
01000000
00100000
00010000
01000000
00000000
00100000
,  // measure 13
00000000
00100000
00000000
01000000
00000000
00100000
10010000
00000000
,  // measure 14
00110000
00001000
00010100
00100000
,  // measure 15
00110000
00001000
00001100
00000001
,  // measure 16
00000010
00000100
00001000
00010000
10000000
00000000
00100000
01000000
,  // measure 17
00000000
00100000
10000000
01000000
00000000
00100000
00010000
00100000
,  // measure 18
00001100
00000001
00001100
00010000
,  // measure 19
10100000
00001000
10100000
00010000
,  // measure 20
00001100
00000001
00000110
00010000
,  // measure 21
00011000
00110000
11000000
20000000
,  // measure 22
30100000
10000000
01000000
00100000
,  // measure 23
00010000
01000000
00100000
00010000
00001000
00000000
00000100
00000000
,  // measure 24
00000001
00000010
00001000
00000010
,  // measure 25
00000100
00001000
00010000
10000000
00100000
00000000
01000000
00000000
,  // measure 26
00100000
10000000
01000000
00000000
10000000
00010000
01000000
00000000
,  // measure 27
00100000
00010000
00001000
00000000
00000100
00000001
00000010
00000000
,  // measure 28
00000100
00001000
00010000
10000000
00100000
00000000
01000000
00100000
,  // measure 29
00000000
00000000
00100000
00000000
00010000
00000000
00001000
00000000
00100000
00000000
00010000
00000000
00001000
00000000
00000010
00000100
,  // measure 30
00000020
00000000
00001030
00000000
00010100
00000000
00001000
00100000
,  // measure 31
00010000
01000000
00200000
00000000
01300000
00000000
00010000
00001000
,  // measure 32
00000100
00020000
00100000
00000000
00031000
00000000
00010000
00000100
,  // measure 33
00000010
00000001
00001001
00000000
00000010
00000100
00000010
00001000
,  // measure 34
00001100
00000001
00000110
00000000
00010100
00001000
00101000
01000000
,  // measure 35
01010000
00000000
10100000
00010000
01010000
01000000
01100000
00000000
,  // measure 36
00010000
00100000
01000000
00000000
10000000
00100000
00010000
00000000
,  // measure 37
00001000
00010000
00000100
00001000
00000001
00000010
00000100
00000010
,  // measure 38
00002000
00000000
00023000
00000000
00031000
00010000
00100000
00100000
,  // measure 39
00000000
11000000
00000000
01010000
00000000
11000000
00000000
01000000
,  // measure 40
00100000
00000000
00100000
00000000
00010000
00001000
00000000
00000100
,  // measure 41
00000000
00001000
00000000
00110000
00000000
11000000
00000000
00000000
,  // measure 42
10000000
00000000
00100000
00000000
01000000
00100000
00100000
01000000
,  // measure 43
00000000
00110000
00000000
11000000
00000000
00110000
00000000
00000000
,  // measure 44
00001000
00000100
00001000
00000000
00000100
00000001
00000001
00000010
,  // measure 45
00000100
00001000
00010000
10000000
00100000
00010000
00100000
01000000
,  // measure 46
00002000
00010000
00023000
00100000
,  // measure 47
00032000
00000000
00000100
00000000
00023000
00000000
02030000
23000000
,  // measure 48
30100000
10000000
01000000
00000000
00100000
00010000
00001000
00000100
,  // measure 49
00000000
00010000
00001000
00000000
00100000
00010000
00001000
00000100
,  // measure 50
00000000
00010000
00001000
00000000
00010000
00001000
01000000
00100000
,  // measure 51
00000000
00010000
00001000
00000000
00010000
00000100
00001000
00000000
,  // measure 52
00000001
00000100
00001000
00000000
00010000
00100000
10000000
00000000
,  // measure 53
10000000
00100000
00010000
00000000
00001000
00000100
00000001
00000000
,  // measure 54
00000001
00000010
00001000
00010000
00100000
10000000
00100000
00010000
,  // measure 55
00000000
00000000
00000000
00001000
00000000
00000000
00010000
00000000
00000000
00000000
00000000
00000000
00001000
00000000
00000010
00000000
00000001
00000000
00000100
00000000
00000001
00000000
00000100
00000000
,  // measure 56
00000010
00000000
00001100
00000000
,  // measure 57
00011000
00000000
00110000
00000000
,  // measure 58
10100000
10000000
00110000
00001000
,  // measure 59
00010100
00000000
00000000
00000000
00001000
00000000
00000001
00000000
00000010
00000000
00000000
00000000
00000001
00001000
00000001
00001000
,  // measure 60
00000001
00000000
00001000
00000000
00010000
01000000
00100000
00000000
01000000
00000000
00010000
00000000
00001000
00000010
00000100
00000000
,  // measure 61
00000010
00000000
00001000
00000000
00010000
01000000
10000000
00000000
01000000
00000000
00010000
00000000
00001000
00000010
00000001
00000000
,  // measure 62
00000010
00000000
00001000
00000000
00010000
10000000
00100000
00000000
01000000
00000000
00100000
00000000
00100000
00000000
00000000
00000000
,  // measure 63
10010000
00000000
00000000
00100000
00001000
00000000
00000100
00000000
00000010
00000000
00000000
00000000
00000010
00000000
00000100
00000000
,  // measure 64
00001000
00000000
00100000
00000000
01000000
10000000
00100000
00000000
00010000
00000000
00001000
00000000
00000100
00000010
00001000
00000000
,  // measure 65
00010000
00000000
00100000
00000000
10000000
01000000
00100000
00000000
00010000
00000000
00001000
00000000
00000100
00000001
00000010
00000000
,  // measure 66
00001000
00000000
00010000
00000000
00100000
10000000
01000000
00000000
00100000
00000000
00100000
00000000
01100000
00000000
00000000
00000000
,  // measure 67
10010000
00000000
00000000
00001000
00010000
00000000
00100000
00000000
00110000
00000000
00000000
00000000
00000010
00000000
00001000
00000000
,  // measure 68
00000200
00000000
00000000
00000000
00000310
00000001
00000100
00000000
00001000
00000000
00010000
00000000
00100000
01000000
00010000
00000000
,  // measure 69
01000000
00000000
00010000
00000000
00001000
00010000
00001000
00000000
00000100
00000000
00001000
00000000
00010000
00001000
00010000
00000000
,  // measure 70
00100000
00000000
00010000
00000000
00001000
01000000
00001000
00000000
00000010
00000000
00001000
00000000
00010000
00000100
00010000
00000000
,  // measure 71
00100000
01000000
11000000
00000000
01010000
00010000
01000000
00100000
,  // measure 72
10010000
00100000
00001000
00000000
00001001
00000100
00000010
00000100
,  // measure 73
00001001
00000000
00101000
00010000
00100000
00010000
01001000
00000000
,  // measure 74
00100000
01000000
00010000
00000000
00100000
00010000
01000000
00000000
,  // measure 75
00100000
10000000
00100000
00010000
00001000
00000010
00000001
00001000
00000001
00000010
00000100
00001000
,  // measure 76
00010000
00000000
00010000
00000000
00000000
10000000
10000000
00100000
,  // measure 77
00000000
01000000
00000000
00010000
00000000
00001000
00000000
00000100
,  // measure 78
00000000
00000000
00010000
00001000
00010000
00001000
00000000
00100000
,  // measure 79
00000000
00000000
00000000
00011000
00000000
00011000
00000000
00000000
,  // measure 80
00011000
00000100
00000010
00000100
00011000
00100000
01000000
00100000
,  // measure 81
00010100
00000010
00001000
00000010
01001000
00100000
00010000
00100000
,  // measure 82
00011000
00000000
00000110
00000000
00011000
00000000
00100000
10000000
,  // measure 83
11000000
01010000
00011000
00001010
00000011
00000001
00001000
00000100
,  // measure 84
00001000
00010000
00100000
00000000
00010000
00000000
01000000
00000000
00100000
10000000
01000000
00000000
00010000
00000000
01000000
00000000
,  // measure 85
10000000
00010000
10000000
00000000
00100000
00000000
00010000
00000000
00001000
00000100
00001000
00000000
00010000
00000000
00100000
00000000
,  // measure 86
10000000
01000000
10000000
00000000
00100000
00000000
00010000
00000000
00000100
00001000
00000100
00000000
00000010
00000000
00000001
00000000
,  // measure 87
00000001
00001000
00001000
00000100
00000110
00000000
00000100
00000000
,  // measure 88
00001020
00000000
00000000
00001030
00010000
00200000
00000000
20300000
,  // measure 89
00000000
30020000
00000000
02030000
00000000
03100000
01100000
00000000
,  // measure 90
11000000
00000000
00110000
00000000
01000000
00100000
00000000
00001000
,  // measure 91
00010000
00001000
00000000
10000000
01000000
10000000
10100000
00000000
,  // measure 92
00001000
00000100
00000110
00000000
00001000
00010000
01100000
10000000
,  // measure 93
01010000
00001000
00010100
00000000
00000101
00000010
00001100
00000000
,  // measure 94
00101000
01000000
10010000
00000000
01100000
00000000
00001000
00010000
,  // measure 95
00011000
00000000
00000100
00001000
00100000
01000000
00020000
00000000
,  // measure 96
00031000
00000010
00000001
00000100
00001000
00020000
00000000
01000000
,  // measure 97
10000000
00230000
00000000
00301000
00010000
00100000
00000000
00100000
,  // measure 98
00010000
00000100
00000010
00000001
00000010
00001000
00000000
00000010
,  // measure 99
00001000
00000200
00000000
00000000
00000000
00000000
00000000
00000000
,  // measure 100
00000300
00000000
00000000
00000000
;
