#VERSION:0.83;
#TITLE:XL TECHNO -More Dance Remix-;
#SUBTITLE:;
#ARTIST:from PACA PACA PASSION Special;
#TITLETRANSLIT:;
#SUBTITLETRANSLIT:;
#ARTISTTRANSLIT:;
#GENRE:;
#ORIGIN:;
#CREDIT:;
#BANNER:XL TECHNO -More Dance Remix--bn.png;
#BACKGROUND:XL TECHNO -More Dance Remix--bg.png;
#PREVIEWVID:;
#JACKET:XL TECHNO -More Dance Remix--jacket.png;
#CDIMAGE:;
#DISCIMAGE:;
#LYRICSPATH:;
#CDTITLE:;
#MUSIC:XL TECHNO More Dance Remix.mp3;
#OFFSET:1.138001;
#SAMPLESTART:19.662001;
#SAMPLELENGTH:15.000000;
#SELECTABLE:YES;
#DISPLAYBPM:150.000000;
#BPMS:0.000=150.000,
192.000=148.000,
196.000=150.000;
#STOPS:;
#DELAYS:;
#WARPS:;
#TIMESIGNATURES:0.000=4=4;
#TICKCOUNTS:0.000=4;
#COMBOS:0.000=1;
#SPEEDS:0.000=1.000=0.000=0;
#SCROLLS:0.000=1.000;
#FAKES:;
#LABELS:0.000=Song Start;
#BGCHANGES:;
#KEYSOUNDS:;
#ATTACKS:
;

//---------------dance-single - ----------------
#NOTEDATA:;
#CHARTNAME:;
#STEPSTYPE:dance-single;
#DESCRIPTION:;
#CHARTSTYLE:;
#DIFFICULTY:Beginner;
#METER:3;
#RADARVALUES:0.175695,0.212634,0.000000,0.007409,0.000000,166.000000,166.000000,0.000000,1.000000,0.000000,0.000000,0.000000,0.000000,0.000000,0.175695,0.212634,0.000000,0.007409,0.000000,166.000000,166.000000,0.000000,1.000000,0.000000,0.000000,0.000000,0.000000,0.000000;
#CREDIT:;
#DISPLAYBPM:150.000000;
#NOTES:
0000
0000
0000
0000
,
0000
0000
0000
0000
,
0000
0000
0000
0000
,
0000
0000
0000
0000
,
0000
0000
0000
0000
,
1000
0000
1000
0000
,
0001
0000
0001
0000
,
1000
0000
1000
0000
,
0001
0000
0001
0000
,
0100
0000
0100
0000
,
0010
0000
0010
0000
,
0100
0000
0100
0000
,
0010
0000
0010
0000
,
1000
0000
0100
0000
,
0010
0000
0001
0000
,
1000
0000
0100
0000
,
0010
0000
0001
0000
,
0001
0000
0010
0000
,
0100
0000
1000
0000
,
0001
0000
0010
0000
,
0100
0000
1000
0000
,
1000
0000
0010
0000
,
0100
0000
0001
0000
,
1000
0000
0010
0000
,
0100
0000
0001
0000
,
0001
0000
0100
0000
,
0010
0000
1000
0000
,
0001
0000
0100
0000
,
0010
0000
1000
0000
,
0001
0000
0000
0000
,
0001
0000
0000
0000
,
0001
0000
0000
0000
,
0100
0000
0000
0000
,
0010
0010
0010
0000
,
1000
0000
1000
0000
,
0001
0001
0001
0000
,
1000
0000
1000
0000
,
0010
0010
0010
0000
,
0001
0000
0001
0000
,
0100
0100
0100
0000
,
0001
0000
0001
0000
,
1000
0010
1000
0000
,
0010
0000
1000
0000
,
0001
0100
0001
0000
,
0100
0000
0001
0000
,
0010
0001
0010
0000
,
0001
0000
0010
0000
,
0100
1000
0100
0000
,
0010
0000
0000
0000
,
1000
1000
1000
0000
,
0001
0001
0001
0000
,
1000
0000
0010
0000
,
0100
0000
0001
0000
,
0010
0010
0010
0000
,
0100
0100
0100
0000
,
0001
0000
0100
0000
,
0010
0000
1000
0000
,
0001
0001
0001
0000
,
1000
1000
1000
0000
,
0001
0000
0010
0000
,
0100
0000
1000
0000
,
0010
0010
0010
0000
,
0100
0100
0100
0000
,
0001
0000
1000
0000
,
0010
0010
0010
0000
,
1000
0000
0100
0000
,
0010
0000
0001
0000
,
1000
0000
0100
0000
,
0010
0000
0001
0000
,
0001
0000
0010
0000
,
0100
0000
1000
0000
,
0001
0000
0010
0000
,
0100
0000
1000
0000
,
1000
0000
0010
0000
,
0001
0000
0100
0000
,
1000
0000
0010
0000
,
0001
0000
0100
0000
,
0100
0000
0001
0000
,
0010
0000
1000
0000
,
0100
0000
0001
0000
,
0010
0000
1000
0000
,
0200
0000
0000
0000
,
0310
0000
0000
0000
;

//---------------dance-single - ----------------
#NOTEDATA:;
#CHARTNAME:;
#STEPSTYPE:dance-single;
#DESCRIPTION:;
#CHARTSTYLE:;
#DIFFICULTY:Medium;
#METER:9;
#RADARVALUES:0.400077,0.425267,0.000000,0.007409,0.237083,378.000000,378.000000,0.000000,1.000000,0.000000,0.000000,0.000000,0.000000,0.000000,0.400077,0.425267,0.000000,0.007409,0.237083,378.000000,378.000000,0.000000,1.000000,0.000000,0.000000,0.000000,0.000000,0.000000;
#CREDIT:;
#DISPLAYBPM:150.000000;
#NOTES:
0000
0000
0000
0000
,
0000
0000
0000
0000
,
0000
0000
0000
0000
,
0000
0000
0000
0000
,
0000
0000
0000
0000
,
1000
0100
1000
0100
,
1000
0010
1000
0010
,
0001
0100
0001
0100
,
0001
0010
0001
0010
,
1000
0100
1000
0100
,
1000
0001
1000
0001
,
0001
0100
0001
0100
,
0001
1000
0001
1000
,
1000
0000
0000
0100
0000
0000
0010
0000
0000
0001
0000
0000
1000
0000
0000
0000
,
1000
0000
0000
0100
0000
0000
0010
0000
0000
0001
0000
0000
1000
0000
0000
0000
,
1000
0000
0000
0010
0000
0000
0100
0000
0000
0001
0000
0000
1000
0000
0000
0000
,
1000
0000
0000
0010
0000
0000
0100
0000
0000
0001
0000
0000
1000
0000
0000
0000
,
0001
0000
0000
0010
0000
0000
0100
0000
0000
1000
0000
0000
0001
0000
0000
0000
,
0001
0000
0000
0010
0000
0000
0100
0000
0000
1000
0000
0000
0001
0000
0000
0000
,
0001
0000
0000
0100
0000
0000
0010
0000
0000
1000
0000
0000
0001
0000
0000
0000
,
0001
0000
0000
0100
0000
0000
0010
0000
0000
1000
0000
0000
0001
0000
0000
0000
,
1000
0000
0000
0010
0000
0000
0100
0000
0000
0001
0000
0000
0010
0000
0000
0000
,
1000
0000
0000
0010
0000
0000
0100
0000
0000
0001
0000
0000
0010
0000
0000
0000
,
0001
0000
0000
0100
0000
0000
0010
0000
0000
1000
0000
0000
0100
0000
0000
0000
,
0001
0000
0000
0100
0000
0000
0010
0000
0000
1000
0000
0000
0100
0000
0000
0000
,
0100
0000
0000
1000
0000
0000
0010
0000
0000
0100
0000
0000
0001
0000
0000
0000
,
0100
0000
0000
1000
0000
0000
0010
0000
0000
0100
0000
0000
0001
0000
0000
0000
,
0001
0000
0000
0010
0000
0000
0100
0000
0000
1000
0000
0000
0010
0000
0000
0000
,
0001
0000
0000
0010
0000
0000
0100
0000
0000
1000
0000
0000
0010
0000
0000
0000
,
0100
0000
0100
0000
0100
0000
0100
0010
,
1000
0000
1000
0000
1000
0000
1000
0100
,
0001
0000
0001
0000
0001
0000
0001
0100
,
1000
0000
0000
0000
,
0010
1000
0010
0000
0100
0000
0010
0000
,
0001
0010
1000
0010
,
0100
0001
0010
0000
0001
0100
0010
0000
,
1000
0100
0010
0100
1000
0000
0010
0000
,
1000
0100
0001
0000
0100
0000
1000
0000
,
0010
1000
0010
0100
0010
0000
0100
0000
,
0001
0010
0100
0000
0010
0001
1000
0000
,
0001
1000
0010
0100
,
0001
0100
0010
0000
1000
0010
0000
1000
,
0100
1000
0100
0100
,
0010
0001
0100
0000
0001
0000
0100
0010
,
0000
1000
0010
0000
0100
0000
0100
0000
,
0001
0010
0100
0000
0010
0000
0100
0000
,
0010
0100
1000
0010
1000
0000
0010
0000
,
0100
0010
1000
0000
0001
0010
0100
0000
,
1000
0000
0001
0100
,
0010
1000
0010
0000
1000
0000
0010
0000
,
0001
0010
0001
0000
0010
0000
0001
0000
,
0010
1000
0100
0000
0010
0001
0100
0000
,
0010
0000
0100
0000
0010
1000
0100
0000
,
0010
0001
0010
0000
0001
0000
0010
0000
,
1000
0010
1000
0000
0010
0000
1000
0000
,
0010
0001
0100
0000
0010
1000
0100
0000
,
0010
0000
0100
0000
0010
0001
0100
0000
,
0010
0100
0010
0000
0100
0000
0010
0000
,
0001
0010
0001
0000
0010
0000
0001
0000
,
0010
1000
0100
0000
0010
0001
0100
0000
,
0001
0000
0010
0000
0001
1000
0100
0000
,
0010
0100
0010
0000
0100
0000
0010
0000
,
1000
0010
1000
0000
0010
0000
1000
0000
,
0010
0001
1000
0000
0100
1000
0010
0000
,
0100
0001
0010
0100
1000
0010
0100
0000
,
1000
0000
0000
0100
0000
0000
0010
0000
0000
0001
0000
0000
1000
0000
0000
0000
,
1000
0000
0000
0100
0000
0000
0010
0000
0000
0001
0000
0000
1000
0000
0000
0000
,
1000
0000
0000
0010
0000
0000
0100
0000
0000
0001
0000
0000
1000
0000
0000
0000
,
1000
0000
0000
0010
0000
0000
0100
0000
0000
0001
0000
0000
1000
0000
0000
0000
,
0001
0000
0000
0010
0000
0000
0100
0000
0000
1000
0000
0000
0001
0000
0000
0000
,
0001
0000
0000
0010
0000
0000
0100
0000
0000
1000
0000
0000
0001
0000
0000
0000
,
0001
0000
0000
0100
0000
0000
0010
0000
0000
1000
0000
0000
0001
0000
0000
0000
,
0001
0000
0000
0100
0000
0000
0010
0000
0000
1000
0000
0000
0001
0000
0000
0000
,
1000
0000
0000
0100
0000
0000
0001
0000
0000
0010
0000
0000
1000
0000
0000
0000
,
1000
0000
0000
0100
0000
0000
0001
0000
0000
0010
0000
0000
1000
0000
0000
0000
,
1000
0000
0000
0010
0000
0000
0001
0000
0000
0100
0000
0000
1000
0000
0000
0000
,
1000
0000
0000
0010
0000
0000
0001
0000
0000
0100
0000
0000
1000
0000
0000
0000
,
1000
0000
0000
0100
0000
0000
0001
0000
0000
0010
0000
0000
1000
0000
0000
0000
,
1000
0000
0000
0100
0000
0000
0001
0000
0000
0010
0000
0000
1000
0000
0000
0000
,
1000
0000
0000
0010
0000
0000
0001
0000
0000
0100
0000
0000
1000
0000
0000
0000
,
1000
0000
0000
0010
0000
0000
0001
0000
0000
0100
0000
0000
1000
0000
0000
0000
,
0200
0000
0000
0000
,
0310
0000
0000
0000
;

//---------------dance-single - ----------------
#NOTEDATA:;
#CHARTNAME:;
#STEPSTYPE:dance-single;
#DESCRIPTION:;
#CHARTSTYLE:;
#DIFFICULTY:Easy;
#METER:7;
#RADARVALUES:0.311171,0.273386,0.000000,0.007409,0.000000,294.000000,294.000000,0.000000,1.000000,0.000000,0.000000,0.000000,0.000000,0.000000,0.311171,0.273386,0.000000,0.007409,0.000000,294.000000,294.000000,0.000000,1.000000,0.000000,0.000000,0.000000,0.000000,0.000000;
#CREDIT:;
#DISPLAYBPM:150.000000;
#NOTES:
0000
0000
0000
0000
,
0000
0000
0000
0000
,
0000
0000
0000
0000
,
0000
0000
0000
0000
,
0000
0000
0000
0000
,
1000
1000
0001
0001
,
1000
1000
0001
0001
,
0100
0100
0010
0010
,
0100
0100
0010
0000
,
1000
1000
0001
0001
,
1000
1000
0001
0001
,
0010
0010
0100
0100
,
0010
0010
0100
0000
,
1000
0100
0010
0001
,
1000
0100
0010
0001
,
1000
0010
0100
0001
,
1000
0010
0100
0001
,
0001
0010
0100
1000
,
0001
0010
0100
1000
,
0001
0100
0010
1000
,
0001
0100
0010
1000
,
1000
0100
0010
0001
,
1000
0100
0010
0001
,
1000
0010
0100
0001
,
1000
0010
0100
0001
,
0001
0010
0100
1000
,
0001
0010
0100
1000
,
0001
0100
0010
1000
,
0001
0100
0010
1000
,
0001
0000
0000
0000
0000
0000
0000
0001
,
1000
0000
0000
0000
0000
0000
0000
1000
,
0001
0000
0000
0000
0000
0000
0000
0010
,
0100
0000
0000
0000
,
1000
1000
0010
0010
,
1000
0100
0010
0001
,
0100
0100
0010
0010
,
0001
0010
0100
1000
,
0001
0001
0100
0100
,
1000
0100
0010
0001
,
1000
1000
0010
0010
,
0100
0001
0010
0100
,
1000
1000
0100
0100
,
0001
0010
0100
1000
,
0010
0010
0001
0001
,
0100
0010
1000
0001
,
0100
0100
1000
1000
,
0100
0010
0001
0100
,
0010
0010
0100
0100
,
0010
0000
0100
0010
,
1000
1000
1000
1000
,
0001
0001
0001
0001
,
1000
0010
0100
0001
,
1000
0100
0010
0001
,
0100
0100
0100
0100
,
0010
0010
0010
0010
,
1000
0100
0010
0001
,
0100
0010
1000
0100
,
0001
0001
0001
0001
,
1000
1000
1000
1000
,
0010
0100
0001
1000
,
0100
0010
0001
0100
,
0010
0010
0010
0010
,
1000
1000
1000
1000
,
0001
0100
0010
1000
,
0001
0010
0100
1000
,
1000
0100
0010
0001
,
1000
0100
0010
0001
,
1000
0010
0100
0001
,
1000
0010
0100
0001
,
0001
0010
0100
1000
,
0001
0010
0100
1000
,
0001
0100
0010
1000
,
0001
0100
0010
1000
,
1000
0010
0001
0100
,
1000
0010
0001
0100
,
0100
0001
0010
1000
,
0100
0001
0010
1000
,
1000
0010
0001
0100
,
1000
0010
0001
0100
,
0100
0001
0010
1000
,
0100
0001
0010
1000
,
0200
0000
0000
0000
,
0310
0000
0000
0000
;

//---------------dance-single - ----------------
#NOTEDATA:;
#CHARTNAME:;
#STEPSTYPE:dance-single;
#DESCRIPTION:;
#CHARTSTYLE:;
#DIFFICULTY:Hard;
#METER:13;
#RADARVALUES:0.687963,0.668277,0.000000,0.007409,0.511210,650.000000,650.000000,0.000000,1.000000,0.000000,0.000000,0.000000,0.000000,0.000000,0.687963,0.668277,0.000000,0.007409,0.511210,650.000000,650.000000,0.000000,1.000000,0.000000,0.000000,0.000000,0.000000,0.000000;
#CREDIT:;
#DISPLAYBPM:150.000000;
#NOTES:
0000
0000
0000
0000
,
0000
0000
0000
0000
,
0000
0000
0000
0000
,
0000
0000
0000
0000
,
0000
0000
0000
0000
,
1000
0100
1000
0100
1000
0100
1000
0100
,
0100
0010
0100
0010
0100
0010
0100
0010
,
0010
0001
0010
0001
0010
0001
0010
0001
,
0001
0010
0001
0010
0001
0010
0001
0010
,
1000
0100
1000
0100
1000
0100
1000
0100
,
0100
0010
0100
0010
0100
0010
0100
0010
,
0010
0001
0010
0001
0010
0001
0010
0001
,
0001
0010
0001
0010
0001
0010
0001
0010
,
1000
0100
0000
0100
0010
0000
0010
0001
0000
0001
0100
0000
0010
0000
1000
0000
,
0100
0010
0000
0010
0001
0000
0001
0100
0000
0100
0010
0000
1000
0000
0100
0000
,
0010
0001
0000
0001
0100
0000
0100
0010
0000
0010
1000
0000
0100
0000
0010
0000
,
0001
0100
0000
0100
0010
0000
0010
1000
0000
1000
0100
0000
0010
0000
0001
0000
,
0001
0010
0000
0010
0100
0000
0100
1000
0000
1000
0010
0000
0100
0000
0001
0000
,
0010
0100
0000
0100
1000
0000
1000
0010
0000
0010
0100
0000
0001
0000
0010
0000
,
0100
1000
0000
1000
0010
0000
0010
0100
0000
0100
0001
0000
0010
0000
0100
0000
,
1000
0010
0000
0010
0100
0000
0100
0001
0000
0001
0010
0000
0100
0000
1000
0000
,
1000
0010
0000
0100
0001
0000
0010
0100
0000
1000
0010
0000
0100
0000
0001
0000
,
0010
0100
0000
1000
0010
0000
0100
0001
0000
0010
0100
0000
1000
0000
0010
0000
,
1000
0100
0000
0010
0001
0000
0100
0010
0000
1000
0100
0000
0010
0000
0001
0000
,
0100
0010
0000
1000
0100
0000
0010
0001
0000
0100
0010
0000
1000
0000
0100
0000
,
0010
0001
0000
0010
0100
0000
1000
0100
0000
0010
0100
0000
0010
0000
0001
0000
,
0010
0100
0000
1000
0100
0000
0010
0100
0000
0010
0001
0000
0010
0000
0100
0000
,
1000
0100
0000
0010
0100
0000
0010
0001
0000
0010
0100
0000
1000
0000
0100
0000
,
0010
0100
0000
0010
0001
0000
0010
0100
0000
1000
0100
0000
0010
0000
0001
0000
,
1000
0100
1000
0100
1000
0100
1000
0100
,
0001
0100
0001
0100
0001
0100
0001
0100
,
0010
1000
0010
1000
0010
1000
0010
0001
,
0100
0000
0000
0000
,
0010
1000
0010
1000
0010
0100
0010
0100
,
0010
0001
0010
1000
0010
0100
0010
0000
,
1000
0100
0010
0000
0100
1000
0010
0000
,
1000
0100
0010
0001
0100
0010
0010
0000
,
1000
0100
0010
0100
0001
0100
0001
0100
,
0010
0100
1000
0100
0010
0100
0000
0000
,
0010
0100
0001
0000
0010
0100
1000
0000
,
0010
1000
0000
0000
0010
0100
0010
0000
,
1000
0100
0010
0100
0001
0100
0001
0100
,
1000
0100
0010
0100
1000
0010
0100
0000
,
0001
0100
0010
0100
0010
0100
1000
0100
,
0010
0100
0001
0100
0010
0100
0010
0000
,
1000
0001
0010
0001
1000
0010
1000
0000
,
0001
0100
0001
1000
0100
1000
0010
0000
,
1000
0000
0100
0000
0010
0000
0001
0000
0100
0000
0010
0000
1000
0000
0100
1000
,
0100
0000
1000
1000
,
0001
0010
0001
0010
0001
0010
0001
0010
,
0010
0100
0010
0100
0010
0100
0010
0100
,
0001
1000
0000
0100
1000
0000
0010
0000
0100
0000
0010
0000
0100
0000
0001
0000
,
0010
0100
1000
0010
0100
0001
0010
0000
,
1000
0100
1000
0100
1000
0100
1000
0100
,
0100
0010
0100
0010
0100
0010
0100
0010
,
1000
0001
0000
0010
0001
0000
0100
0000
0010
0000
0100
0000
0010
0000
1000
0000
,
0100
0010
0001
0100
0010
1000
0100
0000
,
0001
0010
0001
0010
0001
0010
0001
0010
,
0010
1000
0010
1000
0010
1000
0010
1000
,
0001
0100
0000
0010
1000
0000
0100
0000
0010
0000
0001
0000
0010
0000
0100
0000
,
0001
0100
1000
0010
0100
0001
1000
0000
,
1000
0100
1000
0100
1000
0100
1000
0100
,
0100
0001
0100
0001
0100
0001
0100
0001
,
1000
0010
0000
0100
0001
0000
0010
0000
0100
0000
1000
0000
0100
0000
0010
0000
,
1000
0000
0010
0000
0001
0000
0100
0000
0010
0000
1000
0000
0001
1000
0001
0000
,
1000
0100
0000
0100
0010
0000
0010
0001
0000
0001
0100
0000
0010
0000
1000
0000
,
0100
0010
0000
0010
0001
0000
0001
0100
0000
0100
0010
0000
1000
0000
0100
0000
,
0010
0001
0000
0001
0100
0000
0100
0010
0000
0010
1000
0000
0100
0000
0010
0000
,
0001
0100
0000
0100
0010
0000
0010
1000
0000
1000
0100
0000
0010
0000
0001
0000
,
0001
0010
0000
0010
0100
0000
0100
1000
0000
1000
0010
0000
0100
0000
0001
0000
,
0010
0100
0000
0100
1000
0000
1000
0010
0000
0010
0100
0000
0001
0000
0010
0000
,
0100
1000
0000
1000
0010
0000
0010
0100
0000
0100
0001
0000
0010
0000
0100
0000
,
1000
0010
0000
0010
0100
0000
0100
0001
0000
0001
0010
0000
0100
0000
1000
0000
,
0001
0010
0000
0001
0100
0000
0001
1000
0000
0001
0010
0000
0001
0000
0010
0000
,
0010
1000
0000
0010
0100
0000
0010
0001
0000
0010
1000
0000
0010
0000
0100
0000
,
0100
0010
0000
0100
0001
0000
0100
0010
0000
0100
1000
0000
0100
0000
1000
0000
,
1000
0100
0000
1000
0001
0000
1000
0010
0000
1000
0100
0000
1000
0000
0010
0000
,
0001
0010
0000
0001
0100
0000
0001
1000
0000
0001
0010
0000
0001
0000
0010
0000
,
0010
1000
0000
0010
0100
0000
0010
0001
0000
0010
1000
0000
0010
0000
0100
0000
,
0100
0010
0000
0100
0001
0000
0100
0010
0000
0100
1000
0000
0100
0000
1000
0000
,
1000
0100
0000
1000
0001
0000
1000
0010
0000
1000
0100
0000
1000
0000
0010
0000
,
0200
0000
0000
0000
,
0310
0000
0000
0000
;

//---------------dance-single - ----------------
#NOTEDATA:;
#CHARTNAME:;
#STEPSTYPE:dance-single;
#DESCRIPTION:;
#CHARTSTYLE:;
#DIFFICULTY:Challenge;
#METER:19;
#RADARVALUES:1.270086,1.002415,0.000000,0.007409,2.207833,1200.000000,1200.000000,0.000000,1.000000,0.000000,0.000000,0.000000,0.000000,0.000000,1.270086,1.002415,0.000000,0.007409,2.207833,1200.000000,1200.000000,0.000000,1.000000,0.000000,0.000000,0.000000,0.000000,0.000000;
#CREDIT:;
#DISPLAYBPM:150.000000;
#NOTES:
0000
0000
0000
0000
,
0000
0000
0000
0000
,
0000
0000
0000
0000
,
0000
0000
0000
0000
,
0000
0000
0000
0000
,
1000
0100
1000
0100
1000
0100
1000
0100
1000
0100
1000
0100
1000
0100
1000
0100
,
0100
0010
0100
0010
0100
0010
0100
0010
0100
0010
0100
0010
0100
0010
0100
0010
,
0010
0001
0010
0001
0010
0001
0010
0001
0010
0001
0010
0001
0010
0001
0010
0001
,
0001
0010
0001
0010
0001
0010
0001
0010
0001
0010
0001
0010
0001
0010
0001
0010
,
1000
0100
1000
0100
1000
0100
1000
0100
1000
0100
1000
0100
1000
0100
1000
0100
,
0100
0010
0100
0010
0100
0010
0100
0010
0100
0010
0100
0010
0100
0010
0100
0010
,
0010
0001
0010
0001
0010
0001
0010
0001
0010
0001
0010
0001
0010
0001
0010
0001
,
0001
0010
0001
0010
0001
0010
0001
0010
0001
0010
0001
0010
0001
0010
0001
0010
,
1000
0100
1000
0010
0100
0010
1000
0100
1000
0010
0100
0010
1000
0100
1000
0100
,
1000
0010
1000
0001
0010
0001
1000
0010
1000
0001
0010
0001
1000
0010
1000
0010
,
0100
0010
0100
0001
0010
0001
0100
0010
0100
0001
0010
0001
0100
0010
0100
0010
,
1000
0100
1000
0001
0100
0001
1000
0100
1000
0100
0100
0100
0010
0001
0100
0010
,
1000
0100
1000
0010
0100
0010
1000
0100
1000
0010
0100
0010
1000
0100
1000
0100
,
1000
0010
1000
0001
0010
0001
1000
0010
1000
0001
0010
0001
1000
0010
1000
0010
,
0100
0010
0100
0001
0010
0001
0100
0010
0100
0001
0010
0001
0100
0010
0100
0010
,
1000
0100
1000
0001
0100
0001
1000
0100
1000
0100
0100
0100
0010
0001
0100
0010
,
1000
0100
1000
0010
0100
0010
1000
0100
1000
0010
0100
0010
0100
0100
0100
0100
,
1000
0010
1000
0001
0010
0001
1000
0010
1000
0001
0010
0001
0010
0010
0010
0010
,
0100
0010
0100
0001
0010
0001
0100
0010
0100
0001
0010
0001
0100
0100
0100
0100
,
1000
0100
1000
0001
0100
0001
1000
0100
1000
0100
0100
0100
0010
0010
0100
0100
,
1000
0100
1000
0010
0100
0010
1000
0100
1000
0010
0100
0010
0100
0100
0100
0100
,
1000
0010
1000
0001
0010
0001
1000
0010
1000
0001
0010
0001
0010
0010
0010
0010
,
0100
0010
0100
0001
0010
0001
0100
0010
0100
0001
0010
0001
0100
0100
0100
0100
,
1000
0100
1000
0001
0100
0001
1000
0100
1000
0100
0100
0100
0010
0010
0100
0100
,
1000
0100
1000
0100
1000
0100
1000
0100
1000
0100
1000
0100
1000
0100
1000
0100
,
0100
0010
0100
0010
0100
0010
0100
0010
0100
0010
0100
0010
0100
0010
0100
0010
,
0010
0001
0010
0001
0010
0001
0010
0001
0010
0001
0010
0001
0010
0001
0010
0001
,
0100
0010
0100
0010
,
0001
0010
0001
0010
0001
0100
0001
0100
0010
0100
0010
0100
0010
1000
0010
1000
,
0100
1000
0100
1000
0010
1000
0100
1000
0001
0100
0010
0100
0001
0100
0010
0010
,
0001
0010
0010
0100
0010
0010
0001
0100
0100
1000
0100
0100
0001
0010
0010
1000
,
0100
1000
0100
0100
0010
0100
0010
0010
0001
0100
0010
0010
0001
0010
0100
1000
,
0001
0100
0100
0100
0010
1000
0010
0100
0100
1000
0100
0100
0010
1000
0100
0100
,
0001
0100
0010
0010
0001
1000
0100
1000
0010
0100
0100
0100
0001
0100
0010
1000
,
0001
0010
0010
0100
0100
0100
0001
0001
0001
0100
0100
0100
0010
1000
0010
1000
,
0100
1000
1000
1000
0010
0100
0010
0010
0001
0010
0100
1000
0001
0100
0010
1000
,
0001
0010
0001
0010
0001
0100
0001
0100
0010
0100
0010
0100
0010
1000
0010
1000
,
0100
0100
0010
0100
0100
1000
0100
0100
0001
1000
0010
1000
0010
0100
0100
0100
,
0001
0010
0001
0010
0001
0100
0001
0100
0010
0100
0010
0100
0010
1000
0010
1000
,
0100
1000
0100
0100
0010
1000
0100
0100
0010
0100
0010
0010
0001
0100
0010
0010
,
0001
0100
0001
0100
0010
0010
0001
1000
0010
0010
0001
1000
0100
0100
0010
1000
,
0001
0100
0100
0100
0010
0100
0100
0100
0001
0100
0010
1000
0001
1000
0100
1000
,
0001
0010
0010
0100
0010
0010
0001
0100
0100
1000
0100
0100
0001
0010
0100
1000
,
0100
0100
0100
0100
0100
0100
0100
0100
0100
0000
0000
0000
1000
0000
0000
0000
,
0010
0100
0100
0100
0100
0100
0100
0100
0100
0100
0100
0100
0100
0100
0100
0100
,
0001
0100
0100
0100
0100
0100
0001
0100
0100
0100
0010
1000
0001
1000
0010
1000
,
0100
1000
0100
0100
0010
0100
0001
0100
0001
1000
0010
1000
0010
1000
1000
1000
,
0010
0100
0100
1000
0010
0100
0100
1000
0010
0100
0100
0100
0001
0100
0100
0100
,
0010
0100
0100
0100
0100
0100
0100
0100
0100
0100
0100
0100
0100
0100
0100
0100
,
0001
0100
0100
0100
0100
0100
0001
0100
0100
0100
0010
1000
0001
1000
0010
1000
,
0010
0100
0100
1000
0001
0100
0100
1000
0001
0100
0100
0001
0001
0001
0100
0100
,
0010
0100
0100
1000
0010
0100
0100
1000
0010
0100
0100
0100
0010
1000
1000
1000
,
0001
0100
0100
0100
0100
0100
0001
0001
0001
0100
0100
0100
0100
0010
0010
1000
,
1000
1000
0100
0100
0100
0100
0001
0100
0100
0100
0100
1000
0100
1000
0010
1000
,
0100
1000
0100
0100
0010
0010
0001
0001
0001
0100
0100
0100
0100
1000
1000
0100
,
0100
0100
0010
0010
0001
0100
0100
0100
0010
0100
0100
0100
0001
1000
1000
1000
,
0001
0100
0100
0100
0100
0100
0001
0001
0001
0100
0100
0100
0100
0010
0010
1000
,
1000
1000
0100
0100
0100
0100
0001
0100
0100
0100
0100
1000
0100
1000
0010
1000
,
0100
1000
0100
0100
0010
0010
0001
0001
0001
0100
0100
0100
0100
0010
0010
1000
,
0010
0010
0001
1000
0010
0010
0001
0001
0001
0010
0100
1000
0100
0010
0001
0100
,
0010
0100
0100
1000
0100
0100
0010
0100
0100
1000
0100
0100
0010
0100
0010
0100
,
0001
0010
0010
0100
0010
0010
0001
0010
0010
0100
0010
0010
0001
0010
0001
0010
,
0001
0100
0100
1000
0100
0100
0001
0100
0100
1000
0100
0100
0001
0100
0001
0100
,
0001
0010
0010
1000
0010
0010
0001
0010
0010
0100
0100
0100
0010
0010
0100
0100
,
0010
0100
0100
1000
0100
0100
0010
0100
0100
1000
0100
0100
0010
0100
0010
0100
,
0001
0010
0010
0100
0010
0010
0001
0010
0010
0100
0010
0010
0001
0010
0001
0010
,
0001
0100
0100
1000
0100
0100
0001
0100
0100
1000
0100
0100
0001
0100
0001
0100
,
0001
0010
0010
1000
0010
0010
0001
0010
0010
0100
0100
0100
0010
0010
0100
0100
,
0001
1000
0001
1000
0010
1000
0010
1000
0100
1000
0100
1000
1000
1000
1000
1000
,
0001
0100
0001
0100
0010
0100
0010
0100
0100
0100
0100
0100
1000
0100
1000
0100
,
0001
0010
0001
0010
0010
0010
0010
0010
0100
0010
0100
0010
1000
0010
1000
0010
,
0001
0100
0001
0100
0010
0100
0010
0100
0100
0100
0100
0100
1000
0100
1000
0100
,
0001
1000
0001
1000
0010
1000
0010
1000
0100
1000
0100
1000
1000
1000
1000
1000
,
0001
0100
0001
0100
0010
0100
0010
0100
0100
0100
0100
0100
1000
0100
1000
0100
,
0001
0010
0001
0010
0010
0010
0010
0010
0100
0010
0100
0010
1000
0010
1000
0010
,
0001
0100
0001
0100
0010
0100
0010
0100
0100
0100
0100
0100
1000
0100
1000
0100
,
0200
0000
0000
0000
,
0310
0000
0000
0000
;

//---------------dance-double - ----------------
#NOTEDATA:;
#CHARTNAME:;
#STEPSTYPE:dance-double;
#DESCRIPTION:;
#CHARTSTYLE:;
#DIFFICULTY:Challenge;
#METER:19;
#RADARVALUES:1.270086,1.002415,0.000000,0.007409,2.207833,1200.000000,1200.000000,0.000000,1.000000,0.000000,0.000000,0.000000,0.000000,0.000000,1.270086,1.002415,0.000000,0.007409,2.207833,1200.000000,1200.000000,0.000000,1.000000,0.000000,0.000000,0.000000,0.000000,0.000000;
#CREDIT:;
#DISPLAYBPM:150.000000;
#NOTES:
00000000
00000000
00000000
00000000
,
00000000
00000000
00000000
00000000
,
00000000
00000000
00000000
00000000
,
00000000
00000000
00000000
00000000
,
00000000
00000000
00000000
00000000
,
10000000
01000000
10000000
01000000
10000000
01000000
10000000
01000000
10000000
01000000
10000000
01000000
10000000
01000000
10000000
01000000
,
01000000
00100000
01000000
00100000
01000000
00100000
01000000
00100000
01000000
00100000
01000000
00100000
01000000
00100000
01000000
00100000
,
00100000
00010000
00100000
00010000
00100000
00010000
00100000
00010000
00100000
00010000
00100000
00010000
00100000
00010000
00100000
00010000
,
00010000
00001000
00010000
00001000
00010000
00001000
00010000
00001000
00010000
00001000
00010000
00001000
00100000
00010000
01000000
00100000
,
10000000
01000000
10000000
01000000
10000000
01000000
10000000
01000000
10000000
01000000
10000000
01000000
10000000
01000000
10000000
01000000
,
01000000
00100000
01000000
00100000
01000000
00100000
01000000
00100000
01000000
00100000
01000000
00100000
01000000
00100000
01000000
00100000
,
00100000
00010000
00100000
00010000
00100000
00010000
00100000
00010000
00100000
00010000
00100000
00010000
00100000
00010000
00100000
00010000
,
00010000
00001000
00010000
00001000
00010000
00001000
00010000
00001000
00010000
00001000
00010000
00001000
00100000
00010000
01000000
00100000
,
10000000
01000000
10000000
00100000
01000000
00100000
10000000
01000000
10000000
00100000
01000000
00100000
10000000
01000000
10000000
01000000
,
00100000
00010000
00100000
00001000
00010000
00001000
00100000
00010000
00100000
00001000
00010000
00001000
00100000
00010000
00100000
00010000
,
00010000
00001000
00010000
00000100
00001000
00000100
00010000
00001000
00010000
00000100
00001000
00000100
00010000
00001000
00010000
00001000
,
00000100
00000010
00000100
00000001
00000010
00000001
00000100
00000010
00000100
00000001
00000010
00000100
00001000
00010000
00100000
01000000
,
10000000
01000000
10000000
00100000
01000000
00100000
10000000
01000000
10000000
00100000
01000000
00100000
10000000
01000000
10000000
01000000
,
00100000
00010000
00100000
00001000
00010000
00001000
00100000
00010000
00100000
00001000
00010000
00001000
00100000
00010000
00100000
00010000
,
00010000
00001000
00010000
00000100
00001000
00000100
00010000
00001000
00010000
00000100
00001000
00000100
00010000
00001000
00010000
00001000
,
00000100
00000010
00000100
00000001
00000010
00000001
00000100
00000010
00000100
00000001
00000010
00000100
00001000
00010000
00100000
01000000
,
10000000
01000000
10000000
00100000
01000000
00100000
10000000
01000000
10000000
00100000
01000000
00100000
01000000
01000000
00010000
00010000
,
00100000
00010000
00100000
00001000
00010000
00001000
00100000
00010000
00100000
00001000
00010000
00001000
00010000
00010000
00001000
00001000
,
00010000
00001000
00010000
00000100
00001000
00000100
00010000
00001000
00010000
00000100
00001000
00000100
00010000
00010000
00000010
00000010
,
00000100
00000010
00000100
00000001
00000010
00000001
00000100
00000010
00000100
00000001
00000010
00000100
00001000
00010000
00100000
01000000
,
10000000
01000000
10000000
00100000
01000000
00100000
10000000
01000000
10000000
00100000
01000000
00100000
01000000
01000000
00010000
00010000
,
00100000
00010000
00100000
00001000
00010000
00001000
00100000
00010000
00100000
00001000
00010000
00001000
00010000
00010000
00001000
00001000
,
00010000
00001000
00010000
00000100
00001000
00000100
00010000
00001000
00010000
00000100
00001000
00000100
00010000
00010000
00000010
00000010
,
00000100
00000010
00000100
00000001
00000010
00000001
00000100
00000010
00000100
00000001
00000010
00000100
00001000
00010000
00100000
01000000
,
10000000
01000000
10000000
01000000
10000000
01000000
10000000
01000000
10000000
01000000
10000000
01000000
10000000
01000000
10000000
01000000
,
01000000
00100000
01000000
00100000
01000000
00100000
01000000
00100000
01000000
00100000
01000000
00100000
01000000
00100000
01000000
00100000
,
00100000
00010000
00100000
00010000
00100000
00010000
00100000
00010000
00100000
00010000
00100000
00010000
00100000
00010000
00100000
00010000
,
01000000
00010000
00001000
00000100
,
00000001
00000010
00000001
00000010
00000100
00000010
00000100
00000010
00000100
00001000
00000100
00001000
00010000
00001000
00010000
00001000
,
00010000
00100000
00010000
00100000
01000000
10000000
00100000
10000000
00100000
01000000
00010000
00100000
00001000
00010000
00001000
00001000
,
00000100
00001000
00001000
00100000
00010000
00010000
00001000
00010000
00010000
10000000
01000000
01000000
00100000
01000000
01000000
00100000
,
00010000
10000000
00100000
00100000
00010000
00100000
00100000
01000000
00010000
00010000
00001000
00010000
00001000
00001000
00001000
00001000
,
00000010
00000100
00000100
00000100
00000010
00001000
00000010
00000100
00000100
00010000
00001000
00001000
00100000
00010000
01000000
01000000
,
00100000
00010000
01000000
01000000
00010000
10000000
01000000
10000000
00010000
01000000
01000000
01000000
00010000
00100000
01000000
10000000
,
00100000
01000000
01000000
00010000
00010000
00010000
00001000
00001000
00001000
00010000
00010000
00010000
00001000
00010000
00001000
00010000
,
00000010
00000100
00000100
00000100
00000010
00001000
00000100
00000100
00000001
00000010
00000100
00001000
00010000
00001000
00000100
00000010
,
00000001
00000010
00000001
00000010
00000100
00000010
00000100
00000010
00000100
00001000
00000100
00001000
00010000
00001000
00010000
00001000
,
00010000
00010000
00001000
00010000
00010000
01000000
00100000
00100000
00010000
00100000
00001000
00010000
00001000
00000100
00000100
00000100
,
00000001
00000010
00000001
00000010
00000100
00000010
00000100
00000010
00000100
00001000
00000100
00001000
00010000
00001000
00010000
00001000
,
00010000
00100000
00010000
00010000
00001000
00010000
00001000
00001000
00000100
00010000
00001000
00001000
00000010
00001000
00000100
00000100
,
00000001
00000010
00000001
00000010
00000100
00000100
00000010
00010000
00001000
00001000
00000100
00001000
00010000
00010000
00100000
00010000
,
00100000
01000000
01000000
01000000
00010000
01000000
01000000
01000000
00100000
10000000
00010000
01000000
00100000
10000000
01000000
10000000
,
00010000
01000000
01000000
00100000
00010000
00010000
00001000
00010000
00010000
01000000
00010000
00010000
00001000
00010000
00000010
00001000
,
00000100
00000100
00000100
00000100
00000100
00000100
00000100
00000100
00000100
00000000
00000000
00000000
00000010
00000000
00000000
00000000
,
00001000
00010000
00010000
00010000
00010000
00010000
00010000
00010000
00010000
00010000
00010000
00010000
00010000
00010000
00010000
00010000
,
00000010
00010000
00010000
00010000
00010000
00010000
00001000
00010000
00010000
00010000
00000100
00001000
00000010
00001000
00000100
00010000
,
00001000
00100000
00010000
00010000
00001000
00100000
00010000
01000000
00100000
10000000
01000000
10000000
00100000
01000000
01000000
01000000
,
00001000
00010000
00010000
01000000
00001000
00010000
00010000
00100000
00001000
00010000
00010000
00010000
00000100
00001000
00001000
00001000
,
00000100
00010000
00010000
00010000
00010000
00010000
00010000
00010000
00010000
00010000
00010000
00010000
00010000
00010000
00010000
00010000
,
00000010
00010000
00010000
00010000
00010000
00010000
00001000
00010000
00010000
00010000
00000100
00001000
00000010
00001000
00000100
00010000
,
00001000
00100000
00010000
00010000
00001000
00100000
00010000
01000000
00100000
10000000
01000000
10000000
00100000
01000000
01000000
01000000
,
00001000
00010000
00010000
01000000
00001000
00010000
00010000
00100000
00001000
00010000
00010000
00010000
00000100
00001000
00001000
00001000
,
00000010
00000100
00000100
00001000
00000100
00000100
00000001
00001000
00000100
00000010
00000100
00000100
00000100
00001000
00001000
00010000
,
00010000
01000000
01000000
01000000
00010000
00100000
00010000
01000000
01000000
01000000
01000000
10000000
00100000
10000000
01000000
00100000
,
00010000
00100000
00010000
00010000
00001000
00001000
00000100
00000100
00000100
00001000
00001000
00100000
00010000
00100000
00010000
01000000
,
01000000
01000000
00010000
00100000
00010000
01000000
01000000
01000000
00100000
01000000
01000000
01000000
00001000
00010000
00010000
00010000
,
00000010
00000100
00000100
00001000
00000100
00000100
00000001
00001000
00000100
00000010
00000100
00000100
00000100
00001000
00001000
00010000
,
00010000
01000000
01000000
01000000
00010000
00100000
00010000
01000000
01000000
01000000
01000000
10000000
00100000
10000000
01000000
00100000
,
00010000
00100000
00010000
00010000
00001000
00001000
00000100
00000100
00000100
00001000
00001000
00100000
00010000
00100000
00010000
01000000
,
01000000
01000000
00100000
00100000
00010000
00010000
00001000
00001000
00001000
00010000
00001000
00010000
00000100
00001000
00000100
00001000
,
00000010
00001000
00001000
00010000
00001000
00001000
00000010
00001000
00001000
00010000
00001000
00001000
00000010
00001000
00000010
00001000
,
00001000
00010000
00010000
01000000
00010000
00010000
00001000
00010000
00010000
01000000
00010000
00010000
00001000
00010000
00001000
00010000
,
00010000
01000000
01000000
10000000
01000000
01000000
00010000
01000000
01000000
10000000
01000000
01000000
00010000
01000000
00010000
01000000
,
00001000
00010000
00010000
00100000
00010000
00010000
00001000
00010000
00010000
00100000
00010000
00010000
00001000
00001000
00000100
00000100
,
00000010
00001000
00001000
00010000
00001000
00001000
00000010
00001000
00001000
00010000
00001000
00001000
00000010
00001000
00000010
00001000
,
00001000
00010000
00010000
01000000
00010000
00010000
00001000
00010000
00010000
01000000
00010000
00010000
00001000
00010000
00001000
00010000
,
00010000
01000000
01000000
10000000
01000000
01000000
00010000
01000000
01000000
10000000
01000000
01000000
00010000
01000000
00010000
01000000
,
00001000
00010000
00010000
00100000
00010000
00010000
00001000
00010000
00010000
00100000
00010000
00010000
00001000
00001000
00010000
00010000
,
00001000
01000000
00001000
01000000
00010000
01000000
00010000
01000000
00100000
01000000
00100000
01000000
10000000
01000000
00100000
01000000
,
00001000
00010000
00000100
00010000
00001000
00010000
00001000
00010000
00100000
00010000
00100000
00010000
01000000
00010000
00001000
00010000
,
00000100
00001000
00000100
00001000
00000010
00001000
00000010
00001000
00010000
00001000
00010000
00001000
00100000
00001000
00010000
00001000
,
00000010
00000100
00000001
00000100
00000010
00000100
00000010
00000100
00001000
00000100
00001000
00000100
00000010
00010000
00000100
00010000
,
00001000
01000000
00001000
01000000
00010000
01000000
00010000
01000000
00100000
01000000
00100000
01000000
10000000
01000000
00100000
01000000
,
00001000
00010000
00000100
00010000
00001000
00010000
00001000
00010000
00100000
00010000
00100000
00010000
01000000
00010000
00001000
00010000
,
00000100
00001000
00000100
00001000
00000010
00001000
00000010
00001000
00010000
00001000
00010000
00001000
00100000
00001000
00010000
00001000
,
00000010
00000100
00000001
00000100
00000010
00000100
00000010
00000100
00001000
00000100
00001000
00000100
00000010
00010000
00000100
00010000
,
00020000
00000000
00000000
00000000
,
00031000
00000000
00000000
00000000
;

//---------------dance-double - ----------------
#NOTEDATA:;
#CHARTNAME:;
#STEPSTYPE:dance-double;
#DESCRIPTION:;
#CHARTSTYLE:;
#DIFFICULTY:Easy;
#METER:8;
#RADARVALUES:0.313288,0.273386,0.000000,0.007409,0.000000,296.000000,296.000000,0.000000,1.000000,0.000000,0.000000,0.000000,0.000000,0.000000,0.313288,0.273386,0.000000,0.007409,0.000000,296.000000,296.000000,0.000000,1.000000,0.000000,0.000000,0.000000,0.000000,0.000000;
#CREDIT:;
#DISPLAYBPM:150.000000;
#NOTES:
// measure 0
00000000
00000000
00000000
00000000
,  // measure 1
00000000
00000000
00000000
00000000
,  // measure 2
00000000
00000000
00000000
00000000
,  // measure 3
00000000
00000000
00000000
00000000
,  // measure 4
00000000
00000000
00000000
00000000
,  // measure 5
10000000
10000000
01000000
01000000
,  // measure 6
00100000
00100000
00010000
00010000
,  // measure 7
00001000
00001000
00000100
00000100
,  // measure 8
00001000
00001000
00010000
00010000
,  // measure 9
10000000
10000000
01000000
01000000
,  // measure 10
00100000
00100000
00010000
00010000
,  // measure 11
00001000
00001000
00000100
00000100
,  // measure 12
00001000
00001000
00010000
00000000
,  // measure 13
10000000
01000000
00100000
00010000
,  // measure 14
01000000
00100000
00010000
00001000
,  // measure 15
00100000
00010000
00001000
00000100
,  // measure 16
00010000
00001000
00000100
00000010
,  // measure 17
00000010
00000100
00001000
00010000
,  // measure 18
00000100
00001000
00010000
00100000
,  // measure 19
00001000
00010000
00100000
01000000
,  // measure 20
00010000
00100000
01000000
10000000
,  // measure 21
10000000
01000000
00100000
00010000
,  // measure 22
00001000
00000100
00000010
00000001
,  // measure 23
00000001
00000010
00000100
00001000
,  // measure 24
00010000
00100000
01000000
10000000
,  // measure 25
10000000
00100000
00010000
00001000
,  // measure 26
00000100
00000001
00000010
00001000
,  // measure 27
00010000
01000000
10000000
00100000
,  // measure 28
00010000
00001000
00000100
00000001
,  // measure 29
00000010
00000001
00000010
00000001
,  // measure 30
00000100
00000001
00000100
00000001
,  // measure 31
00001000
00000100
00001000
00000100
,  // measure 32
00010000
00000000
00000000
00000000
,  // measure 33
00001000
00010000
00001000
00010000
,  // measure 34
00100000
10000000
01000000
00010000
,  // measure 35
00001000
00010000
00000100
00010000
,  // measure 36
00001000
00000100
00000001
00000000
,  // measure 37
00000001
00000010
00000001
00000010
,  // measure 38
00000100
00001000
00010000
00100000
,  // measure 39
00001000
00010000
00100000
10000000
,  // measure 40
01000000
00000000
01000000
01000000
,  // measure 41
10000000
01000000
00100000
00010000
,  // measure 42
00001000
00000100
00001000
00010000
,  // measure 43
10000000
01000000
00100000
00010000
,  // measure 44
00001000
00000100
00001000
00010000
,  // measure 45
01000000
00100000
01000000
00100000
,  // measure 46
10000000
01000000
00010000
00000000
,  // measure 47
00001000
00100000
00001000
00010000
,  // measure 48
00000100
00000000
00000000
00000000
,  // measure 49
00010000
00010000
00010000
00010000
,  // measure 50
00100000
00010000
00010000
00010000
,  // measure 51
00001000
00000100
00000001
00000100
,  // measure 52
00001000
00010000
00100000
01000000
,  // measure 53
00010000
00010000
00010000
00010000
,  // measure 54
00000010
00010000
00010000
00010000
,  // measure 55
00100000
00001000
00010000
00000100
,  // measure 56
00001000
00000010
00000100
00001000
,  // measure 57
00010000
00010000
00010000
00010000
,  // measure 58
00100000
00010000
00010000
00010000
,  // measure 59
00001000
00000100
00000001
00000100
,  // measure 60
00001000
00010000
00100000
01000000
,  // measure 61
00010000
00010000
00010000
00010000
,  // measure 62
00000010
00010000
00010000
00010000
,  // measure 63
00100000
00001000
00010000
00000100
,  // measure 64
00000010
00001000
00010000
01000000
,  // measure 65
10000000
01000000
00100000
00010000
,  // measure 66
01000000
00100000
00010000
00001000
,  // measure 67
00100000
00010000
00001000
00000100
,  // measure 68
00010000
00001000
00000100
00000010
,  // measure 69
00000010
00000100
00001000
00010000
,  // measure 70
00000100
00001000
00010000
00100000
,  // measure 71
00001000
00010000
00100000
01000000
,  // measure 72
00010000
00100000
01000000
10000000
,  // measure 73
10000000
01000000
00100000
00010000
,  // measure 74
00001000
00000100
00000010
00000001
,  // measure 75
00000001
00000010
00000100
00001000
,  // measure 76
00010000
00100000
01000000
10000000
,  // measure 77
10000000
00010000
00001000
00000001
,  // measure 78
00000001
00001000
00010000
10000000
,  // measure 79
10000000
00010000
00001000
00000001
,  // measure 80
00000001
00001000
00010000
10000000
,  // measure 81
00020000
00000000
00000000
00000000
,  // measure 82
00031000
00000000
00000000
00000000
;

//---------------dance-double - ----------------
#NOTEDATA:;
#CHARTNAME:;
#STEPSTYPE:dance-double;
#DESCRIPTION:;
#CHARTSTYLE:;
#DIFFICULTY:Medium;
#METER:10;
#RADARVALUES:0.394785,0.425267,0.000000,0.007409,0.237083,373.000000,373.000000,0.000000,1.000000,0.000000,0.000000,0.000000,0.000000,0.000000,0.394785,0.425267,0.000000,0.007409,0.237083,373.000000,373.000000,0.000000,1.000000,0.000000,0.000000,0.000000,0.000000,0.000000;
#CREDIT:;
#DISPLAYBPM:150.000000;
#NOTES:
// measure 0
00000000
00000000
00000000
00000000
,  // measure 1
00000000
00000000
00000000
00000000
,  // measure 2
00000000
00000000
00000000
00000000
,  // measure 3
00000000
00000000
00000000
00000000
,  // measure 4
00000000
00000000
00000000
00000000
,  // measure 5
10000000
01000000
10000000
00000000
01000000
00000000
10000000
00000000
,  // measure 6
00100000
01000000
00100000
00000000
01000000
00000000
00100000
00000000
,  // measure 7
00010000
00001000
00010000
00000000
00001000
00000000
00010000
00000000
,  // measure 8
00000100
00001000
00000100
00000000
00010000
00000000
00100000
00000000
,  // measure 9
10000000
01000000
10000000
00000000
01000000
00000000
10000000
00000000
,  // measure 10
00100000
01000000
00100000
00000000
01000000
00000000
00100000
00000000
,  // measure 11
00010000
00001000
00010000
00000000
00001000
00000000
00010000
00000000
,  // measure 12
00000100
00001000
00000100
00000000
00010000
00000000
00100000
00000000
,  // measure 13
10000000
00000000
00000000
01000000
00000000
00000000
00100000
00000000
00000000
00010000
00000000
00000000
01000000
00000000
00000000
00000000
,  // measure 14
01000000
00000000
00000000
00100000
00000000
00000000
00010000
00000000
00000000
00001000
00000000
00000000
00100000
00000000
00000000
00000000
,  // measure 15
00100000
00000000
00000000
00010000
00000000
00000000
00001000
00000000
00000000
00000100
00000000
00000000
00010000
00000000
00000000
00000000
,  // measure 16
00010000
00000000
00000000
00001000
00000000
00000000
00000100
00000000
00000000
00000010
00000000
00000000
00001000
00000000
00000000
00000000
,  // measure 17
00000001
00000000
00000000
00000010
00000000
00000000
00000100
00000000
00000000
00001000
00000000
00000000
00000010
00000000
00000000
00000000
,  // measure 18
00000010
00000000
00000000
00000100
00000000
00000000
00001000
00000000
00000000
00010000
00000000
00000000
00000100
00000000
00000000
00000000
,  // measure 19
00000100
00000000
00000000
00001000
00000000
00000000
00010000
00000000
00000000
00100000
00000000
00000000
00001000
00000000
00000000
00000000
,  // measure 20
00001000
00000000
00000000
00010000
00000000
00000000
00100000
00000000
00000000
01000000
00000000
00000000
00010000
00000000
00000000
00000000
,  // measure 21
10000000
00000000
00000000
00100000
00000000
00000000
00010000
00000000
00000000
00001000
00000000
00000000
00000100
00000000
00000000
00000000
,  // measure 22
00000001
00000000
00000000
00000010
00000000
00000000
00001000
00000000
00000000
00010000
00000000
00000000
01000000
00000000
00000000
00000000
,  // measure 23
10000000
00000000
00000000
00100000
00000000
00000000
00010000
00000000
00000000
00001000
00000000
00000000
00000100
00000000
00000000
00000000
,  // measure 24
00000001
00000000
00000000
00000010
00000000
00000000
00001000
00000000
00000000
00010000
00000000
00000000
01000000
00000000
00000000
00000000
,  // measure 25
10000000
00000000
00000000
01000000
00000000
00000000
00100000
00000000
00000000
00010000
00000000
00000000
00001000
00000000
00000000
00000000
,  // measure 26
00000100
00000000
00000000
00000010
00000000
00000000
00000001
00000000
00000000
00000010
00000000
00000000
00000100
00000000
00000000
00000000
,  // measure 27
00001000
00000000
00000000
00010000
00000000
00000000
00100000
00000000
00000000
01000000
00000000
00000000
10000000
00000000
00000000
00000000
,  // measure 28
01000000
00000000
00000000
00100000
00000000
00000000
00010000
00000000
00000000
00001000
00000000
00000000
00000100
00000000
00000000
00000000
,  // measure 29
00000010
00000000
00000001
00000000
00000010
00000000
00000001
00000100
,  // measure 30
00000010
00000000
00000100
00000000
00000010
00000000
00000100
00001000
,  // measure 31
00010000
00000000
00001000
00000000
00010000
00000000
00001000
00100000
,  // measure 32
01000000
00000000
00000000
00000000
,  // measure 33
00000001
00000010
00000001
00000010
,  // measure 34
00000100
00001000
00000100
00000000
00010000
00001000
00010000
00000000
,  // measure 35
00100000
00100000
01000000
01000000
,  // measure 36
00100000
10000000
01000000
00100000
01000000
00000000
00000000
00000000
,  // measure 37
10000000
00100000
10000000
00100000
,  // measure 38
01000000
00000000
00010000
01000000
00010000
00000000
00001000
00010000
,  // measure 39
00001000
00000010
00000010
00000100
,  // measure 40
00000100
00000000
00000001
00000010
00000100
00001000
00000010
00000000
,  // measure 41
00000001
00000010
00000100
00001000
,  // measure 42
00010000
00100000
00010000
00001000
,  // measure 43
00000001
00000010
00000100
00001000
,  // measure 44
00010000
00000000
00100000
00000000
01000000
00000000
00100000
00010000
,  // measure 45
01000000
00000000
00100000
10000000
00000000
01000000
10000000
00000000
,  // measure 46
00100000
00010000
00001000
00000000
00010000
00000000
00001000
00000000
,  // measure 47
00010000
00000100
00000010
00000000
00001000
01000000
00100000
00000000
,  // measure 48
00010000
00000000
00000000
00000000
,  // measure 49
00010000
00000000
00010000
00010000
00000000
00010000
00010000
00000000
,  // measure 50
00001000
00000000
00001000
00001000
00000000
00001000
00001000
00000000
,  // measure 51
00010000
00100000
10000000
00100000
,  // measure 52
00010000
00001000
00010000
00000000
00000100
00000010
00000100
00000000
,  // measure 53
00010000
00000000
00010000
00010000
00000000
00010000
00010000
00000000
,  // measure 54
00001000
00000000
00001000
00001000
00000000
00001000
00001000
00000000
,  // measure 55
00010000
01000000
10000000
00100000
,  // measure 56
00010000
00000010
00000100
00000000
00000010
00010000
00001000
00000000
,  // measure 57
00010000
00000000
00010000
00010000
00000000
00010000
00010000
00000000
,  // measure 58
00001000
00000000
00001000
00001000
00000000
00001000
00001000
00000000
,  // measure 59
00010000
00100000
10000000
00100000
,  // measure 60
00010000
00001000
00010000
00000000
00000100
00000010
00000100
00000000
,  // measure 61
00010000
00000000
00010000
00010000
00000000
00010000
00010000
00000000
,  // measure 62
00001000
00000000
00001000
00001000
00000000
00001000
00001000
00000000
,  // measure 63
00010000
01000000
10000000
00100000
,  // measure 64
00010000
00000010
00000100
00001000
00010000
00001000
00010000
00100000
,  // measure 65
10000000
00000000
00000000
01000000
00000000
00000000
00100000
00000000
00000000
00010000
00000000
00000000
01000000
00000000
00000000
00000000
,  // measure 66
01000000
00000000
00000000
00100000
00000000
00000000
00010000
00000000
00000000
00001000
00000000
00000000
00100000
00000000
00000000
00000000
,  // measure 67
00100000
00000000
00000000
00010000
00000000
00000000
00001000
00000000
00000000
00000100
00000000
00000000
00010000
00000000
00000000
00000000
,  // measure 68
00010000
00000000
00000000
00001000
00000000
00000000
00000100
00000000
00000000
00000010
00000000
00000000
00001000
00000000
00000000
00000000
,  // measure 69
00000001
00000000
00000000
00000010
00000000
00000000
00000100
00000000
00000000
00001000
00000000
00000000
00000010
00000000
00000000
00000000
,  // measure 70
00000010
00000000
00000000
00000100
00000000
00000000
00001000
00000000
00000000
00010000
00000000
00000000
00000100
00000000
00000000
00000000
,  // measure 71
00000100
00000000
00000000
00001000
00000000
00000000
00010000
00000000
00000000
00100000
00000000
00000000
00001000
00000000
00000000
00000000
,  // measure 72
00001000
00000000
00000000
00010000
00000000
00000000
00100000
00000000
00000000
01000000
00000000
00000000
00010000
00000000
00000000
00000000
,  // measure 73
10000000
00000000
00000000
00100000
00000000
00000000
00010000
00000000
00000000
00001000
00000000
00000000
00000100
00000000
00000000
00000000
,  // measure 74
00000001
00000000
00000000
00000010
00000000
00000000
00001000
00000000
00000000
00010000
00000000
00000000
01000000
00000000
00000000
00000000
,  // measure 75
10000000
00000000
00000000
00100000
00000000
00000000
00010000
00000000
00000000
00001000
00000000
00000000
00000100
00000000
00000000
00000000
,  // measure 76
00000001
00000000
00000000
00000010
00000000
00000000
00001000
00000000
00000000
00010000
00000000
00000000
01000000
00000000
00000000
00000000
,  // measure 77
10000000
00000000
00000000
00010000
00000000
00000000
00001000
00000000
00000000
00000001
00000000
00000000
00001000
00000000
00000000
00000000
,  // measure 78
00010000
00000000
00000000
10000000
00000000
00000000
00010000
00000000
00000000
00001000
00000000
00000000
00000001
00000000
00000000
00000000
,  // measure 79
00001000
00000000
00000000
00010000
00000000
00000000
10000000
00000000
00000000
00010000
00000000
00000000
00001000
00000000
00000000
00000000
,  // measure 80
00000001
00000000
00000000
00001000
00000000
00000000
00010000
00000000
00000000
10000000
00000000
00000000
00010000
00000000
00000000
00000000
,  // measure 81
00020000
00000000
00000000
00000000
,  // measure 82
00031000
00000000
00000000
00000000
;

//---------------dance-double - ----------------
#NOTEDATA:;
#CHARTNAME:;
#STEPSTYPE:dance-double;
#DESCRIPTION:;
#CHARTSTYLE:;
#DIFFICULTY:Hard;
#METER:14;
#RADARVALUES:0.683730,0.637901,0.000000,0.007409,0.474165,646.000000,646.000000,0.000000,1.000000,0.000000,0.000000,0.000000,0.000000,0.000000,0.683730,0.637901,0.000000,0.007409,0.474165,646.000000,646.000000,0.000000,1.000000,0.000000,0.000000,0.000000,0.000000,0.000000;
#CREDIT:;
#DISPLAYBPM:150.000000;
#NOTES:
00000000
00000000
00000000
00000000
,
00000000
00000000
00000000
00000000
,
00000000
00000000
00000000
00000000
,
00000000
00000000
00000000
00000000
,
00000000
00000000
00000000
00000000
,
10000000
01000000
10000000
01000000
10000000
01000000
10000000
01000000
,
01000000
00100000
01000000
00100000
01000000
00100000
01000000
00100000
,
00100000
00010000
00100000
00010000
00100000
00010000
00100000
00010000
,
00010000
00001000
00010000
00001000
00010000
00001000
00010000
00100000
,
10000000
01000000
10000000
01000000
10000000
01000000
10000000
01000000
,
01000000
00100000
01000000
00100000
01000000
00100000
01000000
00100000
,
00100000
00010000
00100000
00010000
00100000
00010000
00100000
00010000
,
00010000
00001000
00010000
00001000
00010000
00001000
00010000
00100000
,
10000000
01000000
00000000
01000000
00100000
00000000
00100000
00010000
00000000
00010000
01000000
00000000
00100000
00000000
00100000
00000000
,
01000000
00100000
00000000
00100000
00010000
00000000
00010000
00001000
00000000
00001000
00100000
00000000
00010000
00000000
00010000
00000000
,
00100000
00010000
00000000
00010000
00001000
00000000
00001000
00000100
00000000
00000100
00010000
00000000
00001000
00000000
00001000
00000000
,
00010000
00001000
00000000
00001000
00000100
00000000
00000100
00000010
00000000
00000010
00001000
00000000
00000100
00000000
00000010
00000000
,
00000001
00000010
00000000
00000010
00000100
00000000
00000100
00001000
00000000
00001000
00000010
00000000
00000100
00000000
00000100
00000000
,
00000010
00000100
00000000
00000100
00001000
00000000
00001000
00010000
00000000
00010000
00000100
00000000
00001000
00000000
00001000
00000000
,
00000100
00001000
00000000
00001000
00010000
00000000
00010000
00100000
00000000
00100000
00001000
00000000
00010000
00000000
00010000
00000000
,
00001000
00010000
00000000
00010000
00100000
00000000
00100000
01000000
00000000
01000000
00010000
00000000
00100000
00000000
01000000
00000000
,
10000000
01000000
00000000
10000000
00100000
00000000
01000000
00100000
00000000
01000000
00010000
00000000
00100000
00000000
00010000
00000000
,
01000000
00100000
00000000
01000000
00010000
00000000
00100000
00010000
00000000
00100000
00001000
00000000
00010000
00000000
00001000
00000000
,
00100000
00010000
00000000
00100000
00001000
00000000
00010000
00001000
00000000
00010000
00000100
00000000
00001000
00000000
00000100
00000000
,
00010000
00001000
00000000
00010000
00000100
00000000
00001000
00000100
00000000
00001000
00000010
00000000
00000100
00000000
00000100
00000000
,
00000001
00000010
00000000
00000001
00000100
00000000
00000010
00000100
00000000
00000010
00001000
00000000
00000100
00000000
00001000
00000000
,
00000010
00000100
00000000
00000010
00001000
00000000
00000100
00001000
00000000
00000100
00010000
00000000
00001000
00000000
00010000
00000000
,
00000100
00001000
00000000
00000100
00010000
00000000
00001000
00010000
00000000
00001000
00100000
00000000
00010000
00000000
00100000
00000000
,
00001000
00010000
00000000
00001000
00100000
00000000
00010000
00100000
00000000
00010000
01000000
00000000
00100000
00000000
00100000
00000000
,
10000000
01000000
10000000
01000000
10000000
01000000
10000000
01000000
,
01000000
00100000
01000000
00100000
01000000
00100000
01000000
00100000
,
00100000
00010000
00100000
00010000
00100000
00010000
00100000
00001000
,
00010000
00000000
00000000
00000000
,
00000001
00000010
00000001
00000100
00000010
00001000
00000100
00010000
,
00001000
00100000
00010000
01000000
00100000
10000000
01000000
00000000
,
10000000
01000000
00010000
00000000
00001000
00000010
00000001
00000000
,
00000010
00000100
00001000
00000100
00000010
00000001
00000010
00000000
,
00000001
00000100
00001000
00000000
00010000
00000000
00100000
00000000
,
10000000
01000000
00010000
01000000
10000000
00000000
00100000
00000000
,
10000000
01000000
10000000
00100000
01000000
00010000
00100000
00001000
,
00010000
00000000
00001000
00000000
00000100
00000001
00000010
00000000
,
00000001
00000010
00000001
00000100
00000010
00001000
00000100
00010000
,
00001000
00100000
00010000
01000000
00100000
00010000
00001000
00000100
,
00000001
00000010
00000001
00000100
00000010
00001000
00000100
00010000
,
00001000
00100000
00010000
01000000
00100000
00010000
00001000
00000100
,
00000001
00000010
00000001
00000000
00001000
00000100
00001000
00000000
,
00000001
00000100
00001000
00010000
00001000
00000000
00010000
00000000
,
00001000
00100000
00010000
00001000
00000100
00010000
00001000
00100000
,
00010000
00000000
00001000
00000100
,
00010000
00010000
00001000
00001000
00010000
00010000
00001000
00010000
,
00001000
00001000
00010000
00010000
00001000
00001000
00010000
00001000
,
00100000
00010000
10000000
01000000
10000000
00100000
00010000
00001000
,
00010000
00001000
00000100
00000010
00000100
00001000
00100000
01000000
,
00010000
00010000
00001000
00001000
00010000
00010000
00001000
00010000
,
00001000
00001000
00010000
00010000
00001000
00001000
00010000
00001000
,
00100000
00010000
01000000
00100000
10000000
01000000
10000000
00100000
,
00010000
00001000
00010000
00000100
00000010
00000100
00001000
00010000
,
00100000
00100000
01000000
01000000
00100000
00100000
01000000
00100000
,
01000000
01000000
00100000
00100000
01000000
01000000
00100000
01000000
,
00100000
00010000
00001000
00000100
00001000
00000010
00000100
00001000
,
00010000
00100000
01000000
00010000
00100000
01000000
10000000
01000000
,
00100000
00100000
01000000
01000000
00100000
00100000
01000000
00100000
,
01000000
01000000
00100000
00100000
01000000
01000000
00100000
01000000
,
10000000
00100000
00010000
00001000
00000100
00000001
00001000
00000100
,
00000010
00000001
00000100
00001000
00010000
00100000
10000000
01000000
,
10000000
01000000
00000000
01000000
00100000
00000000
00100000
00010000
00000000
00010000
01000000
00000000
00100000
00000000
00100000
00000000
,
01000000
00100000
00000000
00100000
00010000
00000000
00010000
00001000
00000000
00001000
00100000
00000000
00010000
00000000
00010000
00000000
,
00100000
00010000
00000000
00010000
00001000
00000000
00001000
00000100
00000000
00000100
00010000
00000000
00001000
00000000
00001000
00000000
,
00010000
00001000
00000000
00001000
00000100
00000000
00000100
00000010
00000000
00000010
00001000
00000000
00000100
00000000
00000010
00000000
,
00000001
00000010
00000000
00000010
00000100
00000000
00000100
00001000
00000000
00001000
00000010
00000000
00000100
00000000
00000100
00000000
,
00000010
00000100
00000000
00000100
00001000
00000000
00001000
00010000
00000000
00010000
00000100
00000000
00001000
00000000
00001000
00000000
,
00000100
00001000
00000000
00001000
00010000
00000000
00010000
00100000
00000000
00100000
00001000
00000000
00010000
00000000
00010000
00000000
,
00001000
00010000
00000000
00010000
00100000
00000000
00100000
01000000
00000000
01000000
00010000
00000000
00100000
00000000
01000000
00000000
,
10000000
01000000
00000000
00100000
01000000
00000000
00010000
01000000
00000000
00001000
01000000
00000000
00100000
00000000
01000000
00000000
,
00100000
00010000
00000000
00001000
00010000
00000000
00000100
00010000
00000000
00000010
00010000
00000000
00001000
00000000
00010000
00000000
,
00001000
00000100
00000000
00000010
00000100
00000000
00000001
00000100
00000000
00000010
00000100
00000000
00001000
00000000
00000100
00000000
,
00000010
00001000
00000000
00000100
00001000
00000000
00010000
00001000
00000000
00100000
00001000
00000000
00010000
00000000
00100000
00000000
,
10000000
01000000
00000000
00100000
01000000
00000000
00010000
01000000
00000000
00001000
01000000
00000000
00100000
00000000
01000000
00000000
,
00100000
00010000
00000000
00001000
00010000
00000000
00000100
00010000
00000000
00000010
00010000
00000000
00001000
00000000
00010000
00000000
,
00001000
00000100
00000000
00000010
00000100
00000000
00000001
00000100
00000000
00000010
00000100
00000000
00001000
00000000
00000100
00000000
,
00000010
00001000
00000000
00000100
00001000
00000000
00010000
00001000
00000000
00100000
00001000
00000000
00010000
00000000
00100000
00000000
,
00020000
00000000
00000000
00000000
,
00031000
00000000
00000000
00000000
;
