#VERSION:0.83;
#TITLE:We are the Massive New Krew;
#SUBTITLE:-GC edit-;
#ARTIST:Massive New Krew;
#TITLETRANSLIT:;
#SUBTITLETRANSLIT:;
#ARTISTTRANSLIT:;
#GENRE:;
#ORIGIN:;
#CREDIT:;
#BANNER:We are the Massive New Krew-bn.png;
#BACKGROUND:;
#PREVIEWVID:;
#JACKET:We are the Massive New Krew-jacket.jpg;
#CDIMAGE:;
#DISCIMAGE:;
#LYRICSPATH:;
#CDTITLE:cdtitle.png;
#MUSIC:We are the Massive New Krew.mp3;
#OFFSET:1.485000;
#SAMPLESTART:30.381002;
#SAMPLELENGTH:15.000000;
#SELECTABLE:YES;
#BPMS:0.000=150.000;
#STOPS:;
#DELAYS:;
#WARPS:;
#TIMESIGNATURES:0.000=4=4;
#TICKCOUNTS:0.000=4;
#COMBOS:0.000=1;
#SPEEDS:0.000=1.000=0.000=0;
#SCROLLS:0.000=1.000;
#FAKES:;
#LABELS:0.000=Song Start;
#BGCHANGES:;
#KEYSOUNDS:;
#ATTACKS:
;

//---------------dance-single - ----------------
#NOTEDATA:;
#CHARTNAME:;
#STEPSTYPE:dance-single;
#DESCRIPTION:;
#CHARTSTYLE:;
#DIFFICULTY:Beginner;
#METER:2;
#RADARVALUES:0.140144,0.153283,0.008759,0.043795,0.000000,112.000000,111.000000,1.000000,5.000000,0.000000,0.000000,0.000000,0.000000,0.000000,0.140144,0.153283,0.008759,0.043795,0.000000,112.000000,111.000000,1.000000,5.000000,0.000000,0.000000,0.000000,0.000000,0.000000;
#CREDIT:;
#NOTES:
0000
0000
0000
0000
,
0000
0000
0000
0000
,
0000
0000
0000
0000
,
0000
0000
0000
0000
,
0000
0000
0000
0000
,
0000
0000
0000
0000
,
1000
0000
1000
0000
,
0001
0000
0001
0000
,
1000
0000
0001
0000
,
1000
0000
0000
0000
,
0010
0000
0100
0000
,
0010
0000
0100
0000
,
0001
0000
1000
0000
,
0001
0000
0001
0000
,
1000
0000
0010
0000
,
1000
0000
0010
0000
,
0100
0000
0010
0000
,
0100
0000
0000
0000
,
0002
0000
0000
0000
,
2003
0000
0000
0000
,
3001
0000
0001
0000
,
0010
0000
0001
0000
,
1000
0000
0001
0000
,
1000
0000
0001
0000
,
0100
0000
0010
0000
,
0100
0000
0010
0000
,
1000
0000
0001
0000
,
1000
0000
0000
0000
,
1000
0000
0001
0000
,
1000
0000
0010
0000
,
1000
0000
0001
0000
,
1000
0000
0100
0000
,
1000
0000
0010
0000
,
0100
0000
0010
0000
,
0100
0000
0001
0000
,
1000
0000
0000
0000
,
0002
0000
0000
0000
,
0003
0000
0000
0000
,
1000
0000
0000
0000
,
1000
0000
0000
0000
,
0010
0000
0000
0000
,
0100
0000
0100
0000
,
0001
0000
0000
0000
,
1000
0000
0000
0000
,
1000
0000
0000
0000
,
0010
0000
0010
0000
,
0000
1000
0000
1000
,
0000
0001
0000
0001
,
0000
1000
0000
1000
,
0000
0001
0000
0001
,
0100
0000
0100
0000
,
0000
0000
0000
0000
,
0010
0000
0010
0000
,
2002
0000
3003
0000
,
1000
0000
1000
0000
,
1000
0000
0010
0000
,
0100
0000
0100
0000
,
0100
0000
0001
0000
,
0010
0000
0010
0000
,
0010
0000
0100
0000
,
1000
0000
1000
0000
,
1000
0000
0001
0000
,
0100
0000
0010
0000
,
1000
0000
0010
0000
,
0100
0000
0010
0000
,
1000
0000
0001
0000
,
0100
0000
0001
0000
,
1000
0000
0001
0000
,
0010
0000
0100
0000
,
1000
0000
1000
0000
,
0001
0000
0000
0000
;

//---------------dance-single - ----------------
#NOTEDATA:;
#CHARTNAME:;
#STEPSTYPE:dance-single;
#DESCRIPTION:;
#CHARTSTYLE:;
#DIFFICULTY:Easy;
#METER:6;
#RADARVALUES:0.277786,0.306566,0.017518,0.131385,0.000000,222.000000,220.000000,2.000000,15.000000,0.000000,0.000000,0.000000,0.000000,0.000000,0.277786,0.306566,0.017518,0.131385,0.000000,222.000000,220.000000,2.000000,15.000000,0.000000,0.000000,0.000000,0.000000,0.000000;
#CREDIT:;
#NOTES:
0000
0000
0000
0000
,
0000
0000
0000
0000
,
0000
0000
0000
0000
,
0000
0000
0000
0000
,
0000
0000
0000
0000
,
0000
0000
0000
0000
,
1000
0001
1000
0001
,
0100
0010
0100
0010
,
1000
0100
0010
0001
,
0100
0000
0000
0000
,
0001
0100
0001
0100
,
0010
1000
0010
0100
,
0001
1000
0001
1000
,
0100
0010
0001
0001
,
0010
0100
0010
0100
,
1000
0001
1000
0001
,
0100
0010
1000
0010
,
0200
0000
0320
0000
,
1030
0000
1000
0000
,
0002
2003
3002
0000
,
1003
0100
1000
0010
,
1000
0100
0010
0001
,
1000
0001
0100
0001
,
0010
0001
0010
0100
,
1000
0010
1000
0001
,
1000
0100
1000
0010
,
0100
0001
0100
0010
,
1000
0001
1000
0000
,
0001
0010
0001
0010
,
0100
1000
0010
0100
,
0001
1000
0001
1000
,
0010
0100
0001
1000
,
0100
0010
0001
1000
,
0100
0010
0001
1000
,
0010
0100
0001
1000
,
0020
0000
0230
0000
,
0320
0000
0000
0000
,
0030
0000
0000
1000
,
0100
0000
0100
0000
,
0100
0000
0100
0010
,
0001
0000
0001
0000
,
1000
0100
0001
0100
,
1000
0000
1000
0000
,
1000
0000
1000
0010
,
0100
0000
0100
0000
,
0100
0100
0100
0100
,
0000
0001
0001
0001
,
0000
0010
0010
0010
,
0001
1000
1000
1000
,
0000
0001
0001
0001
,
0200
0000
0320
0000
,
1030
0001
1000
0001
,
0200
0000
0320
0000
,
2030
3002
2003
0000
,
3001
0100
0001
0100
,
0010
1000
0100
0010
,
0001
1000
0001
1000
,
0010
0000
0100
0000
0001
0001
0000
0000
,
1000
0010
1000
0100
,
1000
0001
0100
0010
,
1000
0001
1000
0001
,
0010
0100
1000
0000
,
0001
0100
0001
1000
,
0001
0000
0001
1001
,
1000
0100
1000
0100
,
0010
0010
0010
0010
,
0001
1000
0010
0100
,
0001
1000
0010
0100
,
0001
0010
0100
1000
,
0010
0010
0010
0010
,
1001
0000
0000
0000
;

//---------------dance-single - ----------------
#NOTEDATA:;
#CHARTNAME:;
#STEPSTYPE:dance-single;
#DESCRIPTION:;
#CHARTSTYLE:;
#DIFFICULTY:Medium;
#METER:11;
#RADARVALUES:0.470485,0.521162,0.411674,0.070072,0.000000,376.000000,329.000000,47.000000,8.000000,0.000000,0.000000,0.000000,0.000000,0.000000,0.470485,0.521162,0.411674,0.070072,0.000000,376.000000,329.000000,47.000000,8.000000,0.000000,0.000000,0.000000,0.000000,0.000000;
#CREDIT:;
#NOTES:
0000
0000
0000
0000
,
0000
0000
0000
0000
,
0000
0000
0000
0000
,
0000
0000
0000
0000
,
0000
0000
0000
0000
,
0000
0000
0000
0000
,
1000
0001
1000
0001
1000
0001
1000
0001
,
1000
0001
1000
0001
1000
0001
1000
0001
,
0100
0010
1000
0001
0100
0010
1000
0001
,
0010
0010
0010
0010
,
0001
1000
0100
0000
0010
0000
0010
0000
,
0001
0000
0100
0001
0100
0001
0000
1000
,
0000
0010
0010
0000
0100
0000
1001
0000
,
0010
0000
1000
0100
1000
0010
0000
0100
,
0001
0001
1000
0000
0100
0000
1001
0000
,
0010
0000
0100
0001
1000
0010
0000
0100
,
0000
0001
1000
0000
0001
0000
1100
0000
,
0020
0230
0320
2030
,
3002
0000
0203
0000
,
0301
1100
0101
0000
,
0001
1000
0100
0000
0010
0000
0001
0000
,
1000
0000
0010
1000
0001
1000
0000
0100
,
0000
0010
0010
0000
0100
0000
1001
0000
,
0010
0000
1000
0100
1000
0010
0000
0100
,
0000
0001
0001
0000
1000
0000
0100
0000
,
0010
0000
0001
1000
0010
0100
0000
0001
,
0000
1000
0100
0000
0001
0000
1010
0000
,
0100
0000
0010
0100
0010
0100
0000
1000
,
1001
0001
0100
0010
,
1000
0000
0001
0010
0100
1000
0000
0001
,
0000
1000
0010
0000
0101
0000
0001
0000
,
1000
0000
0010
1000
0001
0010
0000
0100
,
1000
0001
1000
0001
1000
0001
1000
0001
,
0100
0010
1000
0001
0100
0010
1000
0001
,
0010
0100
1000
0010
0100
0001
0010
0100
,
1000
0000
1000
0000
0001
0001
0001
0000
,
0220
0000
0000
0000
,
0330
0000
0000
1001
,
0001
0000
0001
0000
1000
0000
1000
0100
,
0001
0010
0010
1000
,
0000
0000
0001
0000
1000
0000
0001
1000
,
0100
0000
0010
0000
0001
1000
0001
1000
,
0000
0010
0010
0000
0100
0000
0010
0000
,
0001
0000
0100
0000
1000
0001
0000
1000
,
0000
0010
0010
0000
1000
0000
0001
1000
,
0100
0100
0101
0010
,
0000
1000
1100
0001
,
0000
0001
0101
1000
,
0010
1010
0100
0001
,
0000
0010
0101
0100
,
0001
1000
0001
1000
0010
1000
0010
1000
,
0100
0010
0001
0010
0100
1000
0010
0100
,
0001
1000
0001
1000
0010
0100
0010
0100
,
0001
1100
0101
0000
,
1001
1001
1100
1100
,
1010
0000
0101
0000
0011
0000
1000
0001
,
1000
1010
1001
1001
,
0101
0000
1001
0000
0100
0100
0000
0000
,
0101
0101
1100
1100
,
1010
0000
0101
0000
1001
0000
1000
0001
,
1000
0011
1100
1001
,
0110
0000
0101
0000
0001
1000
0001
1000
,
0010
0100
0010
0000
1000
0000
1000
0100
,
0001
0000
0001
0000
0100
1000
0000
1001
,
0000
0010
0010
0000
1001
0000
0100
0100
,
0010
0000
0001
0000
1000
0001
1000
0001
,
1000
0010
0100
0001
0010
0100
1000
0001
,
0100
0010
1000
0100
0010
0001
0100
0001
,
1000
0100
0010
0001
0100
0010
1000
0100
,
1000
0101
0001
1010
,
1001
0000
0000
0000
;

//---------------dance-single - ----------------
#NOTEDATA:;
#CHARTNAME:;
#STEPSTYPE:dance-single;
#DESCRIPTION:;
#CHARTSTYLE:;
#DIFFICULTY:Hard;
#METER:14;
#RADARVALUES:0.668188,1.011667,0.648168,0.061313,0.389776,534.000000,460.000000,74.000000,7.000000,0.000000,0.000000,0.000000,0.000000,0.000000,0.668188,1.011667,0.648168,0.061313,0.389776,534.000000,460.000000,74.000000,7.000000,0.000000,0.000000,0.000000,0.000000,0.000000;
#CREDIT:;
#NOTES:
// measure 0
0000
0000
0000
0000
,  // measure 1
0000
0000
0000
0000
,  // measure 2
0000
0000
0000
0000
,  // measure 3
0000
0000
0000
0000
,  // measure 4
0000
0000
0000
0000
,  // measure 5
0000
0000
0000
0000
,  // measure 6
1000
0001
1000
0001
1000
0001
1000
0001
,  // measure 7
1000
0001
1000
0001
1000
0001
1000
0001
,  // measure 8
1000
0010
0100
0001
1000
0010
0100
0001
1000
0010
0100
0001
1000
0010
0100
0001
,  // measure 9
1000
0000
1000
0000
0010
1000
0000
0001
,  // measure 10
1000
0100
1000
0000
1010
0000
1001
0000
,  // measure 11
1100
0000
0001
0100
0010
0100
0000
0001
,  // measure 12
0000
1000
0100
0000
1001
0000
1100
0000
,  // measure 13
0011
0000
0001
0100
0010
1000
0000
0001
,  // measure 14
0100
0010
1010
0000
1001
0000
1100
0000
,  // measure 15
1001
0000
0010
0100
0001
0010
0000
0010
,  // measure 16
0000
0001
1000
0000
1001
0000
1100
0000
,  // measure 17
0020
0000
0001
0000
0100
0100
0130
0000
,  // measure 18
2002
3003
2200
3300
,  // measure 19
0001
0000
0100
0000
1000
0000
0100
0000
0001
0000
0000
0000
1000
0000
0100
1000
,  // measure 20
0100
0011
0110
1010
,  // measure 21
1001
0000
0101
0000
1000
0100
1000
0001
,  // measure 22
1000
0010
0110
0000
0101
0000
1001
0000
,  // measure 23
0110
0000
0011
0000
1100
0100
0010
0001
,  // measure 24
1100
1010
0110
0000
0101
0000
1100
0000
,  // measure 25
1001
0000
1010
0001
0100
0010
0000
0100
,  // measure 26
0010
0010
0001
0000
1001
0000
0110
0000
,  // measure 27
0001
1000
0001
1000
0100
0100
0000
1000
,  // measure 28
1001
0000
0001
0100
1000
0000
0000
0000
0101
0000
0000
0000
1100
0000
0000
0000
,  // measure 29
0011
0000
0001
0010
0100
1000
0001
0100
,  // measure 30
0010
1000
1010
0000
0101
0000
1001
0000
,  // measure 31
0001
0010
0100
1000
0010
0100
0001
1000
,  // measure 32
0010
0100
0010
0100
0001
0100
0001
1000
0010
1000
0010
1000
0100
1000
0100
1000
,  // measure 33
0001
0010
0001
0010
0100
0010
0100
1000
0100
1000
0010
0100
0001
0100
0001
1000
,  // measure 34
0010
0100
0001
1000
0010
0100
0001
1000
0010
0100
0001
1000
0100
0010
0001
0100
,  // measure 35
0010
0000
0010
0000
1000
1000
1000
0000
,  // measure 36
2002
0000
0000
3003
,  // measure 37
0001
0001
0001
1001
,  // measure 38
1000
0000
1000
0000
0001
0000
0000
0000
1000
0000
0000
0000
0010
0000
0010
1000
,  // measure 39
0010
0000
0001
0000
0100
0100
0000
1001
,  // measure 40
0000
0001
0001
0000
0010
0000
0001
1000
,  // measure 41
0001
0000
0001
0000
1000
0100
0001
0100
,  // measure 42
0000
0000
0010
0000
0010
0000
0000
0000
1001
0000
0000
0000
0001
0000
0001
1000
,  // measure 43
0001
0000
0010
0000
0100
0010
0000
1001
,  // measure 44
0000
0100
0100
0000
1001
0000
0010
0100
,  // measure 45
0001
0000
1001
0000
0100
0010
0001
0010
,  // measure 46
0100
1100
0001
0101
,  // measure 47
1000
1100
0001
0101
,  // measure 48
0011
1000
1010
0001
,  // measure 49
0011
1000
1001
0110
,  // measure 50
0001
0100
0001
0100
0010
1000
0010
1000
0001
0100
0001
0100
0010
1000
0010
1000
,  // measure 51
0100
0010
0001
0010
0100
1000
0010
0100
0001
1000
0010
0100
0001
1000
0100
0010
,  // measure 52
0001
1000
0001
1000
0010
1000
0010
0100
0001
0100
0001
1000
0100
0010
0001
0010
,  // measure 53
0001
0100
1000
0100
0001
0000
1000
0000
,  // measure 54
1001
0000
0100
0000
1000
0000
0000
0000
0001
0000
0000
0000
1000
0000
0010
0100
,  // measure 55
0001
0000
1100
0000
0010
0001
1000
0001
,  // measure 56
0000
1000
0010
0000
0101
0000
1000
0100
,  // measure 57
0010
0000
0001
0000
1000
0001
1000
0001
,  // measure 58
0100
0000
0010
0000
0110
0000
0000
0000
1001
0000
0000
0000
0001
0000
1000
0010
,  // measure 59
1000
0000
0101
0000
0001
0010
0100
1000
,  // measure 60
0001
1000
1010
0000
0101
0000
0001
0010
,  // measure 61
0100
0000
0100
0000
0010
0100
0010
0001
,  // measure 62
1100
0000
0010
0100
0001
0000
0000
0000
1100
0000
0000
0000
0101
0000
0010
1000
,  // measure 63
0010
0000
0100
0000
0001
0010
0001
0010
,  // measure 64
0100
0000
1000
0000
1001
0000
0000
0000
0110
0000
0000
0000
0001
0000
1000
0010
,  // measure 65
0100
0000
0101
0000
1000
0100
0001
1000
,  // measure 66
0010
1000
0010
1000
0001
1000
0001
1000
0100
1000
0100
1000
0010
1000
0010
0100
,  // measure 67
0001
0010
0100
0010
0001
1000
0010
0100
0001
1000
0010
0100
0001
1000
0010
1000
,  // measure 68
0001
1000
0100
0010
0001
0010
0100
1000
0010
0100
0001
1000
0010
1000
0100
0010
,  // measure 69
0001
0001
1100
0101
,  // measure 70
1001
0000
0000
0000
;

//---------------dance-double - ----------------
#NOTEDATA:;
#CHARTNAME:;
#STEPSTYPE:dance-double;
#DESCRIPTION:;
#CHARTSTYLE:;
#DIFFICULTY:Easy;
#METER:7;
#RADARVALUES:0.284043,0.306566,0.035036,0.070072,0.000000,227.000000,223.000000,4.000000,8.000000,0.000000,0.000000,0.000000,0.000000,0.000000,0.284043,0.306566,0.035036,0.070072,0.000000,227.000000,223.000000,4.000000,8.000000,0.000000,0.000000,0.000000,0.000000,0.000000;
#CREDIT:;
#NOTES:
00000000
00000000
00000000
00000000
,
00000000
00000000
00000000
00000000
,
00000000
00000000
00000000
00000000
,
00000000
00000000
00000000
00000000
,
00000000
00000000
00000000
00000000
,
00000000
00000000
00000000
00000000
,
00001000
00010000
00001000
00010000
,
00001000
00010000
00001000
00010000
,
00001000
00000000
00010000
00000000
00001000
00000000
00010000
00001000
,
00010000
00000000
00000000
00000000
,
01000000
00100000
10000000
10000000
,
00010000
00100000
00001000
00010000
,
00000100
00000010
00000001
00000001
,
00000100
00000010
00000100
00001000
,
00010000
00000100
00001000
00001000
,
00000100
00010000
00001000
00010000
,
00100000
01000000
00010000
00010000
,
20000000
00000000
30200000
00000000
,
01300000
00000000
01000000
00000000
,
00010000
10000000
10010000
00000000
,
10000000
00100000
10000000
00100000
,
01000000
00010000
01000000
00010000
,
00100000
00001000
00100000
00001000
,
00010000
00000100
00000010
00000001
,
00001000
00000001
00001000
00000000
00000010
00000000
00000100
00000000
,
00000010
00010000
00000100
00001000
,
00000100
00001000
00010000
00100000
,
02000000
00000000
23000000
00000000
,
30010000
10000000
00100000
10000000
,
01000000
10000000
00100000
01000000
,
00001000
00010000
00001000
00010000
,
00000100
00000010
00000001
00001000
,
00000010
00001000
00010000
00100000
,
01000000
10000000
00100000
00010000
,
00001000
00000100
00000001
00000010
,
00001000
00000000
00000000
00000000
00010000
00001000
00010000
00000000
,
00022000
00000000
00000000
00000000
,
00000000
00000000
00000000
00033000
,
00001000
00000000
00010000
00000000
,
00100000
00000000
10000000
10000000
,
00000000
00010000
00000000
01000000
,
00000000
00001000
00010000
00001000
,
00000000
00010000
00000000
00000100
,
00000000
00000010
00000001
00000001
,
00000000
00001000
00000000
00000001
,
00000000
00000100
00000010
00000010
,
00000000
00001000
00001000
00001000
,
00000000
00010000
00010000
00010000
,
00000000
10000000
10000000
10000000
,
00000000
00100000
00100000
00100000
,
10000000
00100000
00010000
00001000
,
00000100
00000001
00000010
00000100
,
00001000
00010000
00100000
10000000
,
00100000
00100000
00100000
00000000
,
00010000
00010000
01000000
01000000
,
00010000
00000000
00010000
00000000
00100000
00000000
00001000
00010000
,
00001000
00010000
00000100
00001000
,
00000010
00000000
00000100
00000000
00000010
00000010
00000000
00000000
,
00000001
00001000
00000001
00001000
,
00000100
00000000
00000010
00000000
00001000
00000000
00010000
00001000
,
00010000
00001000
00100000
00001000
,
00100000
01000000
20000000
00000000
,
30010000
10100000
00100000
01000000
,
00010000
00000000
00010000
00010000
,
01000000
00001000
00010000
00001000
,
00200000
00000000
01000000
01300000
,
10000000
00100000
00010000
00001000
,
00000100
00000001
00000010
00000100
,
00001000
00010000
10000000
00100000
,
01000000
00000000
01000000
01000000
,
10010000
00000000
00000000
00000000
;

//---------------dance-double - ----------------
#NOTEDATA:;
#CHARTNAME:;
#STEPSTYPE:dance-double;
#DESCRIPTION:;
#CHARTSTYLE:;
#DIFFICULTY:Medium;
#METER:11;
#RADARVALUES:0.447961,0.521162,0.508023,0.043795,0.000000,358.000000,300.000000,58.000000,5.000000,0.000000,0.000000,0.000000,0.000000,0.000000,0.447961,0.521162,0.508023,0.043795,0.000000,358.000000,300.000000,58.000000,5.000000,0.000000,0.000000,0.000000,0.000000,0.000000;
#CREDIT:;
#NOTES:
00000000
00000000
00000000
00000000
,
00000000
00000000
00000000
00000000
,
00000000
00000000
00000000
00000000
,
00000000
00000000
00000000
00000000
,
00000000
00000000
00000000
00000000
,
00000000
00000000
00000000
00000000
,
00001000
00010000
00001000
00010000
,
00001000
00010000
00001000
00010000
,
00001000
00010000
00001000
00010000
00001000
00010000
00001000
00010000
,
00100000
00100000
00100000
00100000
,
10000000
00010000
10000000
00000000
11000000
00000000
01010000
00000000
,
00100000
00000000
01000000
00000000
00010000
00100000
00000000
00010000
,
00000000
01000000
00001000
00000000
00010100
00000000
00001100
00000000
,
00000010
00000000
00000001
00000000
00000100
00000010
00000000
00001000
,
00000000
00000001
00000001
00000000
00000100
00000000
00000010
00000000
,
00010000
00000000
00100000
00000000
01000000
00010000
00000000
01000000
,
00000000
00100000
10000000
00000000
10010000
00000000
10010000
00000000
,
00200000
00000000
01000000
01300000
,
10010000
00000000
01100000
00000000
,
10000000
00000000
00010000
00000000
10010000
00000000
00000000
10000000
,
00100000
01100000
00010000
00110000
,
00001000
00011000
00000010
00000110
,
00001000
00001100
00010000
00011000
,
00100000
01100000
10000000
10010000
,
00100000
00001000
00010000
00000000
00000100
00000000
00001100
00000000
,
00000010
00000011
00001000
00001100
,
00010000
00011000
01000000
01100000
,
10000000
01000000
00100000
00010000
00001000
00000100
00000000
00000000
,
00000001
00000101
00001000
00001100
,
00010000
00011000
01000000
01100000
,
00001000
00011000
00000100
00001100
,
00000010
00000001
00000010
00000100
00001000
00010000
00000000
00010000
,
10000000
00100000
01000000
00010000
10000000
00100000
01000000
00010000
,
10000000
00100000
01000000
00010000
10000000
00100000
01000000
00010000
,
00100000
00001000
00010000
00000100
00001000
00000010
00000100
00000001
,
00000020
00000000
00000100
00000130
,
00002002
00000000
00000000
00000000
,
00000000
00000000
00000000
00003003
,
00000001
00000100
00000001
00000100
,
00000001
00000000
00000001
00000000
00001000
00001000
00000000
00001000
,
00000000
00010000
00001000
00010000
,
00001000
00000000
00010000
00000000
00100000
01000000
00100000
01000000
,
00000000
00010000
10000000
01000000
,
10000000
00000000
00010000
00000000
00100000
00100000
00000000
00001000
,
00000000
01000000
00100000
01000000
,
00010000
00000000
10010000
10010000
,
10000000
00100000
00010000
00000100
,
00000000
00000010
00001000
00010000
,
00100000
10000000
00010000
00001000
,
00000000
00000001
00001000
00001001
,
00000001
00000010
00000100
00001000
00000001
00000010
00000100
00001000
,
00000010
00000100
00001000
00010000
00000100
00001000
00010000
00100000
,
01000000
10000000
00100000
01000000
00010000
01000000
00100000
10000000
,
01000000
01000000
10010000
00000000
,
10100000
10100000
01010000
01010000
,
00011000
00000000
00011000
00000000
00001100
00000000
00000010
00000001
,
00000010
00000101
00001100
00001100
,
00010100
00000000
00010100
00000000
00010000
00001000
00010000
00001000
,
00000000
00110000
11000000
10010000
,
10100000
00000000
01010000
00000000
00011000
00000000
00001000
00010000
,
00001000
00001100
00000011
00001100
,
00000020
00000100
00001030
00001000
,
00000001
00000010
00000100
00000000
00001100
00000000
00010000
00000000
,
00100000
00000000
10000000
00000000
00010000
00010000
00000000
10000000
,
00000000
00100000
01000000
00000000
10010000
00000000
01100000
00000000
,
00010000
00000000
00100000
00000000
00001000
00010000
00001000
00010000
,
00000100
00000010
00000001
00000010
00000100
00001000
00010000
00100000
,
01000000
10000000
00100000
01000000
00010000
00100000
00001000
00010000
,
00000100
00000010
00000001
00001000
00000100
00100000
00010000
10000000
,
00100000
00100000
01000000
01000000
,
10010000
00000000
00000000
00000000
;

//---------------dance-double - ----------------
#NOTEDATA:;
#CHARTNAME:;
#STEPSTYPE:dance-double;
#DESCRIPTION:;
#CHARTSTYLE:;
#DIFFICULTY:Hard;
#METER:14;
#RADARVALUES:0.629398,1.011667,0.490505,0.026277,0.389776,503.000000,447.000000,56.000000,3.000000,0.000000,0.000000,0.000000,0.000000,0.000000,0.629398,1.011667,0.490505,0.026277,0.389776,503.000000,447.000000,56.000000,3.000000,0.000000,0.000000,0.000000,0.000000,0.000000;
#CREDIT:;
#NOTES:
00000000
00000000
00000000
00000000
,
00000000
00000000
00000000
00000000
,
00000000
00000000
00000000
00000000
,
00000000
00000000
00000000
00000000
,
00000000
00000000
00000000
00000000
,
00000000
00000000
00000000
00000000
,
00001000
00010000
00001000
00010000
00001000
00010000
00001000
00010000
,
00001000
00010000
00001000
00010000
00001000
00010000
00001000
00010000
,
00001000
00010000
00001000
00010000
00001000
00010000
00001000
00010000
00001000
00010000
00001000
00010000
00001000
00010000
00001000
00010000
,
00001000
00000000
00001000
00000000
00010000
00100000
00000000
10000000
,
00010000
01000000
01100000
00000000
10010000
00000000
01100000
00000000
,
10010000
00000000
00001000
00010000
00000100
00010000
00000000
00001000
,
00000000
00010000
00000100
00000000
00000101
00000000
00001100
00000000
,
00000010
00000000
00001000
00010000
00000100
00010000
00000000
00011000
,
00000000
01000000
00100000
00000000
10010000
00000000
01100000
00000000
,
10010000
00000000
00100000
00010000
00001000
00010000
00000000
00010100
,
00000000
00001000
00100000
00000000
00110000
00000000
00011000
00000000
,
00000100
00001000
00000010
00000100
00000001
00000010
00000000
00000100
,
00001001
00000000
00001001
00000000
,
00000001
00000000
00000100
00000000
00001000
00000000
00000100
00000000
00000001
00000000
00000000
00000000
00001000
00000000
00000010
00001000
,
00000010
00001100
00010000
00011000
,
00100000
01100000
10000000
10100000
,
01000000
01010000
00100000
00011000
,
00000100
00000000
00010100
00000000
00001000
00000010
00000100
00000001
,
00000011
00001100
00001010
00000000
00001000
00000000
00011000
00000000
,
00100000
01100000
10000000
10010000
,
10000000
00100000
01010000
00000000
00001000
00000000
00011000
00000000
,
00000100
00000010
00001000
00010000
00100000
01000000
00000000
00010000
,
11000000
00000000
00100000
00010000
01000000
00000000
00000000
00000000
00100000
00000000
00000000
00000000
01000000
00000000
00000000
00000000
,
00010000
00000000
00100000
00001000
00010000
00001000
00000000
00010100
,
00000000
00000010
00000100
00000000
00001001
00000000
00000110
00000000
,
00000001
00000010
00001000
00010000
00100000
10000000
00010000
00100000
,
01000000
10000000
01000000
10000000
00100000
10000000
00100000
10000000
00010000
10000000
00010000
00100000
01000000
00100000
01000000
00100000
,
00010000
00100000
00010000
00100000
00001000
00010000
00001000
00010000
00000100
00001000
00000100
00001000
00000010
00000100
00000010
00000100
,
00000001
00000010
00000100
00001000
00000001
00000010
00000100
00001000
00000001
00000010
00000100
00001000
00000001
00000010
00000100
00001000
,
00000002
00000000
00000000
00000000
00000100
00000100
00000103
00000000
,
00002002
00000000
00000000
00000000
,
00000000
00000000
00000000
00003003
,
00000001
00000000
00001000
00000000
00000010
00000000
00000000
00000000
00000100
00000000
00000000
00000000
00000010
00000000
00001000
00000100
,
00001000
00000000
00000100
00000000
00010000
00010000
00000000
01010000
,
00000000
10000000
00100000
00000000
10000000
00000000
10000000
00010000
,
10000000
00000000
00100000
00000000
10000000
00100000
00010000
00001000
,
00000000
00000000
00010000
00000000
00000100
00000000
00000000
00000000
00001100
00000000
00000000
00000000
00000001
00000000
00000010
00000100
,
00000010
00000000
00000100
00000000
00001000
00001000
00000000
01010000
,
00000000
01000000
00100000
00000000
10000000
00000000
10000000
00010000
,
00100000
00000000
01000000
00000000
10000000
00010000
10000000
00010000
,
10000000
11000000
00010000
01010000
,
10000000
10100000
00010000
00110000
,
00001000
00001100
00000001
00000011
,
00001000
00001100
01000000
01010000
,
00010000
10000000
00010000
10000000
00100000
10000000
00100000
10000000
01000000
10000000
01000000
10000000
00100000
10000000
00100000
01000000
,
00010000
01000000
00100000
10000000
00010000
01000000
00100000
10000000
00010000
01000000
00100000
10000000
00010000
01000000
00100000
10000000
,
00010000
00100000
00010000
00100000
00001000
00010000
00001000
00010000
00000100
00001000
00000100
00001000
00000010
00000100
00000010
00000100
,
00000001
00000010
00000100
00001000
00000010
00000000
00000100
00000000
,
00000001
00000000
00000010
00000000
00000100
00000000
00000000
00000000
00001000
00000000
00000000
00000000
00000100
00000000
00010000
00001000
,
00010000
00000000
00100000
00000000
10000000
00010000
00100000
00001000
,
00010000
00001000
00010000
00000000
01100000
00000000
10000000
00010000
,
00100000
00000000
01000000
00000000
10000000
00010000
10000000
00010000
,
00000000
00000000
01000000
00000000
00001000
00000000
00000000
00000000
00011000
00000000
00000000
00000000
00000100
00000000
00000010
00000001
,
00001000
00000000
00000010
00000000
00000100
00000100
00000000
00001001
,
00000000
00000010
00000100
00000000
00001001
00000000
00000100
00001000
,
00010000
00000000
00001000
00000000
01000000
00100000
10000000
00010000
,
01100000
00000000
10000000
00010000
01000000
00000000
00000000
00000000
10100000
00000000
00000000
00000000
00100000
00000000
00010000
00100000
,
00001000
00000000
00010000
00000000
00001000
00010000
00000100
00000010
,
00000001
00000000
00000100
00000000
00000110
00000000
00000000
00000000
00000001
00000000
00000000
00000000
00001000
00000000
00000100
00010000
,
00000100
00000000
00010000
00000000
00001000
01000000
00100000
10000000
,
00010000
10000000
00010000
10000000
01000000
10000000
01000000
10000000
00100000
10000000
00100000
10000000
00010000
10000000
00010000
10000000
,
00100000
01000000
00010000
10000000
00100000
01000000
00010000
10000000
00100000
10000000
01000000
00100000
00010000
01000000
00001000
00100000
,
00001000
00010000
00000100
00010000
00001000
00100000
00001000
00100000
00010000
10000000
00100000
01000000
00100000
10000000
00010000
01000000
,
00100000
00100000
11000000
01010000
,
10010000
00000000
00000000
00000000
;

//---------------dance-couple - ----------------
#NOTEDATA:;
#CHARTNAME:;
#STEPSTYPE:dance-couple;
#DESCRIPTION:;
#CHARTSTYLE:;
#DIFFICULTY:Easy;
#METER:7;
#RADARVALUES:0.297807,0.306566,0.113867,0.026277,0.000000,238.000000,225.000000,13.000000,3.000000,0.000000,0.000000,0.000000,0.000000,0.000000,0.296555,0.306566,0.105108,0.026277,0.000000,237.000000,225.000000,12.000000,3.000000,0.000000,0.000000,0.000000,0.000000,0.000000;
#CREDIT:;
#NOTES:
00000000
00000000
00000000
00000000
,
00000000
00000000
00000000
00000000
,
00000000
00000000
00000000
00000000
,
00000000
00000000
00000000
00000000
,
00000000
00000000
00000000
00000000
,
00000000
00000000
00000000
00000000
,
00100100
01000010
00100100
01000010
,
00100100
01000010
00100100
01000010
,
00100100
00000000
01000010
00000000
00100100
00000000
01000010
00100100
,
01000010
01000010
00011000
10000001
,
01000010
10000100
01001000
01001000
,
10000001
00101000
10000100
00010100
,
00100010
00010001
00100100
00100100
,
01000001
00100010
00010001
00000001
,
10001000
00100010
10001000
10001000
,
01000100
00100010
01000100
01000100
,
00100010
00010001
10001000
10001000
,
10011001
00000000
00100001
00100001
,
10011001
00000000
10010101
00000000
,
00101001
01000100
10010010
00000000
,
00010001
00100100
01000001
10000100
,
01000001
00100100
00010010
00101000
,
01000100
10000010
01000100
00100010
,
00010100
00101000
00010010
01000000
,
00010100
10000001
00010100
00000000
01000001
00000000
00101000
00000000
,
10000001
00011000
01000010
00100100
,
10000001
01001000
00100001
00010010
,
20000200
00000000
30202300
00000000
,
10303001
10101001
10000001
00011000
,
01000010
00010100
01000001
00100100
,
10000010
01001000
10000100
01000010
,
00100001
00011000
10000001
00011000
,
00100010
00010100
00100010
01000100
,
00100001
10000100
00100010
01000100
,
00101000
00010100
10000001
00100010
,
01000100
00000000
00011000
00011000
,
10011001
00000000
00000000
00000000
,
02000020
00000000
00000000
03100130
,
10000001
00000000
10000001
00000000
,
10000001
00000000
10001000
00001000
,
00010010
00000000
00010010
00000000
,
00010010
00000000
00011000
00010100
,
00000001
00100010
00001000
00100000
,
00001000
00100000
00000001
00100001
,
00000000
01000010
00000000
01000010
,
00000000
01000001
00000100
01000100
,
00000000
10000001
10000000
10000001
,
00000000
00011000
00010000
00011000
,
01100000
10000010
10000000
10000010
,
00000000
00010100
00010100
00010100
,
10000001
00101000
01000001
00011000
,
00100010
01000100
10000001
00100010
,
01000100
00011000
00100001
01001000
,
10000010
10000010
10011001
00000000
,
00011000
01000001
10001000
01000001
,
00010010
00000000
00100100
00000000
00011000
00000000
00010100
10001000
,
00010100
10000010
00010001
01000010
,
00100100
00000000
10001000
00000000
00010001
00010001
00000000
00000000
,
00100100
01000010
10000100
01000001
,
10000010
00000000
00100100
00000000
01000010
00000000
00010001
10001000
,
00010001
00100100
00010010
00100100
,
01000001
10001000
00100010
00100010
,
10001000
10011001
00000000
00010001
,
01010101
01000100
00100010
00100010
,
00000000
10011001
00000000
00010001
,
01010101
10001000
00100010
00100010
,
10001000
00010001
00100010
01000100
,
10001000
00010001
01000100
00100010
,
10001000
10000001
00010010
00010100
,
10001000
00000000
01000100
01000100
,
10011001
00000000
00000000
00000000
;

//---------------dance-couple - ----------------
#NOTEDATA:;
#CHARTNAME:;
#STEPSTYPE:dance-couple;
#DESCRIPTION:;
#CHARTSTYLE:;
#DIFFICULTY:Medium;
#METER:11;
#RADARVALUES:0.380392,0.521162,0.332843,0.026277,0.000000,304.000000,266.000000,38.000000,3.000000,0.000000,0.000000,0.000000,0.000000,0.000000,0.380392,0.521162,0.306566,0.026277,0.000000,304.000000,269.000000,35.000000,3.000000,0.000000,0.000000,0.000000,0.000000,0.000000;
#CREDIT:;
#NOTES:
00000000
00000000
00000000
00000000
,
00000000
00000000
00000000
00000000
,
00000000
00000000
00000000
00000000
,
00000000
00000000
00000000
00000000
,
00000000
00000000
00000000
00000000
,
00000000
00000000
00000000
00000000
,
00100100
01000010
00100100
01000010
,
00100100
01000010
00100100
01000010
,
00011000
10000001
00011000
10000001
00011000
10000001
00011000
10000001
,
00100100
00100100
10000001
00011000
,
10000001
01000100
10000001
00000000
10101010
00000000
10011001
00000000
,
00100010
00000000
00010001
00000000
01000100
00000010
00100000
00001000
,
10000000
00010001
10001000
00000000
00110001
00000000
11000100
00000000
,
10000010
00000000
00101000
00000001
01000010
01000100
00000000
00000000
,
00011000
00000001
01000100
00000000
00011001
00000000
10001100
00000000
,
01000010
00000000
00100001
00000010
00010001
00001000
10000000
00000100
,
01000000
00001000
00100001
00000000
01001001
00000000
10000110
00000000
,
00020002
00000000
20032003
00000000
,
30103010
00000000
00100010
00000000
,
10011001
00000000
11000101
00000000
01011001
00000000
00000000
00010001
,
10001000
10000000
00100000
00100000
,
00010000
00010000
01000000
01000000
,
00001000
00001000
00000010
00000010
,
00000001
00000001
00000100
00010100
,
10000000
01000000
00100000
00000000
00010000
00000000
00010000
00000000
,
10000000
10000000
00100000
00100000
,
00000001
00000001
00001000
00001000
,
10011001
00000000
00011000
01000100
00011000
10000010
00000000
00000000
,
01000100
10000000
00100000
00000000
01100000
00000000
01100000
00000000
,
00100000
00000000
01000000
00100000
10000000
00100000
00000000
01000000
,
00000000
00000001
00000010
00000000
00001001
00000000
00001001
00000000
,
00000001
00000000
00000010
00000100
00011000
00000010
10010000
00000100
,
10000001
00011000
00100100
01000010
10000001
00011000
00100100
01000010
,
10000001
00011000
00100100
01000010
10000001
00011000
00100100
01000010
,
10000001
00100100
01000010
00011000
10000001
00100100
01000010
00011000
,
00100001
00000000
00000000
00000000
01000100
10000001
01000100
00000000
,
10011001
00000000
00000000
00000000
,
02000200
00000000
00000000
03100310
,
10001001
10000000
00010000
00010000
,
00100100
00000000
00100000
00000000
00010000
10000000
00000000
00010000
,
00000000
00000001
00000100
00000000
00000010
00000000
00001000
00000001
,
00101000
00000000
00000010
00000000
00011000
01000100
10000001
01000100
,
00000000
00001000
00000010
00000000
00000100
00000000
00000001
00000100
,
10000010
00000000
00000100
00000000
00000010
00000010
00000000
00001000
,
00000000
10000000
00010000
00000000
01000000
00000000
01000000
00100000
,
10000100
00000000
10000000
00000000
00010000
10000000
00010000
10000000
,
00000001
11000000
00010000
01010000
,
00000100
01010000
00010000
00110000
,
00000001
00000101
00000010
00001001
,
00000000
00001001
00000010
00000110
,
00011000
00100100
01000010
10000001
00011000
00100100
01000010
10000001
,
00100100
01000010
00011000
10000001
00100100
01000010
00011000
10000001
,
01000100
00100010
00011000
10000100
00100010
01000100
00011000
00100010
,
01000100
11000101
01011100
00000000
,
00110001
00110001
11000001
11000001
,
10011000
00000000
10011000
00000000
01101000
00000000
00010001
10001000
,
00010001
00111000
10100010
10100010
,
01010100
00000000
01010100
00000000
00010001
10001000
00000000
00000000
,
10100101
10000101
00111010
00011010
,
10100110
00000000
10000110
00000000
01001010
00000000
00010001
01000100
,
00010001
10001001
01010100
00010101
,
10100010
00000000
10001010
00000000
00010001
10001000
00010001
10001000
,
00100010
00000100
00000001
00000000
00001100
00000000
00000101
00000000
,
00000001
00000000
00000010
00000000
10000001
01000010
00100100
00011000
,
10000000
00010001
10001000
00000000
01101100
00000000
00011000
00100010
,
01000100
00000000
10000001
00000000
00011000
01000001
00100010
10000001
,
00011000
00100100
01000010
10000001
00100100
01000010
00011000
00100100
,
01000010
10000001
00100100
01000010
00011000
00100100
01000010
10000001
,
01000010
00100100
00011000
01000010
00100100
10000001
01000010
00100100
,
00011000
00011000
10000001
11000101
,
01011100
00000000
00000000
00000000
;

//---------------dance-couple - ----------------
#NOTEDATA:;
#CHARTNAME:;
#STEPSTYPE:dance-couple;
#DESCRIPTION:;
#CHARTSTYLE:;
#DIFFICULTY:Hard;
#METER:14;
#RADARVALUES:0.540557,1.042324,0.446710,0.000000,0.389776,432.000000,381.000000,51.000000,0.000000,0.000000,0.000000,0.000000,0.000000,0.000000,0.540557,1.011667,0.499264,0.000000,0.363499,432.000000,375.000000,57.000000,0.000000,0.000000,0.000000,0.000000,0.000000,0.000000;
#CREDIT:;
#NOTES:
00000000
00000000
00000000
00000000
,
00000000
00000000
00000000
00000000
,
00000000
00000000
00000000
00000000
,
00000000
00000000
00000000
00000000
,
00000000
00000000
00000000
00000000
,
00000000
00000000
00000000
00000000
,
00100100
01000010
00100100
01000010
00100100
01000010
00100100
01000010
,
00100100
01000010
00100100
01000010
00100100
01000010
00100100
01000010
,
00011000
10000001
00011000
10000001
00011000
10000001
00011000
10000001
00011000
10000001
00011000
10000001
00011000
10000001
00011000
10000000
,
00100010
00000000
00100010
00000000
10001000
00100010
00000000
10001000
,
00011001
00100000
01100000
00000000
10010000
00000000
01100000
00000000
,
10010000
00000000
00010000
00100000
01000000
10000000
00000000
00100000
,
00000000
00000001
00000100
00000000
00001100
00000000
00000101
00000000
,
00000011
00000000
00000001
00000010
00010100
10001000
00000000
00010001
,
01000100
01100010
10101010
00000000
01010000
00000000
11000000
00000000
,
00110000
00000000
00010000
00100000
01000000
10000000
00000000
00010000
,
00000000
00000100
00000010
00000000
00001001
00000000
00000110
00000000
,
00010001
00000000
01000100
00010001
10001000
01000100
00000000
10001000
,
10011001
00000000
01100110
00000000
,
00011000
00000000
01000100
00000000
10000001
00000000
01000100
00000000
00011000
00000000
00000000
00000000
10000001
00000000
00011000
10000001
,
00011000
10011000
01000001
11000001
,
00100010
00110010
01000100
01010100
,
00001000
00001010
00000001
00000011
,
00000100
00000110
00001000
10011001
,
10100011
01100110
01011001
00000000
00010001
00000000
10011000
00000000
,
10000001
10101000
01000010
01010100
,
00010001
00100010
01000100
00000000
10011001
00000000
01100110
00000000
,
00010001
01000100
00010001
10001000
01000100
00100010
00000000
00010001
,
10011001
00000000
10001000
01000001
00100010
00000000
00000000
00000000
10010000
00000000
00000000
00000000
01100000
00000000
00000000
00000000
,
00110000
00000000
00010000
00100000
01000000
10000000
00000000
00010000
,
00000000
00001000
00000010
00000000
00000101
00000000
00000011
00000000
,
00000001
00000010
00000100
00001000
00000010
00000100
00000001
00001000
,
00010010
00101000
00010010
00101000
01000100
10001000
01000100
10001000
00100010
10010100
00100010
10000100
00010001
01001000
00010001
01001000
,
00100100
10000010
00100100
10000010
01000001
10001000
01000001
00101000
00010010
00100100
00010010
10000100
00010001
00100010
00010001
01000010
,
00100100
10001000
00010010
01000100
00100001
10001000
00010010
01000100
00100001
10001000
00010010
01000100
00100001
10001000
00010010
01000100
,
00100001
00000000
00000000
00000000
10000001
10000001
10000001
00000000
,
10011001
00000000
00000000
00000000
,
00011000
00011000
00011000
10011001
,
10000001
00000000
00100000
00000000
10000000
00000000
00000000
00000000
01000000
00000000
00000000
00000000
10000000
00000000
00010000
00100000
,
01000000
00000000
10000000
00000000
00010000
00010000
00000000
10010000
,
00000000
00000100
00000010
00000000
00001001
00000000
00000001
00000010
,
00000100
00000000
00001001
00000000
10000001
01000100
00011000
01000100
,
00000000
00000000
10000000
00000000
00010000
00000000
00000000
00000000
00110000
00000000
00000000
00000000
00010000
00000000
01000000
00010000
,
10000000
00000000
01100000
00000000
00010000
01000000
00000000
00100000
,
00000000
00001000
00000001
00000000
00000110
00000000
00000001
00000010
,
00000110
00000000
00001001
00000000
10000001
01000100
00011000
01000100
,
10001001
01010001
00101100
00111000
,
01000011
11000001
10000110
01011010
,
11000001
00100101
10101000
01001100
,
01010010
00100011
01101000
10011001
,
00100001
01000010
00100001
01000010
00010100
01001000
00010100
01001000
00100010
10001000
00100010
10000100
01000001
10000100
01000001
00101000
,
00010010
01001000
00100100
10000010
01000001
10000010
00100100
01001000
00010010
10000100
00100001
01001000
00010010
10001000
00100100
01000010
,
00010001
10000100
00010001
00100100
01000010
00101000
01000010
00101000
00010001
01000100
00100010
10001000
01000100
00100010
00010001
01000100
,
00100010
00000000
10001000
00000000
00010001
00000000
10001000
00000000
00010001
00000000
00000000
00000000
00100100
00000000
01000010
10001000
,
00010001
00000000
01000000
00000000
00100000
00000000
00000000
00000000
10000000
00000000
00000000
00000000
00010000
00000000
00100000
01000000
,
10000000
00000000
00010000
00000000
01000000
00100000
00000110
10010110
,
00000110
00000001
00000100
00000000
00001100
00000000
00000001
00000010
,
00001100
00000000
00000101
00000000
10000001
01000100
00011000
01000100
,
00000000
00000000
10000000
00000000
00010000
00000000
00000000
00000000
00110000
00000000
00000000
00000000
00010000
00000000
01000000
00100000
,
01000000
00000000
00010000
00000000
10000000
00010000
00000110
01101100
,
00000101
00001000
00000001
00000000
00000110
00000000
00000001
00000010
,
00000100
00000000
00001001
00000000
00011000
10000100
01000010
00100001
,
00111100
00000000
10000001
01000010
00100100
00000000
00000000
00000000
00010000
00000000
00000000
00000000
01000000
00000000
00100000
10000000
,
00100000
00000000
01000000
00000000
00010000
00010000
00000101
10011001
,
00000110
00001000
00000010
00000000
00000101
00000000
00000010
00000100
,
00001000
00000000
00001001
00000000
10000100
01000010
00011000
01000100
,
10000010
00100001
10000010
00100001
01001000
00010010
01001000
00010010
10000100
00100001
10000100
00100001
01001000
00010010
01001000
00010010
,
00101000
00010100
10000010
00100001
01000100
00010010
10001000
00100100
01000010
00010001
10000100
00100001
10000010
01000100
00101000
00010010
,
10000100
01000001
10000100
00100001
01001000
00010010
00101000
01000100
10000010
00100001
01000100
00010010
00101000
00010100
01000010
00100001
,
10000010
10000010
01011010
11000011
,
10011001
00000000
00000000
00000000
;

//---------------dance-solo - ----------------
#NOTEDATA:;
#CHARTNAME:;
#STEPSTYPE:dance-solo;
#DESCRIPTION:;
#CHARTSTYLE:;
#DIFFICULTY:Easy;
#METER:7;
#RADARVALUES:0.290299,0.337222,0.070072,0.035036,0.000000,232.000000,224.000000,8.000000,4.000000,0.000000,0.000000,0.000000,0.000000,0.000000,0.290299,0.337222,0.070072,0.035036,0.000000,232.000000,224.000000,8.000000,4.000000,0.000000,0.000000,0.000000,0.000000,0.000000;
#CREDIT:;
#NOTES:
000000
000000
000000
000000
,
000000
000000
000000
000000
,
000000
000000
000000
000000
,
000000
000000
000000
000000
,
000000
000000
000000
000000
,
000000
000000
000000
000000
,
100000
000001
100000
000001
,
100000
000001
100000
000001
,
001000
000100
001000
000100
,
020000
000000
030020
000000
,
000130
000101
000000
100000
,
001000
010000
000100
001000
,
000000
001010
000000
011000
,
000001
100000
001000
000100
,
000001
001000
000001
000000
010000
000000
010000
000000
,
000010
100000
001000
000100
,
000000
000001
001000
000000
000001
000000
000001
000000
,
100001
000000
100001
000000
,
001000
000000
000100
000000
,
010000
010000
100001
000000
,
000001
000001
000010
000010
,
000100
000100
001000
001000
,
000001
000001
000100
000100
,
001000
001000
100000
000000
,
000001
001000
000001
000000
100000
000000
100000
000000
,
010000
010000
001000
001000
,
000100
000100
100000
000001
,
000100
000000
001000
000000
,
100000
000001
100000
100000
,
000001
000010
001000
010000
,
000100
001000
000010
001000
,
000001
000100
001000
100000
,
000001
001000
000001
001000
,
000010
000100
000010
000100
,
001000
010000
000100
000001
,
000010
000000
000000
000000
001000
000100
001000
000000
,
200002
000000
000000
000000
,
000000
000000
000000
300003
,
100000
001000
100000
000000
,
100000
000000
100000
000000
,
000001
000000
000001
000000
,
000001
000000
000010
000010
,
000000
001000
000000
001000
,
000000
100000
000010
000010
,
000000
010000
000000
010000
,
000000
010000
000100
001000
,
000000
000001
000010
000001
,
000000
100000
010000
100000
,
000000
000100
001000
000100
,
000000
100000
000001
100000
,
000010
000100
001000
010000
,
000100
001000
000010
000100
,
001000
100000
000100
001000
,
000001
000001
000001
000000
,
100000
100000
000100
000100
,
001000
000000
001000
000000
000010
000000
010000
000010
,
010000
000100
100000
000100
,
001000
000000
000001
000000
010000
010000
000000
000000
,
000001
000100
000001
010000
,
000010
000000
010000
000000
000100
000000
001000
000010
,
001000
000001
100000
001000
,
000100
001000
000010
000010
,
100000
000001
000100
000000
000001
000000
000100
000000
,
000001
010000
001000
000100
,
000010
001000
000010
001000
,
010000
001000
000001
100000
,
000100
001000
000001
000010
,
001000
100000
010000
001000
,
000001
010000
000010
100000
,
000001
000000
001000
001000
,
010010
000000
000000
000000
;

//---------------dance-solo - ----------------
#NOTEDATA:;
#CHARTNAME:;
#STEPSTYPE:dance-solo;
#DESCRIPTION:;
#CHARTSTYLE:;
#DIFFICULTY:Medium;
#METER:11;
#RADARVALUES:0.470485,0.521162,0.534300,0.052554,0.000000,376.000000,315.000000,61.000000,6.000000,0.000000,0.000000,0.000000,0.000000,0.000000,0.470485,0.521162,0.534300,0.052554,0.000000,376.000000,315.000000,61.000000,6.000000,0.000000,0.000000,0.000000,0.000000,0.000000;
#CREDIT:;
#NOTES:
000000
000000
000000
000000
,
000000
000000
000000
000000
,
000000
000000
000000
000000
,
000000
000000
000000
000000
,
000000
000000
000000
000000
,
000000
000000
000000
000000
,
100000
000001
100000
000001
,
100000
000001
100000
000001
,
001000
000100
001000
000100
001000
000100
001000
000100
,
100000
000000
100000
000000
000001
001000
000000
000010
,
010000
001100
000001
011000
,
000010
000000
001000
000100
100000
000100
000000
010000
,
000000
000001
000100
000000
010010
000000
101000
000000
,
001001
000000
000001
000000
000100
001000
000000
100000
,
000000
000001
100000
000000
010010
000000
001100
000000
,
100001
000000
000010
001000
000010
000100
000000
001000
,
000000
010000
000010
000000
001100
000000
100001
000000
,
001000
100000
001000
100000
010000
100000
010000
000000
,
002002
003003
202000
303000
,
000011
000000
101000
000000
110000
000000
000000
000001
,
000100
000101
010000
011000
,
000001
000011
100000
110000
,
000100
001100
000010
001010
,
010000
001100
000001
100001
,
100000
001000
000100
000000
000001
000000
001001
000000
,
100000
101000
000001
000011
,
100000
100100
000001
001001
,
010000
001000
010000
000010
010000
000100
000000
010000
,
100000
010000
000010
000000
001001
000000
000101
000000
,
000100
000000
001000
000100
000001
001000
000000
000010
,
000000
010000
000010
000000
000110
000000
000011
000000
,
001100
000000
000100
100000
000100
010000
000000
001000
,
000100
000010
000100
000010
000100
000001
000100
000001
,
000100
001000
000100
001000
000100
100000
000100
100000
,
000100
000010
010000
001000
000010
100000
010000
000001
,
000100
000000
000000
000000
000010
000010
000010
000000
,
200002
000000
000000
000000
,
000000
000000
000000
300003
,
100000
100000
000001
000001
,
001000
000000
001000
000000
000100
000100
000000
100000
,
000000
000010
001000
000010
,
000100
000000
000001
000000
000010
000001
000100
001000
,
000000
100000
100000
010000
,
010000
000000
001000
000000
000100
000100
000000
100001
,
000000
000001
000010
000001
,
000100
000000
001000
000000
010000
000010
010000
000010
,
000000
100001
000001
001001
,
000000
101000
100000
100100
,
000010
001010
000100
000001
,
000000
000010
010010
100001
,
001000
000001
001000
000001
001000
000010
001000
000010
,
001000
000100
001000
100000
001000
010000
001000
000010
,
000100
001000
000100
001000
000100
100000
000100
100000
,
000100
000110
100001
000000
,
001000
001001
010000
011000
,
000010
000000
000011
000000
100000
000000
000100
010000
,
001000
000101
000010
001010
,
010000
000000
011000
000000
000001
100000
000000
000000
,
000010
001010
010000
011000
,
000001
000000
100001
000000
001000
000000
000010
001000
,
000010
011000
000100
001001
,
100000
000000
100001
000000
000001
000010
001000
100000
,
000100
001000
000010
000000
001001
000000
000100
000000
,
000001
000000
010000
000000
000010
010000
001000
100000
,
000100
000000
001001
000000
000100
000000
000001
001000
,
000001
000000
000010
000000
001000
000100
100000
010000
,
000010
001000
000010
001000
000100
001000
000100
001000
,
010000
001000
000001
001000
100000
001000
000010
001000
,
000001
000010
000001
000010
001000
100000
000100
001000
,
000010
000010
000110
011000
,
100001
000000
000000
000000
;

//---------------dance-solo - ----------------
#NOTEDATA:;
#CHARTNAME:;
#STEPSTYPE:dance-solo;
#DESCRIPTION:;
#CHARTSTYLE:;
#DIFFICULTY:Hard;
#METER:14;
#RADARVALUES:0.646916,1.011667,0.613132,0.017518,0.385397,517.000000,447.000000,70.000000,2.000000,0.000000,0.000000,0.000000,0.000000,0.000000,0.646916,1.011667,0.613132,0.017518,0.385397,517.000000,447.000000,70.000000,2.000000,0.000000,0.000000,0.000000,0.000000,0.000000;
#CREDIT:;
#NOTES:
000000
000000
000000
000000
,
000000
000000
000000
000000
,
000000
000000
000000
000000
,
000000
000000
000000
000000
,
000000
000000
000000
000000
,
000000
000000
000000
000000
,
100000
000001
100000
000001
100000
000001
100000
000001
,
100000
000001
100000
000001
100000
000001
100000
000001
,
001000
000100
001000
000100
001000
000100
001000
000100
001000
000100
001000
000100
001000
000100
001000
000100
,
100000
000000
100000
000000
000001
100000
000000
001000
,
010000
000001
000100
000000
001010
000000
011000
000000
,
001001
000000
000001
100000
001000
100000
000000
010000
,
000000
001000
000010
000000
000011
000000
110000
000000
,
001010
000000
000010
010000
000010
010000
000000
000100
,
100000
000001
000011
000000
000101
000000
011000
000000
,
001010
000000
000100
001000
000010
000100
000000
000010
,
000000
001000
000010
000000
000011
000000
110000
000000
,
000010
001000
000100
010000
001000
000100
000000
000010
,
010010
000000
100001
000000
,
000001
000000
001000
000000
100000
000000
001000
000000
000001
000000
000000
000000
000010
000000
000001
100000
,
000001
001000
000001
000000
101000
000000
000011
000000
,
011000
000000
000100
100000
000100
001000
000000
000100
,
000000
010000
000010
000000
010010
000000
000110
000000
,
011000
000000
000010
100000
000010
100000
000000
000100
,
100100
001010
000101
000000
010001
000000
101000
000000
,
001001
000000
000001
010000
001000
100000
000000
000010
,
000000
001000
000010
000000
000011
000000
100010
000000
,
000010
000010
001000
010000
100000
010000
000000
000100
,
001010
000000
010000
001000
000100
000000
000000
000000
100001
000000
000000
000000
011000
000000
000000
000000
,
001010
000000
000001
001000
000001
001000
000000
000010
,
000000
100000
001000
000000
101000
000000
001001
000000
,
000001
000000
000001
100000
001000
000100
000000
000010
,
100000
000100
100000
000100
100000
000001
100000
000001
100000
000010
100000
000010
100000
000100
100000
000100
,
001000
000010
010000
001000
000100
000001
001000
000010
000100
000010
001000
000010
001000
000010
100000
000100
,
100000
001000
000100
000001
100000
001000
000100
000001
010000
001000
000100
000010
010000
001000
000100
000010
,
001000
000000
000000
000000
000001
000001
000001
000000
,
002200
000000
000000
000000
,
000000
000000
000000
003300
,
000001
000000
000010
000000
000001
000000
000000
000000
100000
000000
000000
000000
000001
000000
100000
000001
,
100000
000000
000001
000000
000100
000100
000000
001100
,
000000
000010
001000
000000
001010
000000
000010
001000
,
000100
000000
000100
000000
000100
100000
001000
000100
,
000000
000000
000001
000000
010000
000000
000000
000000
011000
000000
000000
000000
001000
000000
000100
000010
,
000100
000000
000010
000000
010000
010000
000000
010010
,
000000
000001
010000
000000
010001
000000
100010
000010
,
001000
000000
000100
000000
100000
000100
100000
000100
,
001000
001001
000100
011000
,
000010
001010
101000
001001
,
000001
010001
001000
001100
,
001000
001100
100001
001100
,
000001
001000
000001
001000
000100
001000
000100
001000
000010
001000
000010
001000
000100
001000
000100
100000
,
001000
000100
000001
001000
000010
010000
001000
000100
000010
001000
000010
001000
000100
001000
000100
100000
,
001000
000100
000001
001000
000010
001000
000010
010000
001000
000100
000010
100000
001000
000100
000010
100000
,
001000
100000
000100
001000
000001
000000
001000
000001
,
001001
000000
000000
000000
101000
000000
000000
000000
001001
000000
000000
000000
000001
000000
000100
001000
,
000100
000000
100001
000000
000010
010000
000000
001100
,
000000
000001
100000
000000
101000
000000
000001
001000
,
000100
000000
001000
000000
000101
001000
100000
000100
,
000000
000000
100000
000000
001000
000000
000000
000000
001001
000000
000000
000000
000001
000000
001000
000100
,
001000
000000
001000
000000
100000
100000
000000
100100
,
000000
000010
010000
000000
000110
000000
000010
000100
,
000010
000000
000010
000000
000010
010000
001000
100000
,
100001
000000
010000
000010
001000
000000
000000
000000
001001
000000
000000
000000
000001
000000
000010
001000
,
000100
000000
000001
000000
100000
100000
000110
001000
,
001000
000001
000101
000000
101000
000000
000001
010000
,
001000
000000
100001
000000
000001
000010
001000
100000
,
000100
001000
000100
001000
000010
001000
000010
010000
001000
010000
001000
000100
000001
000100
000001
000100
,
001000
100000
000100
001000
000001
000100
001000
000100
000010
010000
001000
000100
000010
100000
000001
100000
,
000100
100000
000100
100000
000010
001000
000010
001000
000100
010000
001000
000100
000001
001000
000100
100000
,
001000
001000
000110
011000
,
100001
000000
000000
000000
;
