#TITLE:Venomous Firefly;
#SUBTITLE:;
#ARTIST:かめりあ;
#TITLETRANSLIT:;
#SUBTITLETRANSLIT:;
#ARTISTTRANSLIT:Camellia;
#GENRE:;
#CREDIT:;
#BANNER:Venomous Firefly-bn.png;
#BACKGROUND:Venomous Firefly-bg.png;
#LYRICSPATH:;
#CDTITLE:;
#MUSIC:Venomous Firefly.mp3;
#OFFSET:0.280000;
#SAMPLESTART:80.429031;
#SAMPLELENGTH:15.000000;
#SELECTABLE:YES;
#DISPLAYBPM:132.000000:264.000000;
#BPMS:0.000000=264.000000
,48.000000=132.000000
,50.000000=264.000000
,58.000000=132.000000
,62.000000=264.000000
,70.000000=132.000000
,74.000000=264.000000
,82.000000=132.000000
,86.000000=264.000000
,97.000000=132.000000
,99.000000=264.000000
,129.000000=132.000000
,130.000000=264.000000
,201.000000=528.000000
,209.000000=264.000000
,213.000000=132.000000
,245.000000=264.000000
,305.000000=132.000000
,307.000000=264.000000
,401.000000=132.000000
,402.000000=264.000000
,406.000000=132.000000
,407.000000=264.000000
,411.000000=132.000000
,412.000000=264.000000
,459.000000=528.000000
,482.000000=264.000000
;
#STOPS:89.000000=0.113000,
92.500000=0.113000,
137.000000=0.113000,
144.500000=0.113000,
406.000000=0.454000,
411.000000=0.464000,
415.000000=0.113000,
418.500000=0.113000
;
#BGCHANGES:;
#KEYSOUNDS:;
#ATTACKS:;

//---------------dance-single - ----------------
#NOTES:
     dance-single:
     :
     Beginner:
     8:
     0.345944,0.499664,0.223916,0.066345,0.000000,292.000000,265.000000,27.000000,8.000000,0.000000,0.000000,0.345944,0.499664,0.223916,0.066345,0.000000,292.000000,265.000000,27.000000,8.000000,0.000000,0.000000:
0000
0000
0000
0000
,
0000
0000
0000
0000
,
0000
0000
0000
0000
,
0000
0000
0000
0000
,
0000
0000
0000
0000
,
0020
0000
0000
0000
,
0000
0000
0000
0000
,
0030
0000
0000
0000
,
0000
0000
0000
0000
,
0100
0000
0000
0000
0000
0100
0000
0000
,
0010
0000
0000
0000
0000
0010
0000
0000
,
0100
0000
0100
0000
,
0010
0000
0000
0000
0000
1000
0000
1000
,
0000
0001
0000
0001
0000
1000
0000
1000
,
0000
0001
0000
0001
1000
0000
0000
0000
,
0000
0000
0000
0000
0000
0010
0000
0010
,
0000
0100
0000
0100
0000
0010
0000
0010
,
0000
0100
0000
0100
0010
0000
0000
0000
,
0000
0000
0000
0000
0000
0001
0000
0001
,
0000
0100
0000
0100
0000
0001
0000
0001
,
0000
0100
0000
0100
0001
0000
0000
0000
,
0000
0000
0010
1000
,
0010
0000
0000
1000
0000
0001
0000
1000
,
0000
0000
0100
0000
0000
0100
0000
0000
,
0100
0100
0000
0001
,
0010
0001
0000
0010
,
0000
0001
0000
1000
,
0100
1000
0000
0001
,
0000
0001
0000
0100
,
0010
0100
0000
0010
,
0000
0010
0000
1000
,
0000
1000
0000
0000
1000
0000
0001
0000
,
0001
0000
0010
0010
,
0010
0010
0010
0010
,
0010
0000
0000
0100
0000
0100
0000
0100
,
0000
0100
0000
0100
0000
0100
0000
0100
,
0000
0001
1000
0001
,
1000
0001
1000
0001
,
1000
0001
0000
0000
,
0000
0000
0000
0000
,
0000
1010
0000
0000
,
0000
1001
0000
0000
,
0000
0011
0000
0000
,
0000
1001
0000
1001
,
0000
1010
0000
0000
,
0000
0101
0000
0000
,
0000
0011
0000
1010
,
0000
1100
0000
1001
,
0000
0220
0000
0000
,
0000
0330
0000
0000
,
0000
0200
0000
0000
,
0000
0000
0000
0000
,
0000
0300
0000
0000
,
0000
0001
0000
0001
,
0100
1000
1000
0100
,
0001
0010
0000
0010
,
0100
1000
1000
0100
,
0010
0100
0000
0100
,
0001
0010
0010
0001
,
1000
0001
0000
0001
,
0100
1000
0010
1000
,
0100
0001
0010
0001
,
0000
0001
0000
0001
,
0000
0100
1000
0100
,
0000
0001
1000
0001
,
0000
0010
0100
0010
,
0000
0100
0000
0100
,
0000
1000
0001
1000
,
0000
0010
0100
0010
,
0000
1001
0000
0000
,
0000
0001
0000
0000
,
0000
1000
0000
1000
,
0000
0001
0000
1000
,
0000
0000
1001
0000
0000
0000
0000
0001
,
0000
0000
1001
0000
0000
0000
0000
0100
,
0000
0001
1000
0100
,
0010
0001
0000
1000
,
0100
1000
0000
1000
,
0000
0001
0000
0001
,
0010
0100
0000
1000
,
0100
0010
0000
0001
,
0100
0001
0000
0001
,
1000
0001
0000
1000
,
0100
0010
0000
0010
,
0100
1000
0000
0020
,
0000
0030
0000
0100
,
0000
0100
0000
0100
,
0000
0100
0000
0001
,
0001
0001
0000
1000
,
0100
1000
0100
1000
,
0100
1000
0010
0100
,
0000
0001
0000
0000
0001
0000
2000
0000
,
0000
3000
0000
0001
,
0100
0001
0100
0010
,
0000
0010
0000
1000
,
0000
1000
0000
0100
,
0001
0010
0000
0100
,
0000
0100
0000
1000
,
0100
1000
0000
0010
,
0100
0010
0100
0010
,
1000
0001
0010
0010
,
0010
0010
0010
0100
,
0100
0100
0100
0100
,
0001
0000
1000
0000
0001
0000
0000
0100
,
0000
0010
0000
0100
0000
0000
0001
0000
,
0010
0100
1000
0001
,
0000
0000
0000
1010
,
0000
0000
0000
1001
,
0000
0000
0000
0011
,
0000
0000
0000
1001
,
0000
1001
0000
1010
,
0000
0000
0000
0101
,
0000
0000
0000
0011
,
0000
1010
0000
1100
,
0000
1001
0000
0220
,
0000
0000
0000
0000
,
0000
0000
0000
0000
,
0000
0000
0000
0000
,
0000
0000
0000
0000
,
0000
0000
0000
0000
,
0000
0000
0330
0000
;

//---------------dance-single - ----------------
#NOTES:
     dance-single:
     :
     Easy:
     12:
     0.530764,0.849429,0.265382,0.099518,0.116105,448.000000,416.000000,32.000000,12.000000,0.000000,0.000000,0.530764,0.849429,0.265382,0.099518,0.116105,448.000000,416.000000,32.000000,12.000000,0.000000,0.000000:
0000
0000
0000
0000
,
0000
0000
0000
0000
,
0000
0000
0000
0000
,
0000
0000
0000
0000
,
0000
0000
0000
0000
,
1001
0000
0000
0000
,
0000
0000
0000
0000
,
0000
0000
0000
0000
,
0000
0000
0000
0000
,
0110
0000
0000
0000
0000
1001
0000
0000
,
0110
0000
0000
0000
0000
1001
0000
0000
,
0110
0100
1001
0001
,
2002
0000
3003
0000
1000
0010
0000
0010
,
0000
0010
0000
0010
0000
0010
0000
0010
,
0000
0010
0000
0010
1000
0000
0000
0000
,
1000
0000
0100
0000
0001
0010
0000
0010
,
0000
0010
0000
0010
0000
0010
0000
0010
,
0000
0010
0000
0010
0001
0000
0000
0000
,
0001
0100
1000
0000
1000
0010
0000
0010
,
0000
0010
0000
0010
0000
0010
0000
0010
,
0000
0000
0010
0000
0000
0000
0010
0000
1000
0000
0000
0000
0000
0000
0000
1000
,
0000
1001
0000
0000
1000
0000
0010
0000
,
1000
0000
0000
0001
0000
0100
0000
0001
,
0000
1000
0100
0001
,
0100
0000
1001
0000
0000
0000
0001
0100
,
0001
0100
0001
0010
,
0100
0000
1000
0000
0001
0000
1000
0010
,
1000
0001
0010
0100
,
0100
0000
1000
0000
0000
0000
0001
0100
,
0001
0010
0100
1000
,
0001
1000
0010
0100
,
0000
0000
0110
0000
0000
0000
0000
0000
1001
0000
0000
0000
0100
0000
0000
0010
,
0000
0100
0010
0000
1000
0010
1000
0000
,
0010
1000
0010
0000
1000
0010
1000
0000
,
0010
0000
0000
1000
0001
1000
0000
0001
,
1000
0001
0000
1000
0001
1000
0000
0001
,
0000
0000
0100
0001
0100
0000
0001
0100
,
0001
0000
0010
0100
0010
0000
0100
1000
,
0100
1001
0000
0000
,
0000
0000
0000
0000
,
0000
0000
0000
0000
0001
0000
0000
1000
0000
0000
0001
0000
0000
0000
0000
0000
,
0000
0000
0000
0000
1000
0000
0000
1000
0000
0000
0001
0000
0000
0001
0000
0000
,
0000
0000
0000
0000
0100
0000
0000
0010
0000
0000
0100
0000
0000
0000
0000
0000
,
0000
0000
0000
0000
0010
0000
0000
0100
0000
0000
0010
0000
0100
0000
0010
0000
,
0000
0000
0000
0000
1000
0000
0000
0100
0000
0000
1000
0000
0000
0000
0000
0000
,
0000
0000
0000
0000
0001
0000
0000
0001
0000
0000
1000
0000
0000
1000
0000
0000
,
0000
0000
0010
0000
0000
0100
0000
0000
0010
0000
0100
0000
0000
0010
0000
0000
,
0100
0000
0010
0000
0000
0100
0000
0000
0010
0000
1000
0000
0001
0000
1000
0000
,
0000
1001
0000
0000
,
0000
0000
0000
0000
,
0000
2002
0000
0000
,
0000
0000
0000
0000
,
0000
3003
0000
0000
,
0000
0000
1001
0000
0001
0000
1000
0100
,
0010
0010
0001
0001
0200
0000
0301
0000
,
1001
0000
1000
0000
0010
0000
0001
0010
,
0100
0100
1000
1000
0010
1000
0100
0000
,
0110
0000
0001
0001
1000
0000
1000
0100
,
0001
0001
0010
0010
0100
0010
0001
1000
,
1001
0000
0001
0100
0001
0000
1000
0100
,
1000
0000
0000
0000
0001
0000
0001
1000
0001
0000
1000
0100
0010
0000
0100
0000
,
0010
1001
0000
0001
,
0000
1000
0000
1000
,
0000
0010
0000
0010
,
0000
0100
0000
0100
,
0000
0001
0000
0001
,
0000
1000
0000
1000
,
0000
0001
0000
1000
,
0000
0010
0000
0100
,
0000
0110
0000
0000
,
0000
1001
0000
0000
,
0000
1100
0000
0010
,
0000
0001
0000
0010
,
0000
0000
1100
0000
0000
0000
0000
0011
,
0000
0000
0101
0000
0000
0000
0000
1010
,
0000
1100
0001
0101
,
1000
0000
1001
0000
0000
0000
0001
1000
,
0100
0000
1000
0000
0100
0000
1000
0001
,
0100
0000
0001
0000
0100
0000
0001
0010
,
0100
0000
1000
0100
0010
0000
0001
0010
,
0001
0000
0100
0000
0001
0000
1000
0010
,
1000
0000
0010
0000
1000
0000
0001
0010
,
0001
0000
0010
0000
0001
0000
0010
0100
,
1000
0000
0100
0010
0001
0000
0100
0000
,
0010
0110
1000
0001
,
0000
0000
0100
0200
,
1300
0200
0301
0020
,
1030
0000
0020
0000
0031
0000
1000
0010
,
0100
0100
0000
0020
,
0000
0000
0000
0000
,
0000
0000
0000
0000
0000
0000
0130
0010
,
0100
0010
1000
0001
1000
0010
0000
0000
,
0000
0000
0000
0001
,
0100
0000
0001
0000
0010
0000
0100
1000
,
0100
0000
0001
0000
0010
0000
0100
1000
,
0000
0010
0000
1000
0000
0010
1000
0001
,
0100
0000
0000
0000
0001
0000
0000
0010
0000
0000
0001
0000
0001
0000
0000
0000
,
0100
0000
0001
0000
0100
0000
0010
1000
,
0010
0000
1000
0000
0001
0000
0010
0100
,
1000
0000
0000
0000
0100
0000
0010
0000
0001
0000
0000
0000
1000
0000
0000
0001
,
0000
1000
0001
0000
0010
1000
0010
0000
,
1000
0010
1000
0000
0010
0000
0100
0001
,
0100
0000
0001
0100
0001
0000
0100
0000
,
0001
0010
0100
0000
1000
0100
0010
0001
,
0010
0100
0000
1000
0010
0100
0001
0010
,
0100
1000
0010
0100
0001
0010
0100
0000
,
0000
0000
0000
0000
0000
0000
0000
0000
0000
0000
0000
0000
0001
0000
0000
1000
,
0000
0000
0001
0000
0000
0000
0000
0000
0000
0000
0000
0000
1000
0000
0000
1000
,
0000
0000
0001
0000
0000
0001
0000
0000
0000
0000
0000
0000
0100
0000
0000
0010
,
0000
0000
0100
0000
0000
0000
0000
0000
0000
0000
0000
0000
0010
0000
0000
0100
,
0000
0000
0010
0000
0100
0000
0010
0000
0000
0000
0000
0000
1000
0000
0000
0100
,
0000
0000
1000
0000
0000
0000
0000
0000
0000
0000
0000
0000
0001
0000
0000
0001
,
0000
0000
1000
0000
0000
1000
0000
0000
0000
0000
0010
0000
0000
0100
0000
0000
,
0010
0000
0100
0000
0000
0010
0000
0000
0100
0000
0010
0000
0000
0100
0000
0000
,
0010
1000
0001
1000
0000
0000
2002
0000
,
0000
0000
0000
0000
,
0000
0000
0000
0000
,
0000
0000
0000
0000
,
0000
0000
0000
0000
,
0000
0000
0000
0000
,
0000
0000
3003
0000
;

//---------------dance-single - ----------------
#NOTES:
     dance-single:
     :
     Medium:
     14:
     0.749940,1.299127,0.381486,0.290261,0.240502,633.000000,587.000000,46.000000,35.000000,0.000000,0.000000,0.749940,1.299127,0.381486,0.290261,0.240502,633.000000,587.000000,46.000000,35.000000,0.000000,0.000000:
0000
0000
0000
0000
,
0000
0000
0000
0000
,
0000
0000
0000
0000
,
0000
0000
0000
0000
,
0000
0000
0000
0000
,
1001
0000
0000
0000
,
0000
0000
0000
0000
,
0000
0000
0000
0000
,
0000
0000
0000
0000
,
1001
0000
0000
0000
0000
0110
0000
0000
,
1001
0000
0000
0000
0000
0110
0000
0000
,
1002
0013
2100
3010
,
0001
1000
0001
0000
0100
0000
0000
0000
1000
0000
0010
0000
1000
0000
0010
0000
,
1000
0010
1000
0010
1000
0010
1000
0010
,
1000
0010
1000
0010
0200
0000
0000
0000
,
0310
0000
0000
0000
0001
0010
0001
0010
,
0001
0010
0001
0010
0001
0010
0001
0010
,
0001
0010
0001
0010
0200
0000
0000
0000
,
1300
0010
0001
0000
0100
0001
0100
0001
,
0100
0001
0100
0001
0100
0001
0100
0001
,
0100
0000
0001
0000
0100
0000
0001
0000
0020
0000
0000
0000
0000
0000
0000
1000
,
0030
1010
0000
0000
0001
0100
0001
0100
,
0001
0100
0000
1000
0010
1000
0010
1000
,
0010
0000
0001
0010
0100
1000
0100
0010
,
0001
1000
0020
0000
0230
0000
0310
1000
,
0010
1000
0100
1000
,
0001
0000
1000
0000
0010
0000
0100
0001
,
0010
0000
0001
0000
0010
0000
0001
0010
,
0100
0000
1000
0100
0010
0000
0001
0100
,
0010
0000
0100
0000
0010
0000
1000
0100
,
0001
0100
1000
1001
,
0000
0000
0110
0000
0000
0000
0000
0000
1001
0000
0000
0000
0001
0000
0000
0001
,
0000
0100
1000
0000
0010
0100
0010
0100
,
0010
0100
0010
0100
0010
0100
0010
0100
,
0010
0100
0000
0001
1000
0001
1000
0001
,
1000
0001
1000
0001
1000
0001
1000
0001
,
1000
0000
0001
0010
0100
1000
0001
0010
,
0100
1000
0001
0010
0100
1000
0001
0010
,
0100
1000
0001
0000
0000
0000
0000
0000
,
0000
0000
0000
0000
,
0000
0000
0000
0000
1000
0000
0000
1000
0000
0000
1000
0000
0000
0000
0100
0000
,
0000
0100
0000
0000
0001
0000
0000
0001
0000
0000
1000
0000
0000
1000
0000
0000
,
0000
0000
0000
0000
0010
0000
0000
0010
0000
0000
0010
0000
0000
0000
1000
0000
,
0000
1000
0000
0000
0100
0000
0010
0000
0001
0000
1000
0000
0100
0000
0100
0000
,
0000
0000
0000
0000
0001
0000
0000
0001
0000
0000
0001
0000
0000
0000
0010
0000
,
0000
0010
0000
0000
1000
0000
0000
1000
0000
0000
0001
0000
0000
0001
0000
0000
,
0000
0000
0100
0000
0000
0100
0000
0000
0100
0000
0010
0000
0000
0010
0000
0000
,
0010
0000
0100
0000
0000
0100
0000
0000
0100
0000
0010
0000
1000
0000
0001
0000
,
1000
0001
1001
0000
0000
0000
0000
0000
,
0000
0000
0000
0000
,
0000
2002
0000
0000
,
0000
0000
0000
0000
,
0000
3003
0000
0000
,
0000
0000
1002
0010
0203
0010
1300
0100
,
0010
0001
0010
0001
0010
0100
1000
0100
1000
0010
1000
0000
0010
0000
0100
0000
,
0201
0010
0320
0100
1030
0001
0010
0010
,
0100
1000
0001
1000
0001
1000
0010
1000
0100
0010
0001
0010
0100
0010
0001
1000
,
0001
0000
2010
0100
3200
1000
0320
0001
,
0031
0100
0001
0100
0010
1000
0010
0100
0001
0010
0001
0010
0100
1000
0100
1000
,
0010
0000
0120
0100
0230
0010
0320
1000
,
1030
0000
0010
0000
0110
0000
0000
0011
0000
0000
1001
0000
1010
0000
0110
0000
,
0101
1001
1000
0000
1000
0010
1000
0000
,
0000
0000
0001
0000
0001
0100
0001
0000
,
0000
0010
0100
1000
,
0100
0010
0001
0010
,
0100
0000
1000
0000
1000
0100
1000
0000
,
0000
0000
0001
0000
0001
0010
0001
0000
,
0000
1000
0100
0010
,
0001
0010
0100
1000
,
0001
0000
1001
0000
0010
1000
0010
0000
,
0000
0000
0100
0000
0001
0010
0001
0000
,
0000
0000
0010
0100
1000
0000
0100
0000
,
1000
0000
0100
0010
0001
0000
0010
0000
,
0001
0000
0101
0000
0000
0000
0000
1001
,
0000
0000
1100
0000
0000
0000
0000
1001
,
0000
0201
0310
1200
,
0310
0000
0000
0000
0102
0000
0100
0000
0103
0010
0100
0000
0010
0000
0000
1000
,
0000
0000
0010
0000
1000
0000
0000
0000
1010
0000
0000
0000
1001
0000
0000
0001
,
0000
0010
0001
0000
0011
0000
0001
0010
,
0100
1000
0100
0010
0001
0010
0100
1000
,
0100
0000
1000
0000
0010
0000
0100
0000
0010
0000
0100
0000
0001
0000
0000
1000
,
0000
0000
0001
0000
1000
0000
0000
0000
2002
0000
3003
0000
0010
0000
0000
0100
,
0000
0010
0100
0000
0220
0330
0001
1000
,
0001
1000
0010
0100
0001
0100
0000
0100
,
0001
0100
0010
1000
0100
0010
0002
0000
,
1000
0000
1003
1200
,
0301
0021
1030
1200
,
0301
0000
0021
0000
1030
0001
0000
1000
,
0001
1000
0010
0000
0000
0000
0100
0010
,
0100
0010
0100
0010
0100
0010
0100
0010
,
0100
0010
0100
0010
0100
0010
1000
0001
,
1000
0001
0100
0010
1000
0002
0000
0000
,
0000
0003
0000
0000
0000
0000
0001
0010
,
0001
0000
0101
0000
0001
0000
1000
0100
,
1000
0000
1010
0000
0001
0000
1000
0010
,
1000
0010
0100
0001
0100
0001
0010
0001
,
0010
0000
0100
0000
1000
0000
0000
0001
0000
0000
0001
0000
1000
0000
0010
0000
,
1000
0000
1010
0000
0100
0000
0001
0010
,
0001
0000
0011
0000
0100
0000
1000
0010
,
1000
0000
0001
0000
0100
0000
0001
0000
0010
0000
0100
0000
1000
0000
0000
0001
,
0000
0001
1000
0000
1000
0010
1000
0010
,
1000
0010
1000
0010
2000
3000
0100
0001
,
0100
0001
0100
0001
0100
0001
0200
0300
,
0001
0010
0100
1000
0100
0010
0001
1000
,
0100
0010
0001
0010
0100
1000
0001
1000
,
0001
1000
0001
1000
0001
1000
0001
0000
,
0000
0000
0000
0000
0000
0000
0000
0000
0000
0000
0000
0000
1000
0000
0000
1000
,
0000
0000
1000
0000
0000
0000
0100
0000
0000
0100
0000
0000
0001
0000
0000
0001
,
0000
0000
1000
0000
0000
1000
0000
0000
0000
0000
0000
0000
0010
0000
0000
0010
,
0000
0000
0010
0000
0000
0000
1000
0000
0000
1000
0000
0000
0100
0000
0010
0000
,
0001
0000
1000
0000
0100
0000
0100
0000
0000
0000
0000
0000
0001
0000
0000
0001
,
0000
0000
0001
0000
0000
0000
0010
0000
0000
0010
0000
0000
1000
0000
0000
1000
,
0000
0000
0001
0000
0000
0001
0000
0000
0000
0000
0100
0000
0000
0100
0000
0000
,
0100
0000
0010
0000
0000
0010
0000
0000
0010
0000
0100
0000
0000
0100
0000
0000
,
0100
0010
1000
0001
1000
1001
0002
0000
,
0000
0000
0000
0000
,
0000
0000
0000
0000
,
0000
0000
0000
0000
,
0000
0000
0000
0000
,
0000
0000
0000
0000
,
0000
0000
0003
0000
;

//---------------dance-single - ----------------
#NOTES:
     dance-single:
     :
     Hard:
     19:
     1.150383,1.902663,0.978595,0.348314,0.779559,971.000000,853.000000,118.000000,42.000000,0.000000,0.000000,1.150383,1.902663,0.978595,0.348314,0.779559,971.000000,853.000000,118.000000,42.000000,0.000000,0.000000:
0000
0000
0000
0000
,
0000
0000
0000
0000
,
0000
0000
0000
0000
,
0000
0000
0000
0000
,
0000
0000
0000
0000
,
1001
0000
0000
0000
,
2000
3200
0320
0032
,
2003
0000
3000
0000
,
0002
0023
0230
1300
,
1001
0000
0000
0000
0000
0110
0000
0000
,
1001
0000
0000
0000
0000
0110
0000
0000
,
1001
0011
1001
1010
,
0100
0010
0100
0000
0200
0000
0310
0000
0001
0000
1000
0000
0001
0000
1000
0000
,
0001
1000
0001
1000
0001
1000
0001
1000
,
0001
1000
0001
1000
1001
0010
0100
0010
,
1001
1000
0010
1010
0100
0001
0100
0001
,
0100
0001
0100
0001
0100
0001
0100
0001
,
0100
0000
0001
0000
0100
0000
0001
0000
0100
0010
0001
0010
1000
0100
1000
0010
,
1010
0210
0301
2000
3010
0100
0010
0100
,
0010
0100
0010
0100
0010
0100
0010
0100
,
0010
0000
0100
0000
0010
0000
0100
0000
0010
1000
0100
0001
0100
1000
0010
0110
,
0000
0000
1001
0000
0000
0000
0000
0000
0001
1000
0001
1000
0001
1000
0001
1000
,
0001
1000
0001
1000
0001
0000
1000
0001
1000
0001
1000
0001
1000
0001
1000
0001
,
1000
0001
1000
0000
0010
0100
0010
0100
0001
0000
0100
0010
0100
0010
1000
0000
,
0010
0100
0010
0100
0002
0000
0010
0000
0013
0000
1100
0000
1000
0000
0100
0000
,
0010
0000
0110
0000
0001
0100
0010
0100
,
0010
0000
1010
0000
1100
0000
0100
0010
,
0001
0000
0101
0000
0010
0100
1000
0010
,
1000
0000
1010
0000
0110
0000
0001
1001
,
0100
0000
0010
0000
0100
0010
1000
0100
,
0010
0000
0011
0000
0101
0010
1000
0000
,
1000
0000
1100
0000
0000
0000
0001
0000
0101
0000
0000
0000
1010
0000
0000
0110
,
0000
0101
1001
0000
0001
0100
0010
0100
,
0001
0100
0010
0100
0001
0100
0010
0100
,
0001
0100
0010
1000
0100
0010
0100
1000
,
0100
0010
0100
1000
0100
0010
0100
1000
,
0100
0000
0010
0000
0001
1000
0001
1000
0001
1000
0001
1000
0001
1000
0001
1000
,
0001
1000
0001
1000
0001
1000
0001
1000
0001
1000
0001
1000
0001
1000
0001
1000
,
0001
0100
0020
0000
0000
0001
0000
0100
,
0000
2030
3100
1010
,
0010
0000
0000
0000
1000
0000
0000
1000
0000
0000
1000
0000
0000
0000
0110
0000
,
0000
0110
0000
0000
0001
0000
0000
0001
0000
0000
0101
0000
0000
0101
0000
0000
,
0000
0000
0000
0000
0010
0000
0000
0010
0000
0000
0010
0000
0000
0000
1100
0000
,
0000
1100
0000
0000
0001
0000
0010
0000
0100
0000
1000
0000
1010
0000
1010
0000
,
0000
0000
0200
0000
0301
0000
0000
0001
0000
0000
0001
0000
0000
0000
0110
0000
,
0000
0110
0000
0000
1000
0000
0000
1000
0000
0000
0001
0000
0000
0001
0000
0000
,
0000
0000
0110
0000
0000
0110
0000
0000
0010
0000
1010
0000
0000
1010
0000
0000
,
1000
0000
1001
0000
0000
1001
0000
0000
0001
0000
0010
0000
0100
1000
0001
1000
,
0001
0100
1001
0000
0000
0000
0000
0000
,
0000
0000
0000
0000
,
0000
0000
0001
1000
0001
1000
0001
1000
,
0001
1000
0001
1000
0001
1000
0001
1000
,
0001
1000
0002
0000
0023
0000
0230
0000
,
2300
0000
0000
0000
3001
0010
0001
0010
0100
1000
0100
1000
0010
0100
0010
0100
,
0010
0010
0100
0100
0001
0001
1000
0100
0001
1000
0010
0001
0100
1000
0100
0010
,
1020
0000
0031
0000
1100
0000
0100
0000
0010
0001
0010
1000
0010
0001
0100
0010
,
0100
0100
1000
1000
0100
0100
0001
0010
1000
0100
1000
0010
0001
1000
0001
0100
,
0020
0000
0100
0130
1001
0000
0001
0010
0100
1100
1000
0001
0101
0100
0010
1010
,
1000
1000
0001
0001
0110
0100
0010
0001
1000
0100
1000
0010
0100
0010
0001
1000
,
0002
0000
0000
0000
1003
0000
0000
0000
0120
0000
0000
0000
0130
0000
0010
0100
0000
0000
0100
0000
0010
0000
1000
0000
0001
0000
0001
0000
0010
0000
0010
0000
,
0001
0000
0001
0000
0010
0000
0010
0000
0100
1000
0010
0000
0000
0100
0001
0010
0000
0000
0001
0010
0100
0000
0000
0010
0001
0100
0000
0000
0001
1000
0001
1000
,
0100
0010
0100
0010
1001
0000
0000
0000
0001
0000
1000
0000
0001
0000
0000
0000
,
0000
0000
1000
0000
0001
1000
0001
0000
,
0000
0000
0100
0001
0010
0001
0010
0001
,
0100
0010
0100
0010
1000
0100
0010
0000
,
0000
0000
0001
0000
0100
0010
0100
0000
,
0000
0000
0001
0000
1000
0100
1000
0000
,
0000
0000
0001
0010
0001
0010
0001
0100
,
0001
0100
0010
0100
0010
1000
0100
0010
,
0100
0000
1001
0000
1000
0010
0100
0000
,
0000
0000
1001
0000
0001
0100
0010
0000
,
0000
0000
1000
0001
1000
0001
0010
0001
,
0010
0100
1000
0001
1000
0001
0100
0010
,
0100
0000
0110
0000
0000
0000
0000
0110
,
0000
0000
1001
0000
0000
0000
0000
0110
,
0000
1001
1100
1001
,
0011
0000
0000
0000
2100
0000
0000
0000
3010
0000
0010
0000
1100
0000
0000
1000
,
0000
0000
0010
0000
0100
0000
0000
0000
1010
0000
0000
0000
0101
0000
0000
0001
,
0000
0010
0101
0000
0100
0000
0010
1000
,
0100
0001
0100
1000
0010
0100
0001
0100
,
0010
0000
1000
0000
0100
0000
0001
0000
0100
0000
0001
0000
1100
0000
0000
0010
,
0000
0000
0100
0000
1001
0000
0000
0000
0110
0000
0000
0000
1001
0000
0000
0100
,
0000
0010
1001
0000
0110
0000
1001
0010
,
0100
0001
0100
1000
0010
0100
0010
1000
,
0001
0100
0010
0001
0010
1000
0002
0000
,
0200
0000
0303
0100
0001
0000
0102
0000
,
0103
2100
3100
2010
,
3010
0000
0000
0000
0012
0000
0000
0000
0013
0000
0011
0000
0000
0000
0001
1000
,
0001
0000
1000
0000
0200
0000
0000
0000
0000
0000
0000
0000
1300
0001
1000
0001
,
1000
0001
1000
0001
1000
0001
1000
0001
1000
0001
1000
0001
1000
0001
1000
0001
,
1000
0001
1000
0001
1000
0001
1000
0001
1000
0001
1000
0001
2000
0000
0100
0000
,
3020
0100
2030
0010
3002
0203
0010
0010
,
0320
0000
0130
0000
0110
0000
0010
1000
,
0100
0000
1100
0000
0001
0010
0001
0100
,
0010
0000
0110
0000
0010
0100
0001
0101
,
1000
0000
1100
0000
0001
0000
0011
0000
1000
0000
0010
1000
0010
1000
0010
0100
,
0010
0100
0010
1000
0001
0000
0000
0001
0000
0000
0001
0000
1000
0000
0010
0000
,
1000
0000
1100
0000
0010
0001
0010
0100
,
1000
0000
0000
0000
1001
0000
0000
0000
0001
0000
1000
0000
0010
0100
0010
0100
,
0010
0100
0010
0100
0010
0100
0010
0100
0010
0100
0010
0100
0001
0000
0000
0001
,
0000
1000
2000
0000
3100
0110
0001
1001
,
0010
0110
1000
1001
0020
0030
1000
1100
,
0001
0011
0100
1100
0010
0011
0200
0300
,
0001
1000
0001
1000
0001
1000
0001
1000
0001
1000
0001
1000
0001
0000
0100
0010
,
0100
0010
0100
0010
0100
0010
0100
0010
0100
0010
0100
0000
0010
1000
0010
1000
,
0001
0000
0100
0010
0100
0010
1000
0000
0001
0010
0100
1000
0010
0000
0000
0000
,
0000
0000
0000
0000
0000
0000
0000
0000
0000
0000
0000
0000
1000
0000
0000
1000
,
0000
0000
1000
0000
0000
0000
0110
0000
0000
0110
0000
0000
0001
0000
0000
0001
,
0000
0000
0101
0000
0000
0101
0000
0000
0000
0000
0000
0000
0010
0000
0000
0010
,
0000
0000
0010
0000
0000
0000
1100
0000
0000
1100
0000
0000
0001
0000
0010
0000
,
0100
0000
1000
0000
1010
0000
1010
0000
0000
0000
0200
0000
0301
0000
0000
0001
,
0000
0000
0001
0000
0000
0000
0110
0000
0000
0110
0000
0000
1000
0000
0000
1000
,
0000
0000
0001
0000
0000
0001
0000
0000
0000
0000
0110
0000
0000
0110
0000
0000
,
0010
0000
1010
0000
0000
1010
0000
0000
1000
0000
1001
0000
0000
1001
0000
0000
,
0001
0000
0010
0000
0100
1000
0001
1000
0001
0000
0100
0000
0001
0000
1000
0000
,
0001
1000
0001
1000
0001
1000
0001
1000
,
0001
1000
0001
1000
0001
1000
0001
1000
,
0001
1000
0001
1000
0001
1000
0001
1000
,
0001
1000
0001
1000
0001
1000
0001
1000
,
0001
1000
0001
1000
0001
1000
0001
1000
,
0001
1000
0001
1000
0200
0000
0300
0000
;

//---------------dance-double - ----------------
#NOTES:
     dance-double:
     :
     Easy:
     12:
     0.456125,0.749496,0.149277,0.124398,0.107811,385.000000,367.000000,18.000000,15.000000,0.000000,0.000000,0.456125,0.749496,0.149277,0.124398,0.107811,385.000000,367.000000,18.000000,15.000000,0.000000,0.000000:
00000000
00000000
00000000
00000000
,
00000000
00000000
00000000
00000000
,
00000000
00000000
00000000
00000000
,
00000000
00000000
00000000
00000000
,
00000000
00000000
00000000
00000000
,
00011000
00000000
00000000
00000000
,
00000000
00000000
00000000
00000000
,
00000000
00000000
00000000
00000000
,
00000000
00000000
00000000
00000000
,
00011000
00000000
00000000
00000000
00000000
00010000
00000000
00000000
,
00011000
00000000
00000000
00000000
00000000
00001000
00000000
00000000
,
00011000
00010000
00100000
10000000
,
02000000
00000000
03000000
00000000
00100000
00010000
00000000
00010000
,
00000000
00010000
00000000
00010000
00000000
00010000
00000000
00010000
,
00000000
00010000
00000000
00010000
02000000
00000000
00000000
00000000
,
03100000
00000000
00000000
00000000
00010000
00001000
00000000
00001000
,
00000000
00001000
00000000
00001000
00000000
00001000
00000000
00001000
,
00000000
00001000
00000000
00010000
00000200
00000000
00000000
00000000
,
00001300
00000010
00000001
00000000
00000100
00000001
00000000
00000001
,
00000000
00000001
00000000
00000001
00000000
00000001
00000000
00000001
,
00000000
00000000
00000001
00000000
00000000
00000000
00000001
00000000
00000020
00000000
00000000
00000000
00000030
00000000
00000000
00000100
,
00000000
00001001
00000000
00000000
00000010
00000000
00000100
00000000
,
00000010
00000000
00000000
00001000
00000000
00000100
00000000
00001000
,
00000000
00010000
00100000
00010000
,
00100000
01000000
00200000
00000000
00300000
00000000
10000000
00000000
,
01000000
10000000
00000000
00100000
,
00000000
01000000
00000000
00100000
,
00010000
00001000
00000000
00010000
,
00001000
00000010
00000000
00000100
,
00001000
00000001
00000000
00001000
,
00000000
00000001
00000010
00001100
,
00000000
00000000
00000001
00000000
00000000
00000000
00000000
00000000
00000100
00000000
00000000
00000000
00000010
00000000
00000000
00001000
,
00000000
00000001
00001000
00000000
00000010
00000000
00000100
00000000
,
00000010
00000100
00000010
00000100
,
00000010
00000000
00000000
00010000
00000000
00001000
00000000
00010000
,
00000000
00001000
00000000
00010000
00000000
00001000
00000000
00010000
,
00000000
00100000
01000000
00100000
,
01000000
00000000
00100000
00000000
01000000
00000000
00010000
10000000
,
00010000
10000000
01000000
00000000
00000000
00000000
00000000
00000000
,
00000000
00000000
00000000
00000000
,
00000000
00000000
00000000
00000000
00100000
00000000
00000000
01000000
00000000
00000000
00100000
00000000
00000000
00000000
00000000
00000000
,
00000000
00000000
00000000
00000000
00010000
00000000
00000000
00010000
00000000
00000000
00001000
00000000
00000000
00001000
00000000
00000000
,
00000000
00000000
00000000
00000000
00000010
00000000
00000000
00000100
00000000
00000000
00000010
00000000
00000000
00000000
00000000
00000000
,
00000000
00000000
00000000
00000000
00000001
00000000
00000000
00001000
00000000
00000000
00000010
00000000
00000100
00000000
00000001
00000000
,
00000000
00000000
00000000
00000000
00001000
00000000
00000000
00000100
00000000
00000000
00001000
00000000
00000000
00000000
00000000
00000000
,
00000000
00000000
00000000
00000000
00000100
00000000
00000000
00000100
00000000
00000000
00010000
00000000
00000000
00010000
00000000
00000000
,
00000000
00000000
00001000
00000000
00000000
00001000
00000000
00000000
00100000
00000000
00010000
00000000
00000000
00010000
00000000
00000000
,
01000000
00000000
00100000
00000000
00000000
00100000
00000000
00000000
10000000
00000000
00100000
00000000
01000000
00000000
00010000
00000000
,
00100000
00010000
01000000
00000000
00000000
00000000
00000000
00000000
,
00000000
00000000
00000000
00000000
,
00000000
00022000
00000000
00000000
,
00000000
00000000
00000000
00000000
,
00000000
00033000
00000000
00000000
,
00000000
00012000
00003100
00000010
,
00001000
00001000
00000001
00000010
00000100
00000000
00000010
00001000
,
00010000
00010200
00001300
00010000
,
00001000
00010000
00100000
00000000
10000000
01000000
00100000
00010000
,
01010000
00000000
00020000
00000000
10030000
01000000
00200000
00000000
,
00301000
00010000
00001000
00000000
00001000
00000000
00010000
00001000
,
00000100
00000000
00000012
00000000
00000013
00000100
00001000
00000000
,
00000001
00000000
00000100
00000000
00000010
00000000
00000000
00001001
00000000
00000000
00000010
00000000
00001000
00000000
00000001
00000000
,
00001000
00000010
00000000
00000000
,
00000000
00000100
00000000
00000000
,
00000000
00001000
00000000
00000000
,
00000000
00010000
00000000
00000000
,
00000000
10000000
00000000
00000000
,
00000000
00100000
00000000
00000000
,
00000000
00010000
00000000
00000000
,
00000000
00000100
00000000
00000010
,
00000000
00001001
00000000
00000000
,
00000000
00000110
00000000
00000000
,
00000000
00000001
00000000
00000100
,
00000000
00001000
00010000
00001000
,
00000000
00000000
00011000
00000000
00000000
00000000
00000000
00010000
,
00000000
00000000
00011000
00000000
00000000
00000000
00000000
00001000
,
00000000
00011000
00010000
00100000
,
10000000
02000000
03000000
00100000
,
00010000
01000000
00010000
00000000
00000000
00000000
00100000
00000000
,
00001000
00010000
00001000
00000000
00000000
00000000
00010000
00000000
,
00001000
00000010
00000001
00001000
,
00000010
00001000
00000001
00000010
,
00000001
00000010
00000001
00000000
00000000
00000000
00001000
00000000
,
00000100
00000010
00000100
00000000
00000000
00000000
00010000
00000000
,
00001000
00010000
00100000
01000000
,
00100000
10000000
01000000
10010000
,
00000000
00000000
00100000
01000000
,
01000000
00100000
00100000
00001000
,
00001000
00000000
00000100
00000000
00000100
00000010
00000000
00000001
,
00001000
00000010
00000000
00000100
,
00000010
00000000
00000100
00000000
00000010
00000000
00001000
00000001
,
00001000
00000001
00001000
00000001
00001000
00000001
00000010
00000000
,
00000100
00001000
00010000
01000000
,
00000000
00000000
00000000
00010000
,
10000000
00010000
00000000
01000000
,
00100000
01000000
00000000
00001000
,
00001000
00010000
00010000
00001000
,
00000100
00000020
00000000
00001030
,
00000100
00001000
00000000
00000001
,
00000010
00000001
00000000
00000100
,
00001000
00000000
00000000
00000000
00010000
00000000
00000000
00000000
00100000
00000000
00000000
00000000
10000000
00000000
00000000
10000000
,
00000000
00010000
00100000
00000000
00010000
00000000
01000000
00000000
,
00010000
01000000
00010000
00100000
,
00001000
00100000
00001000
00100000
,
00001000
00010000
00001000
00000000
00000100
00000000
00000000
00000001
,
00000010
00000001
00000000
00000100
00000000
00000000
00000010
00000000
,
00000100
00000000
00000010
00000100
00000010
00000100
00000001
00000000
,
00000000
00000000
00000000
00000000
00000000
00000000
00000000
00000000
00000000
00000000
00000000
00000000
00000100
00000000
00000000
00000010
,
00000000
00000000
00000100
00000000
00000000
00000000
00000000
00000000
00000000
00000000
00000000
00000000
00001000
00000000
00000000
00001000
,
00000000
00000000
00010000
00000000
00000000
00010000
00000000
00000000
00000000
00000000
00000000
00000000
01000000
00000000
00000000
00100000
,
00000000
00000000
01000000
00000000
00000000
00000000
00000000
00000000
00000000
00000000
00000000
00000000
10000000
00000000
00000000
00010000
,
00000000
00000000
01000000
00000000
00100000
00000000
10000000
00000000
00000000
00000000
00000000
00000000
00010000
00000000
00000000
00100000
,
00000000
00000000
00010000
00000000
00000000
00000000
00000000
00000000
00000000
00000000
00000000
00000000
00100000
00000000
00000000
00100000
,
00000000
00000000
00001000
00000000
00000000
00001000
00000000
00000000
00000000
00000000
00010000
00000000
00000000
00010000
00000000
00000000
,
00000100
00000000
00001000
00000000
00000000
00001000
00000000
00000000
00000010
00000000
00000100
00000000
00000000
00000100
00000000
00000000
,
00000001
00000100
00000010
00001000
00000100
00001000
00000002
00000000
,
00000000
00000000
00000000
00000000
,
00000000
00000000
00000000
00000000
,
00000000
00000000
00000000
00000000
,
00000000
00000000
00000000
00000000
,
00000000
00000000
00000000
00000000
,
00000000
00000000
00000003
00000000
;

//---------------dance-double - ----------------
#NOTES:
     dance-double:
     :
     Medium:
     14:
     0.689519,1.049295,0.257089,0.149277,0.161717,582.000000,551.000000,31.000000,18.000000,0.000000,0.000000,0.689519,1.049295,0.257089,0.149277,0.161717,582.000000,551.000000,31.000000,18.000000,0.000000,0.000000:
00000000
00000000
00000000
00000000
,
00000000
00000000
00000000
00000000
,
00000000
00000000
00000000
00000000
,
00000000
00000000
00000000
00000000
,
00000000
00000000
00000000
00000000
,
00011000
00000000
00000000
00000000
,
00000000
00000000
00000000
00000000
,
00000000
00000000
00000000
00000000
,
00000000
00000000
00000000
00000000
,
00011000
00000000
00000000
00000000
00000000
00010000
00000000
00000000
,
00011000
00000000
00000000
00000000
00000000
00001000
00000000
00000000
,
00011000
00010000
00011000
00001000
,
02010000
00000000
03000000
00000000
00100000
10000000
00100000
10000000
,
00100000
10000000
00100000
10000000
00100000
10000000
00100000
10000000
,
00100000
10000000
00100000
10000000
00020000
00000000
00000000
00000000
,
00130000
00000000
01000000
00000000
00010000
00001000
00010000
00001000
,
00010000
00001000
00010000
00001000
00010000
00001000
00010000
00001000
,
00010000
00001000
00010000
00001000
00000200
00000000
00000000
00000000
,
00001300
00000100
00000001
00000000
00001000
00000001
00001000
00000001
,
00001000
00000001
00001000
00000001
00001000
00000001
00001000
00000001
,
00001000
00000000
00000001
00000000
00001000
00000000
00000001
00000000
00000020
00000000
00000000
00000000
00000000
00000000
00000030
00000100
,
00000000
00001001
00000000
00000000
00000010
00000100
00000010
00000100
,
00000010
00000100
00000000
00001000
00010000
00001000
00010000
00001000
,
00010000
00000000
00100000
01000000
00100000
01000000
00100000
01000000
,
00100000
01000000
00020000
00000000
00030000
00000000
10000000
01000000
,
00100000
00010000
01000000
00100000
,
00010000
00000000
00001000
00000000
00010000
00000000
00001000
00100000
,
00010000
00001000
00000100
00001000
,
00010000
00000000
00100000
00000000
00001000
00000000
00000100
00000001
,
00000010
00001000
00010000
00000010
,
00000100
00000000
00000001
00000100
00000010
00000000
00001000
00000000
,
00000000
00000000
00000110
00000000
00000000
00000000
00000000
00000000
00001001
00000000
00000000
00000000
00000100
00000000
00000000
00000010
,
00000000
00010000
00001000
00000000
01000000
00100000
01000000
00100000
,
01000000
00100000
01000000
00100000
01000000
00100000
01000000
00100000
,
01000000
00100000
00000000
00010000
00001000
00010000
00001000
00010000
,
00001000
00010000
00001000
00010000
00001000
00010000
00001000
00010000
,
00001000
00000000
00000010
00000100
00000010
00000100
00000010
00000100
,
00000010
00000100
00001000
00000001
00001000
00000001
00001000
00000001
,
00001000
00000001
00000100
00000000
00000000
00000000
00000000
00000000
,
00000000
00000000
00000000
00000000
,
00000000
00000000
00000000
00000000
00000001
00000000
00000000
00000001
00000000
00000000
00000001
00000000
00000000
00000000
00000010
00000000
,
00000000
00000010
00000000
00000000
00000100
00000000
00000000
00001000
00000000
00000000
00010000
00000000
00000000
01000000
00000000
00000000
,
00000000
00000000
00000000
00000000
01000000
00000000
00000000
01000000
00000000
00000000
01000000
00000000
00000000
00000000
00010000
00000000
,
00000000
00010000
00000000
00000000
00100000
00000000
01000000
00000000
00100000
00000000
00010000
00000000
00001000
00000000
00000010
00000000
,
00000000
00000000
00000100
00000000
00000010
00000000
00000000
00000010
00000000
00000000
00000010
00000000
00000000
00000000
00001000
00000000
,
00000000
00001000
00000000
00000000
00000100
00000000
00000000
00001000
00000000
00000000
00010000
00000000
00000000
01000000
00000000
00000000
,
00000000
00000000
00100000
00000000
00000000
00100000
00000000
00000000
00100000
00000000
01000000
00000000
00000000
01000000
00000000
00000000
,
01000000
00000000
00010000
00000000
00000000
00010000
00000000
00000000
00010000
00000000
00001000
00000000
00000100
00000000
00001000
00000000
,
00010000
01000000
00100000
00000000
00000000
00000000
00000000
00000000
,
00000000
00000000
00000000
00000000
,
00000000
02200000
00000000
00000000
,
00000000
00000000
00000000
00000000
,
00000000
03300000
00000000
00000000
,
00000000
00000000
10010000
10000000
00100000
10000000
01000000
10000000
,
00100000
01000000
00100000
00000000
00010000
00001000
00010000
00000000
00000100
00000000
00001000
00000000
00000010
00000100
00000001
00000000
,
00000011
00000000
00000001
00000010
00000100
00001000
00000100
00001000
,
00000010
00000100
00001000
00000000
00010000
00000100
00001000
00000000
00010000
00000000
00100000
00000000
10010000
00000000
01000000
00000000
,
20000000
00000000
31000000
00100000
00010000
01000000
00100000
01000000
,
00010000
00001000
00010000
00000000
00001000
00000100
00000010
00000000
00000001
00000000
00000100
00000000
00001000
00010000
00000100
00000000
,
00011000
00000000
00000100
00001000
00000100
00001000
00010000
00100000
,
00010000
00000000
00100000
00000000
00011000
00000000
00000000
00010100
00000000
00000000
00001010
00000000
00000001
00000000
00000100
00000000
,
00001001
00000001
00000010
00000000
00000100
00001000
00000100
00000000
,
00000000
00000000
00000010
00000000
00000001
00000100
00000001
00000000
,
00000000
00000010
00001000
00010000
,
00000100
00010000
00001000
00100000
,
00000000
00000000
01000000
00000000
10000000
01000000
10000000
00000000
,
00000000
00000000
00100000
00000000
01000000
00100000
01000000
00000000
,
00000000
00010000
00100000
00010000
,
00001000
00000010
00000001
00001000
,
00000100
00000000
00001001
00000000
00000001
00000010
00000001
00000000
,
00000000
00000000
00001000
00000000
00000100
00001000
00000100
00000000
,
00000000
00000010
00000100
00001000
,
00000010
00001000
00010000
00100000
,
00001000
00000000
00011000
00000000
00000000
00000000
00000000
00010000
,
00000000
00000000
00011000
00000000
00000000
00000000
00000000
00001000
,
00000000
00011000
00010000
00011000
,
00001000
02010000
03000000
00110000
,
00010000
01000000
00010000
00000000
10000000
00000000
10100000
00000000
,
10000000
00100000
01000000
00000000
01000000
00000000
00010000
00100000
,
00010000
00000000
00001000
00000000
00010000
00000000
00001000
00000100
,
00000010
00000000
00000001
00001000
00000010
00000000
00000110
00000000
,
00000100
00000001
00000100
00000000
00000010
00000000
00001010
00000000
,
00001000
00000100
00001000
00000000
00000010
00000000
00000100
00000001
,
00000010
00000000
00000100
00001000
00010000
00000000
00001000
00000000
,
00010000
01000000
00100000
00000000
01000000
00000000
10010000
00000000
,
00000000
00000000
00000000
01000000
00100000
00000000
00020000
00000000
,
00030100
00002000
01003000
00020000
,
00030010
00000000
00002000
00000000
00103000
00010000
00000000
00001000
,
00000010
00000000
00001001
00000000
00000000
00000000
00000010
00000100
,
00000010
00000100
00000010
00000100
00000010
00000100
00000010
00000100
,
00000010
00000100
00000010
00000100
00000010
00000100
00000001
00000010
,
00000000
00000010
00000000
00000100
00010000
00002000
00000000
00000000
,
00000000
00000000
00013000
00000000
00011000
00000000
00001000
00010000
,
00100000
00000000
01000000
00000000
00010000
00000000
10000000
01000000
,
00100000
00000000
00010000
00000000
01000000
00000000
00001000
00010000
,
00001000
00010000
00000100
00010000
00000100
00010000
00001000
00000100
,
00000010
00000000
00000100
00000000
00000001
00000000
00000000
00000001
00000000
00000000
00000001
00000000
00000010
00000000
00000100
00000000
,
00000010
00000000
00000001
00000000
00000100
00000000
00000010
00001000
,
00010000
00000000
00100000
00000000
00010000
00000000
01000000
00100000
,
01000000
00000000
00100000
00000000
01000000
00000000
00100000
00000000
01000000
00000000
00100000
00000000
10000000
00000000
00000000
10000000
,
00000000
00010000
00020000
00030000
01000000
00100000
01000000
00100000
,
01000000
00100000
01000000
00100000
02000000
03000000
00001000
00010000
,
00001000
00010000
00001000
00010000
00001000
00010000
00002000
00003000
,
00000100
00000010
00000100
00000010
00000100
00000010
00000000
00000100
,
00000001
00000100
00000001
00000100
00000001
00000000
00010000
00001000
,
00010000
00001000
00010000
00001000
00010000
00001000
01000000
00000000
,
00000000
00000000
00000000
00000000
00000000
00000000
00000000
00000000
00000000
00000000
00000000
00000000
10000000
00000000
00000000
10000000
,
00000000
00000000
10000000
00000000
00000000
00000000
01000000
00000000
00000000
01000000
00000000
00000000
00100000
00000000
00000000
00010000
,
00000000
00000000
00001000
00000000
00000000
00000010
00000000
00000000
00000000
00000000
00000000
00000000
00000010
00000000
00000000
00000010
,
00000000
00000000
00000010
00000000
00000000
00000000
00001000
00000000
00000000
00001000
00000000
00000000
00000100
00000000
00000010
00000000
,
00000100
00000000
00001000
00000000
00010000
00000000
01000000
00000000
00000000
00000000
00100000
00000000
01000000
00000000
00000000
01000000
,
00000000
00000000
01000000
00000000
00000000
00000000
00010000
00000000
00000000
00010000
00000000
00000000
00100000
00000000
00000000
00010000
,
00000000
00000000
00001000
00000000
00000000
00000010
00000000
00000000
00000000
00000000
00000100
00000000
00000000
00000100
00000000
00000000
,
00000100
00000000
00000010
00000000
00000000
00000010
00000000
00000000
00000010
00000000
00001000
00000000
00000000
00001000
00000000
00000000
,
00001000
00010000
00100000
00010000
00001000
00000010
00000200
00000000
,
00000000
00000000
00000000
00000000
,
00000000
00000000
00000000
00000000
,
00000000
00000000
00000000
00000000
,
00000000
00000000
00000000
00000000
,
00000000
00000000
00000000
00000000
,
00000000
00000000
00000300
00000000
;

//---------------dance-double - ----------------
#NOTES:
     dance-double:
     :
     Hard:
     19:
     1.125503,1.952733,0.870784,0.215623,0.779559,950.000000,845.000000,105.000000,26.000000,0.000000,0.000000,1.125503,1.952733,0.870784,0.215623,0.779559,950.000000,845.000000,105.000000,26.000000,0.000000,0.000000:
// measure 0
00000000
00000000
00000000
00000000
,  // measure 1
00000000
00000000
00000000
00000000
,  // measure 2
00000000
00000000
00000000
00000000
,  // measure 3
00000000
00000000
00000000
00000000
,  // measure 4
00000000
00000000
00000000
00000000
,  // measure 5
00011000
00000000
00000000
00000000
,  // measure 6
00020000
00230000
20300000
32000000
,  // measure 7
03010000
00000000
00000000
00000000
,  // measure 8
00002000
00003200
00000302
00000013
,  // measure 9
00011000
00000000
00000000
00000000
00000000
01000000
00000000
00000000
,  // measure 10
00011000
00000000
00000000
00000000
00000000
00000100
00000000
00000000
,  // measure 11
00011000
00100000
00011000
00000010
,  // measure 12
00001000
00001000
00010000
00000000
00200000
00000000
01300000
00000000
00100000
00000000
10000000
00000000
00100000
00000000
10000000
00000000
,  // measure 13
00100000
10000000
00100000
10000000
00100000
10000000
00100000
10000000
,  // measure 14
00100000
10000000
00100000
10000000
10010000
00100000
01000000
00100000
,  // measure 15
00011000
00000010
00000100
00001010
00010000
00001000
00010000
00001000
,  // measure 16
00010000
00001000
00010000
00001000
00010000
00001000
00010000
00001000
,  // measure 17
00010000
00000000
00001000
00000000
00010000
00000000
00001000
00000000
00000100
00000001
00000010
00000100
00001000
00000100
00010000
00001000
,  // measure 18
00010100
00000000
00010000
00000000
00001000
00000100
00000001
00000000
00001000
00000000
00000001
00000000
00001000
00000000
00000001
00000000
,  // measure 19
00001000
00000001
00001000
00000001
00001000
00000001
00001000
00000001
,  // measure 20
00001000
00000000
00000001
00000000
00001000
00000000
00000001
00000000
00000010
00000100
00001000
00000100
00000010
00000100
00001000
00010000
,  // measure 21
00000000
00000000
01010000
00000000
00000000
00000000
00000000
00000000
00100000
00010000
00100000
00010000
00100000
00010000
00100000
00010000
,  // measure 22
00100000
00010000
00100000
00010000
00100000
00000000
00000010
00001000
00000010
00001000
00000010
00001000
00000010
00001000
00000010
00001000
,  // measure 23
00000010
00001000
00000010
00000000
00010000
00000100
00010000
00000100
00010000
00000000
00001000
01000000
00001000
01000000
00001000
00000000
,  // measure 24
00010000
00000100
00010000
00000100
00020000
00000000
00031000
00000000
00010000
00000000
01100000
00000000
10000000
00000000
01000000
00000000
,  // measure 25
00010000
00000000
00011000
00000000
00010000
00100000
01000000
00100000
,  // measure 26
10000000
00000000
10010000
00000000
00110000
00000000
10000000
00100000
,  // measure 27
01000000
00000000
01010000
00000000
01000000
00001000
00010000
00001000
,  // measure 28
00000010
00000000
00000110
00000000
00001100
00000000
00010000
00011000
,  // measure 29
00000100
00000000
00000110
00000000
00000010
00000100
00001000
00000100
,  // measure 30
00010000
00000000
00110000
00000000
00100000
01000000
01010000
00000000
,  // measure 31
10000000
00000000
10100000
00000000
00000000
00000000
00010000
00000000
01010000
00000000
00000000
00000000
00110000
00000000
00000000
00011000
,  // measure 32
00000000
00001100
00000110
00000000
00000001
00000100
00000010
00000100
,  // measure 33
00000001
00000100
00000010
00000100
00000001
00000100
00000010
00000100
,  // measure 34
00000001
00000100
00000010
00001000
00000100
00010000
00000100
00001000
,  // measure 35
00000100
00010000
00000100
00001000
00000100
00010000
00000100
00001000
,  // measure 36
00000100
00000000
00010000
00000000
00001000
00010000
00001000
00010000
00001000
00010000
00001000
00010000
00001000
00010000
00001000
00010000
,  // measure 37
00001000
00010000
00001000
00010000
00001000
00010000
00001000
00010000
00001000
00010000
00001000
00010000
00001000
00010000
00001000
00010000
,  // measure 38
00001000
00010000
00001000
00010000
00001000
00000000
00000000
00000000
00000000
00000000
00000000
00000000
00000000
00000000
00000000
00000000
,  // measure 39
00000000
00000000
00000000
00000000
,  // measure 40
00000000
00000000
00000000
00000000
00010000
00000000
00000000
00010000
00000000
00000000
00010000
00000000
00000000
00000000
01100000
00000000
,  // measure 41
00000000
01100000
00000000
00000000
10000000
00000000
00000000
10000000
00000000
00000000
10010000
00000000
00000000
10010000
00000000
00000000
,  // measure 42
00000000
00000000
00000000
00000000
00001000
00000000
00000000
00001000
00000000
00000000
00001000
00000000
00000000
00000000
00011000
00000000
,  // measure 43
00000000
00011000
00000000
00000000
00010000
00000000
00000100
00000000
00001000
00000000
00000010
00000000
00000110
00000000
00000110
00000000
,  // measure 44
00000000
00000000
00002000
00000000
00003001
00000000
00000000
00000001
00000000
00000000
00000001
00000000
00000000
00000000
00001010
00000000
,  // measure 45
00000000
00001010
00000000
00000000
00010000
00000000
00000000
00010000
00000000
00000000
00011000
00000000
00000000
00011000
00000000
00000000
,  // measure 46
00000000
00000000
00101000
00000000
00000000
00101000
00000000
00000000
00010000
00000000
01010000
00000000
00000000
01010000
00000000
00000000
,  // measure 47
10000000
00000000
10100000
00000000
00000000
10100000
00000000
00000000
00010000
00000000
01000000
00000000
00100000
00010000
00001000
00010000
,  // measure 48
00001000
00010000
00001100
00000000
00000000
00000000
00000000
00000000
,  // measure 49
00000000
00000000
00000000
00000000
,  // measure 50
00000000
00000000
00000010
00000100
00000010
00000100
00000010
00000100
,  // measure 51
00000010
00000100
00000010
00000100
00000010
00000100
00000010
00000100
,  // measure 52
00000010
00000100
00000020
00000000
00000000
00000000
00000230
00000000
,  // measure 53
00000301
00000000
00000000
00000000
00001001
00000000
00001000
00000000
00000010
00001000
00000100
00010000
00001000
00100000
00010000
01000000
,  // measure 54
00100000
00100000
00001000
00001000
00000100
00000100
00000010
00000010
00001000
00010000
00100000
10000000
01000000
00010000
01000000
10000000
,  // measure 55
00200000
00000000
01300000
00000000
10010000
00000000
00010000
00000000
01000000
00010000
00100000
00001000
00010000
00000100
00001000
00000010
,  // measure 56
00000100
00000100
00010000
00010000
00100000
00100000
01000000
01000000
00010000
00001000
00000100
00000001
00000010
00001000
00000010
00000001
,  // measure 57
00000201
00000000
00000000
00000000
00000010
00000000
00000310
00000000
00000101
00000000
00000000
00000000
00000001
00000000
00000010
00000100
00001000
00000000
00001000
00000000
00000100
00000000
00000100
00000000
00010000
00000000
00010000
00000000
00100000
00000000
00100000
00000000
,  // measure 58
00010000
00000000
01000000
00000000
10000000
00000000
00100000
00000000
00010000
00000000
00010000
00000000
00001000
00000000
00001000
00000000
00000100
00010000
00001000
00000000
00010000
00000000
00000100
00000000
00001000
00000000
00010000
00000000
00001000
00000000
00000010
00000000
,  // measure 59
00000210
00000000
00000000
00000000
00000310
00000000
00000000
00000000
00001001
00000000
00000001
00000000
00000010
00000000
00000100
00000010
00000001
00000000
00000100
00000000
00001000
00000000
00010000
00000000
00001000
00000000
00100000
00000000
00010000
00000000
10000000
00000000
,  // measure 60
00100000
00000000
00010000
00000000
00100000
00000000
10000000
00000000
00100000
00010000
00001000
00000000
00000000
00010000
00001000
00100000
00000000
00000000
00001000
00010000
00100000
00000000
00000000
00010000
00001000
00000010
00000000
00000000
00000100
00000010
00000100
00000010
,  // measure 61
00000001
00001000
00000010
00000100
00000010
00000000
00000000
00000000
00000010
00000000
00000100
00000000
00000010
00000000
00000000
00000000
,  // measure 62
00000000
00000000
00001000
00000000
00001000
00000100
00001000
00000000
,  // measure 63
00000000
00000000
00000010
00000100
00001000
00010000
01000000
00010000
,  // measure 64
00001000
00000010
00000100
00001000
00010000
00100000
01000000
00000000
,  // measure 65
00000000
00000000
00100000
00000000
00100000
01000000
00100000
00000000
,  // measure 66
00000000
00000000
00010000
00000000
00010000
10000000
00010000
00000000
,  // measure 67
00000000
00000000
01000000
00100000
00010000
00000100
00000010
00000100
,  // measure 68
00001000
00010000
01000000
00010000
00001000
00010000
00001000
00000010
,  // measure 69
00000100
00000010
00000110
00000000
00000001
00001000
00000001
00000000
,  // measure 70
00000000
00000000
00001000
00000000
00000010
00000100
00000010
00000000
,  // measure 71
00000000
00000000
00000100
00001000
00000100
00001000
00010000
00100000
,  // measure 72
00010000
00100000
01000000
00100000
10000000
00100000
00010000
00001000
,  // measure 73
00000100
00000001
00001001
00000000
00000000
00000000
00000000
00000010
,  // measure 74
00000000
00000000
00001001
00000000
00000000
00000000
00000000
00000010
,  // measure 75
00000000
00001100
00010000
01100000
,  // measure 76
10000000
00000000
00000000
00000000
00210000
00000000
00000000
00000000
00310000
00000000
00010000
00000000
10010000
00000000
00000000
01000000
,  // measure 77
00000000
00000000
10000000
00000000
10100000
00000000
00000000
00000000
01100000
00000000
00000000
00000000
01010000
00000000
00000000
00100000
,  // measure 78
00000000
00010000
00011000
00000000
00001010
00000000
00001000
00000010
,  // measure 79
00000001
00000010
00001000
00000100
00001000
00010000
00100000
10000000
,  // measure 80
00100000
00000000
00010000
00000000
10000000
00000000
01000000
00000000
00010000
00000000
00001000
00000000
00011000
00000000
00000000
00100000
,  // measure 81
00000000
00000000
01000000
00000000
01010000
00000000
00000000
00000000
00011000
00000000
00000000
00000000
00011000
00000000
00000000
00000010
,  // measure 82
00000000
00000100
00001100
00000000
00011000
00000000
00011000
00010000
,  // measure 83
00100000
10000000
00010000
01000000
10000000
01000000
00010000
01000000
,  // measure 84
00100000
00010000
00001000
00010000
00000100
00001000
00020000
00000000
,  // measure 85
00200000
00000000
00330000
00010000
10000000
00000000
01100000
00000000
,  // measure 86
00101000
00001100
00000110
00010100
,  // measure 87
01010000
00000000
00011000
00000000
00001010
00000110
00000000
00000010
,  // measure 88
00001100
00000000
00000000
00000000
00000200
00000000
00000000
00000000
00000000
00000000
00000000
00000000
00010300
00001000
00010000
00001000
,  // measure 89
00010000
00001000
00010000
00001000
00010000
00001000
00010000
00001000
00010000
00001000
00010000
00001000
00010000
00001000
00010000
00001000
,  // measure 90
00010000
00001000
00010000
00001000
00010000
00001000
00010000
00001000
00010000
00001000
00010000
00001000
00010000
00000000
00001000
00000000
,  // measure 91
00100000
00001000
00010000
00000100
00010000
00001000
02002000
00000000
,  // measure 92
00000000
00000000
03003000
00000000
00011000
00000000
00001000
00010000
,  // measure 93
00100000
00000000
01100000
00000000
00010000
00000100
00010000
00001000
,  // measure 94
00000010
00000000
00000110
00000000
00010000
00001000
00010000
00010000
,  // measure 95
00000100
00000000
00000100
00000000
00000010
00000000
00000010
00000000
00001000
00000000
00001000
00000000
00010000
00001000
00100000
00010000
,  // measure 96
01000000
00000000
00100000
00000000
10000000
00000000
00000000
10000000
00000000
00000000
10000000
00000000
01000000
00000000
00100000
00000000
,  // measure 97
00010000
00000000
00011000
00000000
00001000
00000100
00000001
00001000
,  // measure 98
00000010
00000000
00000000
00000000
00000011
00000000
00000000
00000000
00000001
00000000
00001000
00000000
00000010
00000100
00000010
00000100
,  // measure 99
00000010
00000100
00000010
00000100
00000010
00000100
00000010
00000100
00000010
00000100
00000010
00000100
00000001
00000000
00000000
00000001
,  // measure 100
00000000
00001000
00000020
00000030
00001000
00001000
00001000
00001000
,  // measure 101
00001000
00001000
00001000
00001000
00002000
00003000
00010000
00010000
,  // measure 102
00010000
00010000
00010000
00010000
00010000
00010000
00020000
00030000
,  // measure 103
00100000
00010000
00100000
00010000
00100000
00010000
00100000
00010000
00100000
00010000
00100000
00010000
00100000
00000000
00000010
00001000
,  // measure 104
00000010
00001000
00000010
00001000
00000010
00001000
00000010
00001000
00000010
00001000
00000010
00000000
00010000
00001000
00010000
00001000
,  // measure 105
00010000
00000000
00001000
00010000
00001000
00010000
00001000
00000000
00010000
00000100
00001000
00000010
00000100
00000000
00000000
00000000
,  // measure 106
00000000
00000000
00000000
00000000
00000000
00000000
00000000
00000000
00000000
00000000
00000000
00000000
00001000
00000000
00000000
00001000
,  // measure 107
00000000
00000000
00001000
00000000
00000000
00000000
00000110
00000000
00000000
00000110
00000000
00000000
00000001
00000000
00000000
00000001
,  // measure 108
00000000
00000000
00001001
00000000
00000000
00001001
00000000
00000000
00000000
00000000
00000000
00000000
00010000
00000000
00000000
00010000
,  // measure 109
00000000
00000000
00010000
00000000
00000000
00000000
00011000
00000000
00000000
00011000
00000000
00000000
00001000
00000000
00100000
00000000
,  // measure 110
00010000
00000000
01000000
00000000
01100000
00000000
01100000
00000000
00000000
00000000
00020000
00000000
10030000
00000000
00000000
10000000
,  // measure 111
00000000
00000000
10000000
00000000
00000000
00000000
01010000
00000000
00000000
01010000
00000000
00000000
00001000
00000000
00000000
00001000
,  // measure 112
00000000
00000000
00011000
00000000
00000000
00011000
00000000
00000000
00000000
00000000
00010100
00000000
00000000
00010100
00000000
00000000
,  // measure 113
00001000
00000000
00001010
00000000
00000000
00001010
00000000
00000000
00000001
00000000
00000101
00000000
00000000
00000101
00000000
00000000
,  // measure 114
00000001
00000000
00000100
00000000
00000010
00001000
00000010
00001000
00000010
00000000
00000100
00000000
00001000
00000000
00010000
00000000
,  // measure 115
00001000
00010000
00001000
00010000
00001000
00010000
00001000
00010000
,  // measure 116
00001000
00010000
00001000
00010000
00001000
00010000
00001000
00010000
,  // measure 117
00001000
00010000
00001000
00010000
00001000
00010000
00001000
00010000
,  // measure 118
00001000
00010000
00001000
00010000
00001000
00010000
00001000
00010000
,  // measure 119
00001000
00010000
00001000
00010000
00001000
00010000
00001000
00010000
,  // measure 120
00001000
00010000
00001000
00010000
00002000
00000000
00003000
00000000
;
