#TITLE:The Show Must Go On;
#SUBTITLE:;
#ARTIST:MandoPony;
#TITLETRANSLIT:;
#SUBTITLETRANSLIT:;
#ARTISTTRANSLIT:;
#GENRE:;
#CREDIT:;
#BANNER:The Show Must Go On-bn.png;
#BACKGROUND:The Show Must Go On-bg.png;
#LYRICSPATH:;
#CDTITLE:cdtitle.png;
#MUSIC:The Show Must Go On.mp3;
#OFFSET:1.503000;
#SAMPLESTART:63.173004;
#SAMPLELENGTH:15.000000;
#LASTBEATHINT:1.152002;
#SELECTABLE:YES;
#BPMS:0.000000=151.009995
;
#STOPS:
;
#BGCHANGES:;
#KEYSOUNDS:;
#ATTACKS:;

//---------------dance-single - ----------------
#NOTES:
     dance-single:
     :
     Beginner:
     3:
     0.159352,0.279215,0.153376,0.139433,0.000000,160.000000,138.000000,22.000000,20.000000,0.000000,0.000000,0.159352,0.279215,0.153376,0.139433,0.000000,160.000000,138.000000,22.000000,20.000000,0.000000,0.000000:
0000
0000
0000
0000
,
0000
0000
0000
0000
,
0000
0000
0000
0000
,
0000
0000
0000
0000
,
0000
0000
0000
0000
,
1000
0000
1000
0000
,
0001
0000
0001
0000
,
0100
0000
0100
0000
,
0220
0000
0000
0330
,
0100
0000
0100
0000
,
0010
0000
0010
0000
,
1000
0000
1000
0000
,
0002
0000
0003
0000
,
1000
0000
1000
0000
,
0001
0000
0001
0000
,
0100
0000
0100
0000
,
0002
0000
0003
0000
,
1000
0000
1000
0000
,
1000
0000
1010
0000
,
0010
0000
0010
0000
,
0010
0000
0110
0000
,
0100
0000
0100
0000
,
0100
0000
0101
0000
,
0001
0000
0001
0000
,
0002
0000
0003
0000
,
1000
0000
1000
0000
,
1000
0000
1100
0000
,
0100
0000
0100
0000
,
0100
0000
0110
0000
,
0010
0000
0010
0000
,
0010
0000
0011
0000
,
0001
0000
0001
0000
,
2000
0000
3000
0000
,
0001
0000
0100
0000
,
0001
0000
0000
0000
,
1000
0000
0010
0000
,
1000
0000
0000
0000
,
0100
0000
1000
0000
,
0100
0000
0000
0000
,
1010
0000
0101
0000
,
1001
0000
0000
0000
,
0001
0000
0000
1000
,
0001
0000
0000
1000
,
0001
0000
0000
1000
,
0002
0000
0000
0000
,
0003
0000
0100
0000
,
0100
0000
0010
0000
,
1010
0000
1010
0000
,
0101
0000
0101
0000
,
0002
0000
0000
0000
,
0003
0000
0000
0000
,
2000
0000
0000
0000
,
3000
0000
0000
0000
,
0010
0000
0010
0000
,
2000
0000
3000
0000
,
0001
0000
0001
0000
,
2000
0000
3000
0000
,
0010
0000
0010
0000
,
0010
0000
0110
0000
,
0100
0000
0100
0000
,
0100
0000
0101
0000
,
0001
0000
0001
0000
,
0001
0000
1001
0000
,
1000
0000
1000
0000
,
2000
0000
3000
0000
,
0001
0000
1000
0000
,
0002
0000
0003
0000
,
0100
0000
0010
0000
,
0100
0000
0001
0000
,
0200
0000
0000
0000
,
0300
0000
0000
0000
,
0002
0000
0000
0000
,
0003
0000
0000
0000
,
1000
0000
0010
0000
,
1000
0000
0000
0000
,
0001
0000
0100
0000
,
0001
0000
0000
0000
,
1000
0000
0100
0000
,
1000
0000
0000
0000
,
1010
0000
1010
0000
,
1001
0000
1001
0000
,
0001
0000
0000
0100
,
0001
0000
0000
0100
,
0001
0000
0000
0100
,
0020
0000
0030
0000
,
1001
0000
1000
1000
,
1000
0000
0000
0001
,
0020
0000
0230
0000
,
2300
0000
3002
0000
,
0003
0000
0000
0000
;

//---------------dance-single - ----------------
#NOTES:
     dance-single:
     :
     Easy:
     6:
     0.280858,0.372286,0.188235,0.153376,0.000000,282.000000,255.000000,27.000000,22.000000,0.000000,0.000000,0.280858,0.372286,0.188235,0.153376,0.000000,282.000000,255.000000,27.000000,22.000000,0.000000,0.000000:
0000
0000
0000
0000
,
0000
0000
0000
0000
,
0000
0000
0000
0000
,
0000
0000
0000
0000
,
0000
0000
0000
0000
,
1000
0000
1000
0000
,
0001
1000
0001
0000
,
0010
0000
0010
0000
,
0002
0023
0230
2300
,
3010
0010
1000
0100
,
0010
0000
0010
0000
,
0001
0100
0010
1000
,
0100
0000
0200
0000
,
1300
0010
0100
0001
,
0010
0000
0010
0000
,
0001
0001
0000
1000
,
1000
0000
2002
0000
,
3003
1000
0000
1000
,
0000
1000
1000
0100
,
0001
0000
0001
0000
,
0001
0000
0001
0100
,
1000
0000
1000
0000
,
1000
0000
1000
0010
,
0001
0000
0001
0000
,
0001
0000
0001
0010
,
0100
0000
0001
0000
,
0100
0000
0001
1000
,
0100
0000
0010
0000
,
0100
0000
0010
0100
,
1000
0000
0001
0000
,
1000
0000
0001
1000
,
0100
0000
0010
0000
,
0001
1000
1001
0000
,
0001
0100
0010
1000
,
1000
0100
0010
0001
,
0001
0100
0010
1000
,
1000
0100
0020
0000
,
0031
0100
0010
0010
,
1000
0100
0010
0010
,
0011
0000
1100
0000
,
0001
1000
1001
0000
,
0001
0100
0010
0000
,
0010
1000
0100
0010
,
0001
1000
0010
0000
,
0200
0302
2003
3020
,
0130
0000
0100
0001
,
0010
0000
0010
0100
,
1010
0000
1010
0000
,
0011
0000
1010
0000
,
0002
0000
0000
0000
,
0103
0000
0100
0000
,
0020
0000
0000
0000
,
1030
0100
0010
0001
,
1000
1000
0001
0010
,
0100
0100
0110
0000
,
0001
0010
0100
1000
,
0001
0001
1001
0000
,
0010
0010
1010
1010
,
1000
1000
0001
0100
,
0010
0010
1001
1001
,
0100
0100
0002
0000
,
1003
1000
1010
1010
,
0001
0001
0010
0100
,
1000
1000
1010
1010
,
0001
0010
1001
0000
,
0001
0100
0010
0100
,
0001
0010
0100
0100
,
1000
0010
0100
0010
,
1000
0100
0010
0010
,
0002
0000
0000
1003
,
0010
0000
0010
0000
,
2000
0000
0000
3001
,
0010
0100
1001
0000
,
0001
0100
0010
1000
,
1000
0100
0010
0001
,
0001
0010
0100
1000
,
1000
0010
0200
0000
,
0301
0010
0100
0100
,
1000
0001
0010
0010
,
0011
0000
1100
0000
,
0001
1000
1001
0000
,
0001
0100
0010
0000
,
0010
1000
0100
0010
,
0001
0100
0010
0000
,
0010
1000
0001
0100
,
0010
0000
1001
1001
,
1001
0000
0001
0100
,
0020
0000
2030
0000
,
3020
0000
0200
0000
,
0330
0000
0000
0000
;

//---------------dance-single - ----------------
#NOTES:
     dance-single:
     :
     Medium:
     10:
     0.462121,0.467972,0.460129,0.083660,0.379955,464.000000,398.000000,66.000000,12.000000,0.000000,0.000000,0.462121,0.467972,0.460129,0.083660,0.379955,464.000000,398.000000,66.000000,12.000000,0.000000,0.000000:
0000
0000
0000
0000
,
0000
0000
0000
0000
,
0000
0000
0000
0000
,
0000
0000
0000
0000
,
0000
0000
0000
0000
,
0001
1000
0010
0100
,
0001
0000
0010
0000
0100
0000
1000
0000
0000
0010
0000
0000
,
1000
0100
0010
0001
,
1001
1100
1001
0101
,
0001
0000
0000
0010
0000
0100
1000
0000
0100
1000
0000
0000
,
0010
0100
0101
0000
,
0001
0000
0000
1000
0000
0010
1000
0000
0010
0100
0000
0000
,
0001
0000
0000
0010
0000
0000
0001
0010
0100
1000
0000
0000
,
0010
0000
0000
0100
0000
0001
0100
0000
0001
0100
0000
0000
,
0010
1000
1001
0001
,
0010
0100
0000
0010
,
0100
0010
2002
3003
,
0001
0000
0010
0100
0000
0000
1000
0000
0010
0100
0000
0000
,
0001
0000
0010
0100
0000
0000
1000
0000
0001
0000
0000
1001
,
0000
0000
0000
1000
0000
0010
0100
0000
0000
0001
0000
0010
,
0100
0000
0000
1000
0000
0000
0010
0000
0100
0000
0000
0101
,
0000
0000
0000
0001
0000
0010
0100
0000
0000
1000
0000
0010
,
0100
0000
0000
0001
0000
0000
1000
0000
0100
0000
0000
0110
,
0000
0000
0000
1000
0000
0010
0100
0000
0000
0001
0000
0100
,
0010
0000
0000
1000
0000
0000
0001
0000
0010
0100
1000
0001
,
0010
0101
0010
1001
,
0100
0000
0000
0011
0000
0000
1000
0000
0001
0000
0000
1000
,
0000
0010
1100
0010
,
0101
0000
0000
0010
0000
0000
0001
0000
1000
0000
0000
0010
,
0000
1000
0101
0010
,
1100
0000
0000
0010
0000
0000
0001
0000
0010
0000
0000
0100
,
0000
1000
0101
0010
,
1100
0000
0000
0010
0000
0000
0001
0000
0001
1000
0100
1000
,
0010
1010
1000
1100
,
0100
0000
0000
0110
0000
0000
0010
0000
0001
0000
0000
1000
,
0000
0010
1010
1000
,
1001
0000
0000
0010
0000
0000
0001
0000
0100
0010
0000
1000
,
0100
1000
0110
0001
,
0110
1000
0001
1000
,
0010
1000
0000
0100
0000
0010
0000
0001
0000
0100
0000
0010
,
0000
1000
0000
0001
0000
0000
0100
0010
0100
0010
0000
0000
,
1000
0000
0000
1000
0000
0000
0100
0000
0000
0010
0000
0001
,
0100
0000
0000
0010
0000
0000
1000
0100
1000
0100
0000
0000
,
0010
0000
0000
0001
0000
0100
0010
0000
0000
0100
0000
0000
,
0001
0000
0000
0010
0000
0000
0001
0010
0100
1000
0000
0000
,
0010
1010
0100
0001
,
0010
0100
1000
0010
0000
0000
0100
0000
0000
0001
0000
0000
,
0011
0000
1010
0000
,
0011
0000
1001
0001
,
2000
0000
0000
0000
,
3010
0000
0001
0010
,
0200
0000
0000
0000
,
0320
0032
2003
3020
,
0130
0000
0000
0001
0000
0100
0010
0000
0000
1000
0000
0000
,
0001
0000
0000
0001
0010
0100
1000
0000
0000
0000
0000
0000
,
0010
0000
0000
1000
0000
0100
0010
0000
0000
0010
0000
0000
,
0001
0000
0000
0001
0010
0100
1000
0000
0000
0000
0000
0000
,
0101
0101
0001
0001
,
1100
0000
0000
1100
0000
0000
1000
0000
0010
1000
0000
0000
,
1001
1001
0001
0001
,
0011
0000
0000
0011
0000
0000
0100
0000
1000
0010
0000
0000
,
1010
1010
0001
0001
,
0110
0000
0000
0110
0000
0000
0001
0000
0010
0100
0000
0000
,
1010
1010
0100
0100
,
0011
0000
0000
0011
0000
0000
0001
1000
0100
1000
0000
0000
,
0010
0000
1000
0100
0000
0000
0010
0000
0001
0100
0000
0000
,
0010
0000
1000
0100
0000
0000
0010
0000
0001
0000
0000
1001
,
0000
0000
0000
1000
0000
0010
1000
0000
0000
0100
0000
1000
,
0010
0000
0000
0100
0000
0000
0001
0000
0010
0000
0000
0210
,
0000
0000
1000
1000
,
0310
0000
0000
0000
0000
0000
0001
0000
0100
0000
0000
0120
,
0000
0000
1000
1000
,
1030
0100
0010
0001
0000
0000
0001
0010
0100
1000
0000
0000
,
0001
1010
1000
0101
,
0010
0000
0000
1100
0000
0000
0001
0000
1000
0000
0000
1001
,
0000
1000
0110
0001
,
0110
0000
0000
1000
0000
0000
0010
0000
0100
0000
0001
0000
,
0010
0110
1000
0110
,
1000
0011
0100
0001
,
0100
0010
0000
1000
0000
0100
0000
0010
0000
0100
0000
1000
,
0000
0001
0000
0100
0000
0000
0010
0100
0010
0100
0000
0000
,
0001
0000
0010
0100
0000
0000
1000
0010
1000
0010
0000
0000
,
0100
0000
0001
0010
0000
0000
0100
0010
0100
0010
0000
0000
,
0001
0000
1000
0010
0000
0000
1000
0001
1000
0001
0000
0000
,
0010
0000
0100
0000
1000
0000
0001
0000
0010
0000
0100
0000
,
1000
0101
1000
1100
,
0011
0000
0000
0100
0000
0000
1000
0000
0010
1000
0000
0000
,
0011
0100
1010
0100
,
0011
0000
0000
0100
0000
0000
1000
0001
0100
0010
0000
0000
,
2002
0000
3003
0000
;

//---------------dance-single - ----------------
#NOTES:
     dance-single:
     :
     Hard:
     13:
     0.649360,0.717557,0.620477,0.062745,0.878428,652.000000,563.000000,89.000000,9.000000,0.000000,0.000000,0.649360,0.717557,0.620477,0.062745,0.878428,652.000000,563.000000,89.000000,9.000000,0.000000,0.000000:
0000
0000
0000
0000
,
0000
0000
0000
0000
,
0000
0000
0000
0000
,
0000
0000
0000
0000
,
0000
0000
0000
0000
,
0001
0000
0000
1000
0000
0010
0100
0000
0000
0100
0000
0000
,
0001
0000
0010
0000
0100
1000
0100
0000
0000
1010
0000
0000
,
0100
0000
0000
0100
0000
0001
0010
0000
0000
0010
0000
0000
,
0001
0010
0100
1000
0010
0100
0001
0010
0100
0010
0000
0000
,
1001
0000
0000
1010
0000
0100
0001
0000
0100
0010
0000
0000
,
1010
0000
1000
0100
0000
0000
0101
0000
0000
0010
0000
0000
,
1100
0000
0000
1001
0000
0001
0010
0000
0100
1000
0000
0000
,
1010
0000
0000
0100
0000
0000
1000
0100
0010
0001
0100
0010
,
1000
0000
0000
1001
0000
0001
0010
0000
0100
1000
0000
0000
,
1010
0000
0000
0100
0000
0000
0011
0000
0000
1001
0000
0100
,
1000
0000
0000
0010
0000
0100
0001
0000
0000
0100
0000
0010
,
1000
0000
0000
0100
0000
0000
1000
0100
0010
0001
0100
0010
,
1000
1001
0100
0011
,
0100
0000
0000
1010
0000
0000
0101
0000
0011
0000
0000
1100
,
0000
0101
0010
1100
,
0010
0000
0000
0101
0000
0000
0011
0000
1100
0000
0000
1010
,
0000
1100
0010
0101
,
0010
0000
0000
1100
0000
0000
1001
0000
1010
0000
0000
1001
,
0000
0110
0001
0110
,
1000
0000
0000
0110
0000
0000
0001
0010
0100
1000
0010
1000
,
0001
1100
0001
0110
,
0001
0000
0000
1010
0000
0000
1100
0000
1010
0000
0000
0101
,
0000
0011
0100
1010
,
0100
0000
0000
0110
0000
0000
0011
0000
0110
0000
0000
1100
,
0000
0101
0010
1100
,
0010
0000
0000
1100
0000
0000
0011
0000
0110
0000
0000
0011
,
0000
1100
0010
0101
,
0001
0000
0000
0110
0000
0000
0001
0010
0001
0010
0100
1000
,
0010
0000
0010
1000
0000
1000
0100
0000
0100
0001
0000
0001
,
0100
0000
0100
1000
0000
1000
0010
0000
0010
0001
0000
0001
,
0100
0000
0100
1000
0000
1000
0001
0000
0001
0010
0000
0010
,
0100
0000
0100
1000
0000
1000
0010
0100
0001
0100
0010
0100
,
0001
0000
0001
0010
0000
0010
0100
0000
0100
0001
0000
0001
,
0100
0000
0100
1000
0000
1000
0010
0000
0010
0100
0000
0100
,
0001
0010
0000
1100
0000
0010
0000
0100
0000
0011
0000
0100
,
0000
1000
0000
1010
0000
0001
0010
0100
1000
0010
0100
0001
,
0010
0000
0010
0001
0000
0100
0010
1000
0100
0010
0000
0000
,
0001
0000
0100
0010
0000
0010
1000
0100
0010
0001
0000
0001
,
0100
0000
0100
0010
0000
0010
1000
0100
1000
0010
0000
0000
,
1000
0100
0010
0001
0100
0010
1000
0100
0010
0001
0100
0010
,
1000
0000
0000
1100
0000
0000
0010
0000
0101
0000
0000
0000
,
0010
0000
0000
1100
0000
0000
0010
0000
0101
0000
0000
0000
,
0010
0100
1000
0010
0000
0010
0100
0001
0010
0100
0000
0100
,
1000
0010
0100
0001
0000
0001
0010
0100
0010
0001
1000
0010
,
0200
0010
0000
0010
,
0301
0010
0100
1000
,
0020
0000
0100
0130
,
0002
0023
0230
2300
,
3010
0000
0000
0010
0000
1000
0100
0000
0000
0100
0000
0000
,
0010
0000
0000
0010
0001
0010
0100
1000
0010
0100
0000
0000
,
0001
0000
0000
0001
0000
0100
0010
0000
0000
0010
0000
0000
,
1000
0000
0000
1000
0100
0010
0001
0010
0100
1000
0000
0000
,
1010
1010
0101
0101
,
1100
0000
0000
1100
0000
0000
0011
0000
1000
0100
0000
1000
,
0010
0101
0101
0011
,
1100
0000
0000
1010
0000
0000
0001
0010
0100
1000
0010
0100
,
0001
1001
1100
1001
,
0011
0000
0000
1100
0000
0000
1010
0000
0100
0001
0000
0010
,
0100
1001
1010
1100
,
1000
0001
0010
0100
1000
0001
0100
0010
0100
0010
0100
0001
,
0010
0000
0010
0100
0000
1000
0000
0000
0010
0100
0000
0001
,
0000
0000
0010
0100
0000
1000
0010
0000
0101
0000
0000
0000
,
0010
0000
1000
0100
0000
0000
0010
0000
0001
0010
0000
0000
,
0100
0000
1000
0010
0000
1000
0100
0000
0010
0001
0000
0000
,
2000
0010
0001
0100
,
3010
0000
0000
0100
0000
0000
0001
0000
0010
0100
1000
0010
,
0200
0001
0010
0301
,
0001
0010
0100
1000
0010
0100
0001
0010
0100
0010
0001
1000
,
0010
0000
0010
0100
0000
0100
0001
0000
0001
0010
0000
0010
,
0100
0000
0100
0001
0000
0001
0010
0000
0010
1000
0000
1000
,
0100
0000
0100
0010
0000
0010
1000
0000
1000
0100
0000
0100
,
0001
0000
0001
0010
0000
0010
0001
0010
0100
1000
0010
0100
,
0001
0000
0001
0100
0000
0100
1000
0000
1000
0001
0000
0001
,
0100
0000
0100
1000
0000
1000
0010
0000
0010
0100
0000
0100
,
0001
0010
0000
1100
0000
0010
0000
0100
0000
0011
0000
0100
,
0000
1000
0000
1010
0000
1000
0001
0100
0010
0001
0010
0100
,
0010
1000
0100
0010
0000
0010
0001
0100
0010
1000
0000
1000
,
0100
0010
0001
0100
0000
0100
0010
0001
0010
1000
0000
1000
,
0100
0010
0100
0001
0000
0001
0100
1000
0010
0100
0000
0100
,
0001
0010
0100
1000
0010
0100
0001
0010
0100
1000
0010
0100
,
0001
0000
0001
0010
0000
0100
1000
0000
0010
0100
0000
0100
,
0001
0010
0100
0010
0000
0001
1000
0010
0100
0001
0000
0100
,
0010
1000
0000
0110
0000
0001
0000
0100
0000
0110
0000
1000
,
0000
0100
0000
0110
0000
1000
0001
0100
0010
1000
0100
0010
,
0002
0000
0003
0000
;

//---------------dance-double - ----------------
#NOTES:
     dance-double:
     :
     Easy:
     6:
     0.251975,0.311981,0.104575,0.132461,0.000000,253.000000,238.000000,15.000000,19.000000,0.000000,0.000000,0.251975,0.311981,0.104575,0.132461,0.000000,253.000000,238.000000,15.000000,19.000000,0.000000,0.000000:
// measure 0
00000000
00000000
00000000
00000000
,  // measure 1
00000000
00000000
00000000
00000000
,  // measure 2
00000000
00000000
00000000
00000000
,  // measure 3
00000000
00000000
00000000
00000000
,  // measure 4
00000000
00000000
00000000
00000000
,  // measure 5
00001000
00000000
00001000
00000000
,  // measure 6
00000001
00000000
00000001
00000000
,  // measure 7
00001000
00000000
00001000
00000000
,  // measure 8
00000010
00000100
00000010
00000100
,  // measure 9
00000010
00000000
00001000
00000000
,  // measure 10
00000100
00001000
00000100
00000000
,  // measure 11
00010000
00000000
00001000
00000000
,  // measure 12
00100000
00010000
01000000
00000000
,  // measure 13
00100000
00000000
00100000
00000000
,  // measure 14
10000000
01000000
10000000
00010000
,  // measure 15
00200000
00000000
02300000
00000000
,  // measure 16
23000000
00000000
30010000
00010000
,  // measure 17
01000000
00000000
01000000
00000000
,  // measure 18
01000000
00000000
01000000
10010000
,  // measure 19
00100000
00000000
00100000
00000000
,  // measure 20
00100000
00000000
00100000
01010000
,  // measure 21
00001000
00000000
00001000
00000000
,  // measure 22
00001000
00000000
00001000
00010100
,  // measure 23
00001000
00000000
00001000
00000000
,  // measure 24
00001000
00000000
00001000
00010100
,  // measure 25
00000010
00001000
00000000
00001000
,  // measure 26
00000000
00001000
00000001
00000100
,  // measure 27
00000010
00001000
00000000
00001000
,  // measure 28
00000000
00001000
00000100
00010000
,  // measure 29
00001000
00000000
00001000
00000000
,  // measure 30
00001000
00000000
00001000
00100000
,  // measure 31
00001000
00000000
00001000
00000000
,  // measure 32
00001000
00000000
00010000
00100000
,  // measure 33
01000000
01000000
00010000
10000000
,  // measure 34
00010000
00010000
01000000
00000000
,  // measure 35
00010000
00100000
00010000
00010000
,  // measure 36
01000000
00001000
01000000
00000000
,  // measure 37
00010000
00100000
00001000
00100000
,  // measure 38
00010000
01000000
00010000
00000000
,  // measure 39
00200000
00000000
00302000
00000000
,  // measure 40
00023000
00000000
00030100
00000100
,  // measure 41
00001100
00001000
00000001
00000000
,  // measure 42
00000001
00001000
00000100
00000000
,  // measure 43
00000100
00010000
00001000
00000000
,  // measure 44
00001000
00010000
00100000
01000000
,  // measure 45
00100000
00000000
00100000
00000000
,  // measure 46
10010000
00000000
10000000
00010000
,  // measure 47
01010000
00000000
10010000
00000000
,  // measure 48
11000000
00000000
10010000
00000000
,  // measure 49
02000000
00000000
00000000
00000000
,  // measure 50
03000000
00000000
00100000
00000000
,  // measure 51
00020000
00000000
00000000
00030000
,  // measure 52
00001000
00000100
00000010
00000100
,  // measure 53
00000001
00000001
00001000
00001000
,  // measure 54
00000001
00001000
00000101
00000000
,  // measure 55
00001000
00001000
00000100
00000100
,  // measure 56
00010000
00000100
00001100
00000000
,  // measure 57
00100000
00100000
00010000
00010000
,  // measure 58
01000000
01000000
00100000
00000000
,  // measure 59
10000000
10000000
00010000
00010000
,  // measure 60
01000000
01000000
00001000
00010000
,  // measure 61
00000100
00000100
00001000
00001000
,  // measure 62
00000010
00000010
00000100
00000000
,  // measure 63
00000001
00000001
00001000
00001000
,  // measure 64
00000001
00001000
00000110
00000000
,  // measure 65
00000001
00000000
00000001
00000000
,  // measure 66
00000001
00000100
00001000
00000000
,  // measure 67
00010000
00000000
00010000
00000000
,  // measure 68
00000100
00001000
00010000
00100000
,  // measure 69
02000000
00000000
00000000
03000000
,  // measure 70
20000000
00000000
00010000
00010000
,  // measure 71
30020000
00000000
00000000
00030000
,  // measure 72
01000000
00100000
01000000
00100000
,  // measure 73
10010000
00000000
10000000
00010000
,  // measure 74
01000000
00000000
01000000
00001000
,  // measure 75
00010000
00000000
00010000
00000100
,  // measure 76
00001000
00000010
00000100
00000000
,  // measure 77
00000001
00000000
00000001
00000100
,  // measure 78
00001000
00000000
00001000
00010000
,  // measure 79
00002000
00000000
00203000
00000000
,  // measure 80
02300000
00000000
13000000
10000000
,  // measure 81
00010000
00000000
01000000
00001000
,  // measure 82
00010000
00000000
00001000
01000000
,  // measure 83
00100000
00000000
01000000
00001000
,  // measure 84
00010000
00010000
00000010
00000010
,  // measure 85
00001001
00000000
00000001
00000100
,  // measure 86
00000010
00000000
00000100
00000001
,  // measure 87
00000002
00000000
00002003
00000000
,  // measure 88
00023000
00000000
00230000
00000000
,  // measure 89
02300000
00000000
03000000
00000000
;

//---------------dance-double - ----------------
#NOTES:
     dance-double:
     :
     Medium:
     10:
     0.403360,0.436774,0.327668,0.292809,0.202178,405.000000,358.000000,47.000000,42.000000,0.000000,0.000000,0.403360,0.436774,0.327668,0.292809,0.202178,405.000000,358.000000,47.000000,42.000000,0.000000,0.000000:
// measure 0
00000000
00000000
00000000
00000000
,  // measure 1
00000000
00000000
00000000
00000000
,  // measure 2
00000000
00000000
00000000
00000000
,  // measure 3
00000000
00000000
00000000
00000000
,  // measure 4
00000000
00000000
00000000
00000000
,  // measure 5
00001000
00000001
00001000
00000001
,  // measure 6
00000010
00000000
00000100
00000000
00001000
00000000
00010000
00000000
00000000
00000000
00000000
00000000
,  // measure 7
10000000
10000000
00010000
00010000
,  // measure 8
01010000
10100000
11000000
01010000
,  // measure 9
10000000
00010000
01000000
00010000
,  // measure 10
01000000
00001000
00010000
00100000
,  // measure 11
10000000
00010000
10000000
00010000
,  // measure 12
00100000
00000000
00000000
00010000
00000000
00000000
00001000
00000100
00001000
00000100
00000000
00000000
,  // measure 13
00000010
00000001
00000010
00000100
,  // measure 14
00000010
00001000
00000010
00000001
,  // measure 15
00001000
00001000
00000000
00010000
,  // measure 16
00001000
00001000
00000202
00000303
,  // measure 17
00000001
00001100
00000100
00001100
,  // measure 18
00001000
00001100
00001000
00010000
,  // measure 19
01000000
01010000
00010000
00110000
,  // measure 20
00010000
01010000
10000000
01000000
,  // measure 21
00100000
00101000
00001000
00011000
,  // measure 22
00001000
00101000
00100000
00010000
,  // measure 23
00001000
00001010
00000010
00001010
,  // measure 24
00001000
00000000
00000000
00001001
00000000
00000000
00000001
00000000
00000100
00000001
00000000
00000000
,  // measure 25
00001000
00010000
00001000
00000010
,  // measure 26
00001000
00000000
00000000
00010000
00000000
00000000
00001000
00000000
00000010
00000000
00000000
00000110
,  // measure 27
00000000
00000001
00000010
00001000
,  // measure 28
00000010
00000000
00000000
00000001
00000000
00000000
00000100
00000000
00001000
00000000
00000000
00011000
,  // measure 29
00000000
00010000
00100000
00010000
,  // measure 30
00001000
00000000
00000000
00010000
00000000
00000000
00000100
00000000
00010000
00000000
00000000
00001100
,  // measure 31
00000000
00000100
00010000
00001000
,  // measure 32
00010000
00000000
00000000
00100000
00000000
00000000
10000000
00010000
10000000
00010000
00000000
00000000
,  // measure 33
20000000
32000000
03200000
00310000
,  // measure 34
01000000
00002000
00023000
00130000
,  // measure 35
01000000
00002000
00023000
02030000
,  // measure 36
13000000
00100000
10010000
10010000
,  // measure 37
00100000
00002000
00023000
00030200
,  // measure 38
00010300
00002000
02003000
03020000
,  // measure 39
00031000
00000100
00000000
00001000
00000000
00000010
00000000
00000100
00000000
00000001
00000000
00000010
,  // measure 40
00000000
00000100
00000000
00001000
00000000
00000000
00001001
00000000
00000000
00001001
00000000
00000000
,  // measure 41
00000001
00000000
00001000
00000100
00000000
00000000
00010000
00000000
00000000
00000100
00000000
00000000
,  // measure 42
00000010
00000000
00000100
00001000
00000000
00000000
00010000
00000000
00000000
00001000
00000000
00000000
,  // measure 43
00000100
00000000
00010000
00001000
00000000
00000000
00010000
00000000
00000000
00100000
00000000
00000000
,  // measure 44
00010000
00000000
00001000
00100000
00000000
00010000
00100000
00000000
01000000
10000000
00000000
00000000
,  // measure 45
00010000
00011000
00100000
01000000
,  // measure 46
10010000
00000000
00010000
00010000
,  // measure 47
11000000
00000000
00101000
00000000
,  // measure 48
00010100
00000000
00001001
00000000
,  // measure 49
00000002
00000000
00000000
00000003
,  // measure 50
00000200
00000000
00000310
00000000
,  // measure 51
00002000
00000000
00003000
00000000
,  // measure 52
00000002
00000023
00002030
00023000
,  // measure 53
00130000
00000000
00000000
01000000
00000000
00100000
01000000
00000000
00000000
00100000
00000000
00000000
,  // measure 54
10000000
00000000
00000000
00010000
00100000
01000000
10000000
00000000
00000000
00000000
00000000
00000000
,  // measure 55
00001000
00000000
00000000
00001000
00000000
00010000
00001000
00000000
00000000
00010000
00000000
00000000
,  // measure 56
00001000
00000000
00000000
00010000
00000100
00001000
00000100
00000000
00000000
00000000
00000000
00000000
,  // measure 57
00000101
00000001
00001100
00001000
,  // measure 58
00000011
00000000
00000000
00000010
00000000
00000000
00001000
00000000
00010000
00000100
00000000
00000000
,  // measure 59
00001100
00000010
00001100
00000001
,  // measure 60
00001100
00000000
00000000
00010000
00000000
00000000
00000100
00000000
00010000
00001000
00000000
00000000
,  // measure 61
00011000
00100000
00011000
00000100
,  // measure 62
00011000
00000000
00000000
00100000
00000000
00000000
00010000
00000000
01000000
00001000
00000000
00000000
,  // measure 63
00110000
01000000
11000000
00010000
,  // measure 64
01000000
00010000
01000000
00010000
00000000
00000000
01000000
00000000
01000000
00100000
00000000
00000000
,  // measure 65
10000000
01000000
00010000
01000000
,  // measure 66
10000000
00000000
00000000
00100000
00000000
00000000
00010000
00000000
00001000
00010000
00000000
00000000
,  // measure 67
00000100
00000001
00000100
00001000
,  // measure 68
00000100
00000000
00000000
00000001
00000000
00000000
00000100
00000000
00001000
00000010
00000000
00000000
,  // measure 69
00002000
00000000
00000000
00000001
,  // measure 70
00003020
00000000
00010000
00010000
,  // measure 71
00020030
00000000
00000000
00030000
,  // measure 72
00000100
00000000
00001000
00000100
00000000
00000010
00000001
00000000
00001000
00000100
00000000
00000000
,  // measure 73
00010000
00002000
00023000
00230000
,  // measure 74
10300000
00020000
00032000
00023000
,  // measure 75
01030000
00200000
00320000
00030200
,  // measure 76
00010300
00000000
00000000
00000100
00000000
00000000
00001000
00000000
00000001
00000010
00000000
00000100
,  // measure 77
00001000
00020000
02030000
03002000
,  // measure 78
00103000
00020000
20030000
30200000
,  // measure 79
01300000
00010000
00000000
01000000
00000000
00001000
00000000
01000000
00000000
00010000
00000000
00100000
,  // measure 80
00000000
01000000
00000000
10000000
00000000
00000000
00010000
01000000
00010000
01000000
00000000
00000000
,  // measure 81
00100000
00000000
00000000
10000000
00000000
00000000
01000000
00000000
00100000
00001000
00000000
00000000
,  // measure 82
00010000
00001000
00001000
00010000
,  // measure 83
00000100
00000000
00000000
00000010
00000000
00000000
00000001
00000000
00001000
00000100
00000000
00000000
,  // measure 84
00000010
00000000
00001000
00000000
00010000
00000000
00100000
00000000
01000000
00000000
00001000
00000000
,  // measure 85
00010000
00000000
00000000
00000100
00000000
00000000
00001000
00000000
00000010
00001000
00000000
00000001
,  // measure 86
00000100
00000001
00001001
00001100
,  // measure 87
00001000
00110000
00001000
00010100
,  // measure 88
00001000
00110000
00001000
00011000
,  // measure 89
02000000
00000000
03000000
00000000
;

//---------------dance-double - ----------------
#NOTES:
     dance-double:
     :
     Hard:
     13:
     0.586615,0.655161,0.606534,0.090631,0.679736,589.000000,502.000000,87.000000,13.000000,0.000000,0.000000,0.586615,0.655161,0.606534,0.090631,0.679736,589.000000,502.000000,87.000000,13.000000,0.000000,0.000000:
// measure 0
00000000
00000000
00000000
00000000
,  // measure 1
00000000
00000000
00000000
00000000
,  // measure 2
00000000
00000000
00000000
00000000
,  // measure 3
00000000
00000000
00000000
00000000
,  // measure 4
00000000
00000000
00000000
00000000
,  // measure 5
00001000
00001000
00000001
00000001
,  // measure 6
00000010
00000000
00001000
00000000
00010000
00001000
00010000
00000000
00000000
00011000
00000000
00000000
,  // measure 7
00100000
01000000
10000000
00010000
,  // measure 8
10000000
01000000
00100000
00010000
01000000
00100000
10000000
01000000
00100000
00010000
00000000
00000000
,  // measure 9
00011000
00000000
00000000
00110000
00000000
00100000
01000000
00000000
10000000
00100000
00000000
00000000
,  // measure 10
00010000
00001000
00011000
00001100
,  // measure 11
00000011
00000000
00000000
00000100
00000000
00001000
00000010
00000000
00001000
00010000
00000000
00000000
,  // measure 12
00001000
00000000
00000000
00000100
00000000
00000000
00001000
00000001
00000010
00000100
00001000
00010000
,  // measure 13
00100000
00000000
00000000
00110000
00000000
00001000
00010000
00000000
00001000
00010000
00000000
00000000
,  // measure 14
00110000
00000000
00000000
10000000
00000000
00100000
01000000
00000000
00000000
00010000
00000000
00000000
,  // measure 15
02000000
03001000
00100000
02000000
,  // measure 16
13000000
00000000
00000000
00100000
00000000
00000000
10000000
00010000
00100000
00001000
00000000
00000000
,  // measure 17
00010000
01100000
00010000
00011000
,  // measure 18
00010000
00000000
00000000
01100000
00000000
00000000
10000000
00000000
00010000
00000000
00000000
01001000
,  // measure 19
00000000
00010100
00001000
00110000
,  // measure 20
00001000
00000000
00000000
00010100
00000000
00000000
00000010
00000000
00000001
00000000
00000000
00000101
,  // measure 21
00000000
00001100
00010000
00110000
,  // measure 22
00001000
00000000
00000000
00001100
00000000
00000000
00000001
00000000
00000010
00000000
00000000
00001001
,  // measure 23
00000000
00001100
00010000
00101000
,  // measure 24
00010000
00000000
00000000
01100000
00000000
00000000
10000000
00010000
00100000
01000000
00000000
00000000
,  // measure 25
10000000
01010000
10000000
01010000
,  // measure 26
00100000
00000000
00000000
01001000
00000000
00000000
00010000
00000000
00001000
00000000
00000000
00001100
,  // measure 27
00000000
00000110
00000001
00001100
,  // measure 28
00010000
00000000
00000000
00001100
00000000
00000000
00000010
00000000
00000100
00000000
00000000
00000101
,  // measure 29
00000000
00001100
00010000
00001100
,  // measure 30
00100000
00000000
00000000
00011000
00000000
00000000
00000100
00000000
00001000
00000000
00000000
00001010
,  // measure 31
00000000
00000101
00001000
00001100
,  // measure 32
00001000
00000000
00000100
00001000
00000000
00000000
00000001
00000010
00000100
00001000
00010000
00100000
,  // measure 33
00010000
00000000
00010000
10000000
00000000
10000000
00100000
00000000
00100000
00010000
00000000
00010000
,  // measure 34
00000100
00000000
00000100
00001000
00000000
00001000
00000100
00000000
00000100
00000010
00000000
00000010
,  // measure 35
00001000
00000000
00001000
00010000
00000000
00010000
00000100
00000000
00000100
00010000
00000000
00010000
,  // measure 36
00000010
00000000
00000010
00000100
00000000
00000100
00000001
00000000
00001000
00000000
00000100
00000000
,  // measure 37
00010000
00000000
00010000
00100000
00000000
00100000
01000000
00000000
01000000
00010000
00000000
00010000
,  // measure 38
10000000
00000000
10000000
01000000
00000000
01000000
00100000
00000000
00100000
00001000
00000000
00001000
,  // measure 39
00010000
00000100
00000000
00000110
00000000
00000001
00000000
00001000
00000000
00011000
00000000
00100000
,  // measure 40
00000000
01000000
00000000
11000000
00000000
00000000
00010000
00100000
01000000
10000000
00100000
01000000
,  // measure 41
00010000
00000000
00000000
01010000
00000000
00001000
00010000
00000000
00001000
00010000
00000000
00000000
,  // measure 42
00000110
00000000
00000000
00000001
00000000
00001000
00000100
00000000
00010000
00001000
00000000
00000000
,  // measure 43
00110000
00000000
00000000
10000000
00000000
00010000
00100000
00000000
01000000
10000000
00000000
00000000
,  // measure 44
00100000
01000000
00010000
01000000
00001000
00010000
00001000
00010000
00000100
00001000
00000010
00000100
,  // measure 45
00000001
00000000
00000000
00000011
00000000
00000000
00000010
00000000
00000100
00000010
00000000
00000000
,  // measure 46
00011000
00000000
00000000
00010000
00000000
00000000
00001000
00000000
00010000
00001000
00000000
00000000
,  // measure 47
00010000
00001000
00000000
00110000
00000000
00001000
00000000
00000100
00000000
00000101
00000000
00000100
,  // measure 48
00000000
00001000
00000000
00110000
00000000
00000000
00001000
00000100
00000010
00000001
00000100
00000010
,  // measure 49
00000100
00000020
00000000
00000130
,  // measure 50
00002000
00000000
00000100
00000001
,  // measure 51
00003020
00000000
00000000
00000130
,  // measure 52
00002000
00023000
00230000
02300000
,  // measure 53
13000000
00000000
00000000
00100000
00000000
10000000
00100000
00000000
00000000
00100000
00000000
00000000
,  // measure 54
01000000
00000000
00000000
00001000
00010000
00100000
01000000
00000000
00000000
10010000
00000000
00000000
,  // measure 55
00001000
00000000
00000000
00001000
00000000
00010000
00100000
00000000
00000000
00100000
00000000
00000000
,  // measure 56
00001000
00000000
00000000
00010000
00001000
00010000
00001000
00010000
00000100
00001000
00000000
00000000
,  // measure 57
00001100
00001100
00011000
00011000
,  // measure 58
00110000
00000000
00000000
00110000
00000000
00000000
10010000
00000000
10000000
00100000
00000000
01000000
,  // measure 59
00010000
01010000
00011000
00011000
,  // measure 60
00001100
00000000
00000000
00001100
00000000
00000000
00000001
00000010
00000100
00001000
00000000
00000000
,  // measure 61
00000101
00000101
00000011
00000011
,  // measure 62
00001010
00000000
00000000
00001010
00000000
00000100
00010000
00000000
00001000
00010000
00000000
00000000
,  // measure 63
00011000
00011000
00110000
00110000
,  // measure 64
00100000
00010000
10000000
01000000
00000000
10000000
00100000
00000000
00100000
01000000
00010000
10000000
,  // measure 65
01000000
01010000
00100000
11000000
,  // measure 66
00100000
00000000
00000000
00011000
00000000
00000000
00100000
00000000
00010000
10000000
00000000
00010000
,  // measure 67
01000000
10100000
00001000
00110000
,  // measure 68
01000000
00000000
00000000
00011000
00000000
00000000
00010000
00001000
00010000
00000100
00000000
00001000
,  // measure 69
00000020
00000001
00000100
00000100
,  // measure 70
00002030
00000000
00000100
00000100
,  // measure 71
00003002
00000000
00000000
00000003
,  // measure 72
00000001
00000010
00000100
00001000
00000010
00000100
00000001
00000010
00000100
00001000
00000010
00000100
,  // measure 73
00000001
00000000
00000001
00000100
00000000
00000100
00001000
00000000
00001000
00010000
00000000
00010000
,  // measure 74
00100000
00000000
00100000
10000000
00000000
10000000
01000000
00000000
01000000
00100000
00000000
00100000
,  // measure 75
00001000
00000000
00001000
00010000
00000000
00010000
00100000
00000000
00100000
10000000
00000000
10000000
,  // measure 76
00100000
00000000
00100000
00001000
00000000
00001000
00000100
00000000
00000010
00000001
00000000
00000100
,  // measure 77
00000010
00000000
00000010
00001000
00000000
00001000
00010000
00000000
00010000
00100000
00000000
00100000
,  // measure 78
01000000
00000000
01000000
10000000
00000000
10000000
00100000
00000000
00100000
01000000
00000000
01000000
,  // measure 79
00010000
00100000
00000000
11000000
00000000
00100000
00000000
00010000
00000000
00011000
00000000
00100000
,  // measure 80
00000000
01000000
00000000
10100000
00000000
00000000
00010000
00100000
01000000
10000000
00010000
01000000
,  // measure 81
00001000
00000000
00010000
00001000
00000000
00000000
00001000
00010000
00000100
00001000
00000000
00000000
,  // measure 82
00011000
00000000
00000000
00100000
00000000
00000000
00010000
01000000
00100000
01000000
00000000
00000000
,  // measure 83
00011000
00000000
00000000
00100000
00000000
00100000
00001000
00010000
00000100
00001000
00000000
00000000
,  // measure 84
00000001
00000010
00000100
00001000
00000010
00000100
00001000
00010000
00000100
00001000
00010000
00100000
,  // measure 85
00010000
00000000
00000000
01000000
00000000
00000000
00010000
00000000
10000000
01000000
00000000
00100000
,  // measure 86
00110000
00000000
00000000
00011000
00000000
00000000
00010000
00001000
00100000
00001000
00000000
00000000
,  // measure 87
00100000
00010000
00000000
10010000
00000000
00100000
00000000
01000000
00000000
10010000
00000000
01000000
,  // measure 88
00000000
00100000
00000000
10010000
00000000
00100000
00010000
00001000
00010000
00100000
00010000
10000000
,  // measure 89
02000000
00000000
03000000
00000000
;
