#VERSION:0.83;
#TITLE:The Sealer;
#SUBTITLE:~ア・ミリアとミリアの民~;
#ARTIST:Zektbach;
#TITLETRANSLIT:;
#SUBTITLETRANSLIT:The Sealer ~A Milia to Milia no tami~;
#ARTISTTRANSLIT:;
#GENRE:;
#ORIGIN:;
#CREDIT:;
#BANNER:The Sealer ~A Milia to Milia no tami~-bn.png;
#BACKGROUND:;
#PREVIEWVID:;
#JACKET:The Sealer ~A Milia to Milia no tami~-jacket.png;
#CDIMAGE:;
#DISCIMAGE:;
#LYRICSPATH:;
#CDTITLE:;
#MUSIC:The Sealer ~A Milia to Milia no tami~.mp3;
#OFFSET:1.407000;
#SAMPLESTART:34.498997;
#SAMPLELENGTH:15.000000;
#SELECTABLE:YES;
#BPMS:0.000=137.000,
32.000=205.000;
#STOPS:;
#DELAYS:;
#WARPS:;
#TIMESIGNATURES:0.000=4=4;
#TICKCOUNTS:0.000=4;
#COMBOS:0.000=1;
#SPEEDS:0.000=1.000=0.000=0;
#SCROLLS:0.000=1.000;
#FAKES:;
#LABELS:0.000=Song Start;
#BGCHANGES:;
#KEYSOUNDS:;
#ATTACKS:
;

//---------------dance-single - ----------------
#NOTEDATA:;
#CHARTNAME:;
#STEPSTYPE:dance-single;
#DESCRIPTION:;
#CHARTSTYLE:;
#DIFFICULTY:Beginner;
#METER:1;
#RADARVALUES:0.128588,0.195246,0.037820,0.015128,0.000000,119.000000,114.000000,5.000000,2.000000,0.000000,0.000000,0.000000,0.000000,0.000000,0.128588,0.195246,0.037820,0.015128,0.000000,119.000000,114.000000,5.000000,2.000000,0.000000,0.000000,0.000000,0.000000,0.000000;
#CREDIT:;
#NOTES:
0000
0000
0000
0000
,
0000
0000
0000
0000
,
0000
0000
0000
0000
,
0000
0000
0000
0000
,
0000
0000
0000
0000
,
0000
0000
0000
0000
,
0000
0000
0000
0000
,
0000
0000
0000
0000
,
1001
0000
0000
0000
,
0000
0000
0000
0000
,
0000
0001
0000
0000
,
0000
0001
0000
1000
,
0000
0001
0000
0000
2002
0000
0000
0000
,
0000
0000
3003
0000
,
0000
0000
0000
1000
,
0000
0000
1000
0000
,
0000
0010
0000
0000
,
0010
0000
0000
1000
,
0000
0000
1000
0000
,
0000
0000
0010
0000
0000
0010
0000
0000
,
0000
0000
0000
0001
,
0000
0000
0001
0000
,
0000
0010
0000
0000
,
0010
0000
0000
0001
,
0000
0000
0001
0000
,
0000
0000
0010
0000
0000
0010
0000
0000
,
0000
0000
0000
0100
,
0000
0000
0000
0100
,
0000
0000
0000
0100
,
0000
0000
0000
0010
,
0000
0000
0000
0010
,
0000
0000
0000
0010
,
0000
0000
0000
1000
,
0000
0000
0000
1000
,
0000
0000
0000
1000
,
0000
0000
0000
0001
,
0000
0000
0000
0001
,
0000
0000
0000
0001
,
0000
0000
0000
0100
,
0000
0000
0000
0010
,
0000
0000
0000
1000
,
0000
0000
0000
0100
,
0000
0000
0000
0010
,
0000
0000
0000
0001
,
0000
0000
0000
0001
,
0000
0000
0000
0010
,
0000
0000
0000
0100
,
0000
0000
0000
1000
,
0000
0000
0000
0010
,
0000
0000
0000
1000
,
0000
0000
0000
0100
,
0000
0100
0000
0000
0000
0000
0000
0000
,
0000
0000
0000
0000
,
0000
0000
0000
0010
,
0000
0010
0000
0000
0010
0000
0000
0000
,
0000
0000
0000
0000
,
0000
0000
0000
0001
,
0000
0001
0000
0000
0000
0000
0000
0000
,
0000
0000
0000
0000
,
0000
0000
0000
1000
,
0000
1000
0000
0000
1000
0000
0000
0000
,
0000
0010
0000
0000
,
0110
0000
0000
0001
,
0000
0000
0000
0000
,
0000
1000
0000
0000
,
0001
0001
0000
0010
,
0000
0000
0000
0000
,
0000
0100
0000
0000
,
1000
1000
0000
0001
,
0000
0000
0000
0000
,
0000
1000
0000
0000
,
0010
0010
0000
0100
,
0000
0000
0000
0000
,
0000
0100
0000
0000
,
0010
0010
0000
1000
,
0000
0000
1000
0000
,
0000
1000
0000
0000
,
1000
1000
0000
0001
,
0000
0000
0001
0000
,
0000
0001
0000
0000
,
0001
0001
0000
0100
,
0000
0000
0100
0000
,
0000
0100
0000
0000
,
0100
0100
0000
0010
,
0000
0000
0010
0000
,
0000
0010
0000
0000
,
0010
0010
0000
0100
,
0000
0000
0000
0000
,
0000
0100
0000
0000
,
0000
0000
0000
0100
,
0000
0000
0000
0000
,
0000
0100
0000
0000
,
0000
0000
0000
0001
,
0000
0000
0010
0000
,
0000
0100
0000
0000
,
1000
1000
0000
1000
,
0000
0000
0100
0000
,
0000
0010
0000
0000
,
0001
0001
0000
0100
,
0000
0000
0010
0000
,
0000
0000
1000
0000
0000
0001
0000
0000
,
1001
0000
0000
0000
,
0000
0000
0000
0000
,
0000
0110
0000
0000
;

//---------------dance-single - ----------------
#NOTEDATA:;
#CHARTNAME:;
#STEPSTYPE:dance-single;
#DESCRIPTION:;
#CHARTSTYLE:;
#DIFFICULTY:Easy;
#METER:7;
#RADARVALUES:0.310124,0.394274,0.181536,0.045384,0.000000,287.000000,263.000000,24.000000,6.000000,0.000000,0.000000,0.000000,0.000000,0.000000,0.310124,0.394274,0.181536,0.045384,0.000000,287.000000,263.000000,24.000000,6.000000,0.000000,0.000000,0.000000,0.000000,0.000000;
#CREDIT:;
#NOTES:
0000
0000
0000
0000
,
0000
0000
0000
0000
,
0001
0000
0000
0010
,
0000
0000
0100
0000
,
0000
0100
0000
0000
,
0010
0000
0000
1000
,
0000
0000
0001
0000
,
0000
1000
0000
0000
,
1001
0000
0000
0000
,
0000
0000
0000
0000
,
0000
0000
0001
0000
0000
0010
0000
0000
,
0100
1000
0001
0100
,
0000
0010
0000
0000
2002
0000
0000
0000
,
0000
0000
0000
3003
,
0000
0000
0000
0001
,
0000
0100
0000
0000
0000
0000
0001
0000
,
0100
0000
0010
0000
0000
0100
0000
0000
,
0000
0010
0100
1000
,
0000
0100
0000
0000
0000
0000
1000
0000
,
0100
0000
0010
0000
0000
1001
0000
0000
,
0000
0000
0000
0001
,
0100
1000
0100
0001
,
0000
1000
0100
0001
,
0100
1000
0000
0010
,
0100
0001
0100
0010
,
0000
0000
1000
0000
0000
1001
0000
0000
,
0000
0000
0000
0001
,
0100
0001
0001
0100
,
0000
0000
1000
0000
0000
0100
0000
0000
,
0001
0000
0000
1000
,
0100
1000
1000
0100
,
0000
0000
0001
0000
0000
0100
0000
0000
,
1000
0000
0000
0010
,
0100
0010
0000
1001
,
0000
0000
1000
0000
0000
0100
0000
0000
,
0001
0000
0000
0010
,
0100
0001
0000
1000
,
0000
0000
1010
0000
0000
0100
0000
0000
,
0001
0000
0000
0010
0000
0000
0100
0000
,
0000
1000
0000
0000
0100
0000
0010
0000
,
0001
0000
0010
0000
0000
0100
0000
0000
,
1000
0001
1000
0010
,
0000
0100
0000
0000
0010
0000
0100
0000
,
0010
0000
1000
0000
0000
0001
0000
0000
,
1000
0001
0010
0100
,
0000
0010
0000
0000
0001
0000
0100
0000
,
0010
0000
1000
0000
0000
0010
0000
0000
,
1000
0010
1000
0001
,
0000
0010
0000
0000
0001
0000
0010
0000
,
0001
0000
1000
0000
0000
0001
0000
0000
,
0100
0010
0100
0110
,
0000
1001
0000
0000
0000
0000
0000
0000
,
0000
0000
0000
0000
,
0000
0000
0000
1100
,
0000
0011
0000
0000
1100
0000
0000
0000
,
0000
0000
0000
0000
,
0000
0000
0000
1001
,
0000
0110
0000
0000
0000
0000
0000
0000
,
0000
0000
0000
0000
,
0000
0000
0000
0101
,
0000
1010
0000
0000
0101
0000
0000
0000
,
0000
1001
0000
0000
,
0010
0100
0010
0100
0000
0000
0001
0000
,
0000
0001
1000
0000
,
1000
0001
0000
0001
,
1001
1001
0000
0100
,
0000
0100
0010
0000
,
0010
0100
0000
0100
,
0110
1001
0000
1000
,
0100
0001
0100
1000
,
0100
0001
0100
1000
,
0100
0100
0000
0001
,
0100
1000
0100
0001
,
0100
1000
0100
0001
,
0100
0100
0000
1000
,
0100
0010
0001
0010
,
0100
1000
0100
0010
,
0001
0001
0000
0100
,
0010
1000
0001
0100
,
0010
1000
0100
0010
,
0001
0001
0000
0001
,
0100
1000
0100
0001
,
0100
0010
1000
0100
,
0010
0010
0000
1000
,
0100
0001
0100
1000
,
0100
0010
0001
0100
,
0010
0010
0000
1000
,
0000
1000
0100
0000
,
0100
0010
0000
0010
,
0100
0000
0100
1000
,
0000
1000
0001
0000
,
0001
0100
0000
0100
,
0010
0000
0010
1000
,
0100
0001
0100
1000
,
0100
0001
0100
1000
,
0001
0001
0000
0100
,
1000
0100
0001
0100
,
1000
0100
0001
0100
,
1000
1000
0000
0011
,
0000
0100
0000
0000
1000
0000
0010
0000
,
1000
0000
0100
0000
0000
0010
0000
0000
,
2002
0000
0000
0000
,
0000
3003
0000
0000
,
0000
0220
0000
0000
,
0000
0330
0000
0000
;

//---------------dance-double - ----------------
#NOTEDATA:;
#CHARTNAME:;
#STEPSTYPE:dance-double;
#DESCRIPTION:;
#CHARTSTYLE:;
#DIFFICULTY:Easy;
#METER:7;
#RADARVALUES:0.290674,0.390492,0.151280,0.030256,0.000000,269.000000,249.000000,20.000000,4.000000,0.000000,0.000000,0.000000,0.000000,0.000000,0.290674,0.390492,0.151280,0.030256,0.000000,269.000000,249.000000,20.000000,4.000000,0.000000,0.000000,0.000000,0.000000,0.000000;
#CREDIT:;
#NOTES:
00000000
00000000
00000000
00000000
,
00000000
00000000
00000000
00000000
,
00010000
00000000
00000000
00001000
,
00000000
00000000
00010000
00000000
,
00000000
00001000
00000000
00000000
,
00100000
00000000
00000000
01000000
,
00000000
00000000
10000000
00000000
,
00000000
00010000
00000000
00000000
,
01100000
00000000
00000000
00000000
,
00000000
00000000
00000000
00000000
,
00000000
00000000
10000000
00000000
00000000
00100000
00000000
00000000
,
10000000
01000000
00100000
00010000
,
00000000
00001000
00000000
00000000
00022000
00000000
00000000
00000000
,
00000000
00000000
00000000
00033000
,
00000000
00000000
00000000
00100000
,
00000000
00010000
00000000
00000000
00000000
00000000
00100000
00000000
,
00000000
00000000
00001000
00000000
00000000
00010000
00000000
00000000
,
00000000
00001000
00000000
00000100
,
00000000
00000010
00000000
00000000
00000000
00000000
00000100
00000000
,
00000000
00000000
00000001
00000000
00000000
00001000
00000000
00000000
,
00000000
00000000
00000000
00000001
,
00000100
00000010
00000000
00001000
,
00000000
00000100
00000010
00000001
,
00000000
00000100
00000000
00001000
,
00010000
00001000
00000000
00100000
,
00000000
00000000
01000000
00000000
00000000
10010000
00000000
00000000
,
00000000
00000000
00000000
10000000
,
01000000
00010000
00000000
00001000
,
00000000
00000000
00010000
00000000
00000000
00000100
00000000
00000000
,
00001000
00000000
00000000
00000001
,
00000100
00001000
00000000
00010000
,
00000000
00000000
00001000
00000000
00000000
00100000
00000000
00000000
,
01000000
00000000
00000000
10000000
,
00100000
00010000
00000000
00001000
,
00000000
00000000
00010000
00000000
00000000
00001000
00000000
00000000
,
00000100
00000000
00000000
00000001
,
00000010
00001000
00000000
00010000
,
00000000
00000000
00001000
00000000
00000000
00100000
00000000
00000000
,
01000000
00000000
00000000
10000000
00000000
00000000
01000000
00000000
,
00000000
00100000
00000000
00000000
00010000
00000000
00001000
00000000
,
00010000
00000000
00001000
00000000
00000000
00000100
00000000
00000000
,
00000010
00000001
00000010
00000001
,
00000000
00000100
00000000
00000000
00000010
00000000
00001000
00000000
,
00000010
00000000
00001000
00000000
00000000
00000100
00000000
00000000
,
00010000
00001000
00010000
00001000
,
00000000
00100000
00000000
00000000
00010000
00000000
10000000
00000000
,
00010000
00000000
00100000
00000000
00000000
01000000
00000000
00000000
,
10000000
01000000
00100000
01000000
,
00000000
00100000
00000000
00000000
00001000
00000000
00010000
00000000
,
00000100
00000000
00001000
00000000
00000000
00000010
00000000
00000000
,
00000100
00000010
00000100
00001001
,
00000000
00000110
00000000
00000000
00000000
00000000
00000000
00000000
,
00000000
00000000
00000000
00000000
,
00000000
00000000
00000000
00011000
,
00000000
00011000
00000000
00000000
00011000
00000000
00000000
00000000
,
00000000
00000000
00000000
00000000
,
00000000
00000000
00000000
10010000
,
00000000
01100000
00000000
00000000
00000000
00000000
00000000
00000000
,
00000000
00000000
00000000
00000000
,
00000000
00000000
00000000
00011000
,
00000000
00011000
00000000
00000000
00011000
00000000
00000000
00000000
,
00000000
00000110
00000000
00000000
,
00000001
00000001
00000000
00001000
,
00000000
00001000
00000100
00000000
,
00000100
00010000
00000000
00010000
,
00001000
00001000
00000000
00100000
,
00000000
00100000
01000000
00000000
,
01000000
10000000
00000000
10000000
,
00100000
00100000
00000000
10000000
,
01000000
00010000
00001000
00010000
,
00001000
00000100
00000001
00000100
,
00000010
00000010
00000000
00000001
,
00000100
00001000
00010000
00001000
,
00010000
01000000
10000000
00100000
,
10000000
10000000
00000000
10000000
,
01000000
00100000
00010000
00001000
,
00000100
00000010
00000001
00000100
,
00000010
00000010
00000000
00000001
,
00000010
00000100
00001000
00010000
,
00100000
01000000
10000000
00100000
,
01000000
01000000
00000000
10000000
,
00100000
01000000
00010000
00001000
,
00000010
00000100
00000001
00000010
,
00000100
00000100
00000000
00000001
,
00000100
00000010
00001000
00010000
,
01000000
00100000
10000000
01000000
,
00100000
00100000
00000000
10000000
,
00000000
10000000
00100000
00000000
,
00100000
10000000
00000000
10000000
,
00100000
00000000
00100000
01000000
,
00000000
01000000
00100000
00000000
,
00100000
00010000
00000000
00010000
,
00001000
00000000
00001000
00010000
,
00000100
00001000
00000010
00000000
,
00000000
00000100
00000001
00000010
,
00001100
00001100
00000000
00010000
,
00001000
00010000
00100000
00000000
,
00000000
10000000
01000000
00100000
,
00110000
00110000
00000000
00100000
,
00000000
01000000
00000000
00000000
00100000
00000000
00010000
00000000
,
01000000
00000000
00010000
00000000
00000000
00001000
00000000
00000000
,
00022000
00000000
00000000
00000000
,
00000000
00033000
00000000
00000000
,
00000000
00011000
00000000
00000000
;

//---------------dance-single - ----------------
#NOTEDATA:;
#CHARTNAME:;
#STEPSTYPE:dance-single;
#DESCRIPTION:;
#CHARTSTYLE:;
#DIFFICULTY:Medium;
#METER:10;
#RADARVALUES:0.453841,0.591411,0.484097,0.060512,0.000000,420.000000,356.000000,64.000000,8.000000,0.000000,0.000000,0.000000,0.000000,0.000000,0.453841,0.591411,0.484097,0.060512,0.000000,420.000000,356.000000,64.000000,8.000000,0.000000,0.000000,0.000000,0.000000,0.000000;
#CREDIT:;
#NOTES:
0000
0000
0000
0000
,
0000
0000
0000
0000
,
0001
0000
0000
0010
,
0010
0010
0100
0000
,
0000
1000
0010
0100
,
0001
0000
0100
0001
,
0010
0100
2000
0000
,
0020
0000
0000
3030
,
1001
0000
0000
0000
,
0000
0000
0000
0000
,
0000
0000
0001
0000
0000
0100
0000
0000
,
0001
0010
0100
1100
,
0000
0110
0000
0000
0022
0000
0000
0000
,
0000
0000
0000
0033
,
0000
0000
0000
1001
,
0000
0010
0000
0000
0000
0000
1000
0000
,
0100
0000
0110
0000
0000
0010
0000
0000
,
0000
0001
0100
1010
,
0000
1000
0000
0000
0000
0000
0100
0000
,
0010
0000
0101
0000
0000
1001
0000
0000
,
0100
0001
0100
1000
,
0100
0001
0010
1000
,
0010
0001
1000
0100
,
1000
0001
0100
0010
,
0100
0001
0010
0100
,
1000
0000
0110
0000
0000
0011
0000
0000
,
0000
0000
0000
0001
,
1000
0100
1000
0000
0010
0000
1000
0000
,
0000
0000
1100
0000
0000
0110
0000
0000
,
0011
0000
0000
0001
,
0100
0001
0100
0000
0001
0000
0010
0000
,
0000
0000
0011
0000
0000
0110
0000
0000
,
1100
0000
0000
1000
,
0100
0001
0100
0000
1000
0000
0100
0000
,
0000
0000
1010
0000
0000
0110
0000
0000
,
0101
0000
0000
0001
,
0100
1000
0100
0000
0001
0000
0010
0000
,
0100
0000
1100
0000
0000
0110
0000
0000
,
0101
0000
0000
0001
0000
0000
1000
0000
,
0000
0100
0000
0000
0001
0000
0100
0000
,
0001
0000
0100
0000
0000
1000
0000
0000
,
0010
0100
0010
0100
,
0000
0001
0000
0000
0100
0000
1000
0000
,
0100
0000
1000
0000
0000
0100
0000
0000
,
0001
0010
0100
1100
,
0000
0110
0000
0000
0001
0000
0100
0000
,
0010
0000
1010
0000
0000
1001
0000
0000
,
0001
1000
0001
0011
,
0000
0110
0000
0000
0010
0000
0100
0000
,
0010
0000
0110
0000
0000
1001
0000
0000
,
0100
0010
0100
1001
,
0000
1100
0000
0000
1000
0000
0100
0000
,
0001
0100
1000
0100
,
0001
0100
1000
1100
,
0000
0110
0000
0000
0011
0000
0001
0000
,
0100
1000
0100
0001
,
0100
1000
0100
0101
,
0000
0011
0000
0000
1000
0000
0001
0000
,
1000
0010
1000
0001
,
1000
0010
1000
0011
,
0000
0110
0000
0000
1100
0000
0010
0000
,
0001
0110
0100
0001
,
1000
0100
1000
0100
0000
0000
0010
0001
,
0010
0100
1000
0100
,
0010
0001
0100
0010
,
1010
0101
0000
0001
,
0100
1000
0100
0001
,
0100
1000
0100
0001
,
1001
1001
0010
1000
,
0100
0010
0001
1000
,
0010
0100
0001
1000
,
0110
0101
1000
0100
,
0010
0001
0010
0100
,
1000
0001
0100
0010
,
1100
0101
0000
0001
,
1000
0100
1000
0100
1000
0000
0010
0100
,
0010
0100
0010
0000
1000
0100
1000
0100
,
1000
1001
0000
0001
,
0010
0100
0010
0001
0010
0000
0001
0100
,
0010
0100
0001
0000
1000
0100
0010
0100
,
1000
1001
0000
0001
,
0100
0001
1000
0001
1000
0000
0001
1000
,
0010
1000
0001
0000
1000
0001
0010
0001
,
1000
1001
0000
0010
,
0100
0001
0010
0100
1000
0000
1000
0100
,
0010
0001
0100
0000
0001
0100
0010
0100
,
0010
0110
0000
0100
,
0010
0100
0001
0100
,
0010
1000
0010
0100
,
0001
0100
0001
0010
,
0100
1000
0100
0010
,
0001
1000
0010
0100
,
0001
0100
0010
1000
,
0100
0001
0100
1000
,
0100
0001
0100
1000
,
1100
0110
0001
0100
,
1000
0100
0001
0100
,
1000
0100
0001
0100
,
0110
1010
1000
1100
,
0000
0110
0000
0000
0001
0000
0100
0000
,
0010
0000
1100
0000
0000
0110
0000
0000
,
0022
0000
0000
0000
,
0000
0033
0000
0000
,
0000
2002
0000
0000
,
0000
3003
0000
0000
;

//---------------dance-single - ----------------
#NOTEDATA:;
#CHARTNAME:;
#STEPSTYPE:dance-single;
#DESCRIPTION:;
#CHARTSTYLE:;
#DIFFICULTY:Hard;
#METER:14;
#RADARVALUES:0.690486,0.709693,0.597557,0.181536,0.045384,639.000000,560.000000,79.000000,24.000000,0.000000,0.000000,0.000000,0.000000,0.000000,0.690486,0.709693,0.597557,0.181536,0.045384,639.000000,560.000000,79.000000,24.000000,0.000000,0.000000,0.000000,0.000000,0.000000;
#CREDIT:;
#NOTES:
0000
0000
0000
0000
,
0000
0000
0000
0000
,
0001
0010
0100
1000
,
0100
0010
0001
0010
,
0100
1000
0100
0010
,
0001
1000
0010
0100
,
0001
1000
0020
0032
,
0203
2300
3200
0310
,
1001
0000
0000
0100
0010
1000
0100
0000
,
0000
0010
0000
1000
0001
1000
0010
0000
,
0100
0010
0002
0000
0103
0020
0000
0000
,
1030
0100
0001
1001
,
0000
0110
0000
0000
2002
0000
0000
0000
,
0000
0000
0000
3003
,
1000
0100
0010
0001
0010
0100
1000
0100
0010
0001
0000
0000
,
0000
0101
0000
0000
0001
1000
0100
0000
,
1000
0000
0100
0000
0000
1100
0000
0000
,
1000
0100
0010
0000
0001
0000
0100
0000
,
0000
0101
0000
0000
0001
0010
0100
0000
,
1000
0000
1001
0000
0000
0210
0000
0000
,
0320
0001
0100
1030
,
1000
0100
0010
0000
0001
0000
0011
0000
,
0110
0000
1000
0000
0001
1000
0010
0000
,
1010
0101
1010
1100
,
0010
0100
0010
0000
0011
0000
1100
0000
,
1001
0000
1000
0100
0001
1000
0010
0001
,
1000
0010
0001
1000
0100
0000
1010
0000
,
0001
0010
0100
0000
0110
0000
1001
0000
,
1000
0010
0100
0000
0100
0010
0000
0010
,
0001
1000
0001
1001
,
1000
0100
0001
0000
0100
0000
1000
0000
,
1100
0000
0001
0000
0001
0010
0000
0010
,
0100
1100
0101
0010
,
1000
0100
0010
0000
0011
0000
1100
0000
,
0100
0010
0001
0000
0001
0010
0000
0010
,
1000
0001
1000
1001
,
0001
0100
1000
0000
0100
0000
0001
0000
,
0010
0000
1100
0000
0010
0001
0000
0100
,
0110
0000
0001
1001
0000
1000
1100
0010
,
0001
1000
0100
0001
1000
0010
0001
1000
,
0010
0001
1000
0100
0010
0001
1000
0100
,
0001
0100
0010
0001
0010
0100
1000
0100
,
0001
1000
0010
0001
0010
0100
1000
0001
,
0010
1000
0100
0001
1000
0010
0001
1000
,
0100
0001
1000
0100
0010
0001
0011
0000
,
1000
0100
0001
1000
0010
0001
1000
0100
,
0001
0100
1000
0010
0100
0010
0001
1000
,
0100
0001
1000
0100
0001
0100
0010
1000
,
0010
0001
1000
0100
0010
0001
1000
0100
,
0001
1000
0010
0100
0001
0100
0010
0001
,
1000
0001
0100
0010
1000
0001
0101
0000
,
0000
1010
0000
0000
1000
0001
0010
0001
,
1000
0010
1000
0001
0010
0001
1000
0010
,
1000
0001
0010
0001
1000
0010
1001
0000
,
0000
0011
0000
0000
1100
0000
0001
0100
,
0001
1000
0100
1000
0001
0100
0001
1000
,
0100
1000
0001
0100
0001
1000
1100
0000
,
0000
0011
0000
0000
0001
0010
0010
1000
,
0010
0010
0001
0010
0010
1000
0010
0010
,
0001
0010
0010
1000
0010
0010
0011
0000
,
0000
1100
0000
0000
0101
0000
0010
0000
,
1000
1100
0010
0001
,
1001
0010
0100
0010
0000
0000
1000
0100
,
0001
0100
0001
0100
,
0001
0000
1001
0000
0001
0100
0000
1000
,
1001
0110
0001
1100
,
0001
1000
0001
1000
,
0100
0000
0011
0000
0010
0100
0000
0100
,
1100
0000
0011
0000
0100
0000
1000
0010
,
0001
1000
0100
0001
0010
1000
0001
0100
,
1000
0001
0010
0100
1000
0100
0010
0001
,
1001
0000
0110
0000
0100
0000
0001
0010
,
1000
0001
0100
1000
0010
0001
1000
0100
,
0001
1000
0100
0010
0001
0010
0100
1000
,
1001
0110
1001
0011
,
0001
0100
1000
0100
0001
0000
1000
0100
,
0001
0100
1000
0000
0001
0100
1000
0100
,
1001
0011
0001
1010
,
1000
0010
0001
0010
1000
0000
0001
0010
,
1000
0010
0001
0000
1000
0010
0001
0010
,
1001
1100
0100
0011
,
0001
0100
1000
0010
0001
0000
0001
0010
,
1000
0100
0001
0000
0001
0100
1000
0010
,
1001
0110
0100
1001
,
1000
0100
0001
0010
1000
0000
1000
0010
,
0001
0100
1000
0000
1000
0100
0001
0010
,
1001
0110
0010
2000
,
0100
0100
3002
0010
,
0010
0203
0010
0010
,
2300
0100
0100
3200
,
0010
0010
0302
0010
,
0010
2003
0100
0100
,
3020
0000
0100
0000
0130
0000
1000
0100
,
0001
1000
0010
0001
0100
1000
0001
0010
,
1000
0100
0001
1000
0010
0001
0100
1000
,
1001
0000
0110
0000
0101
0000
0001
0010
,
1000
0001
0100
1000
0010
0001
1000
0100
,
0001
0010
1000
0001
0100
1000
0010
0001
,
1001
0110
1100
1002
,
0013
0200
0000
0000
1300
0000
0010
0000
,
0100
0000
1001
0000
0000
0110
0000
0000
,
2002
0000
0000
0000
,
0000
0000
0000
3003
0000
0000
0001
0010
0100
1000
0100
0010
,
0001
0010
0100
2000
0000
0000
0000
0000
0000
0000
0000
0000
,
0000
3000
0000
0000
;

//---------------dance-double - ----------------
#NOTEDATA:;
#CHARTNAME:;
#STEPSTYPE:dance-double;
#DESCRIPTION:;
#CHARTSTYLE:;
#DIFFICULTY:Medium;
#METER:10;
#RADARVALUES:0.427907,0.512556,0.370636,0.143716,0.000000,396.000000,347.000000,49.000000,19.000000,0.000000,0.000000,0.000000,0.000000,0.000000,0.427907,0.512556,0.370636,0.143716,0.000000,396.000000,347.000000,49.000000,19.000000,0.000000,0.000000,0.000000,0.000000,0.000000;
#CREDIT:;
#NOTES:
// measure 0
00000000
00000000
00000000
00000000
,  // measure 1
00000000
00000000
00000000
00000000
,  // measure 2
00010000
00000000
00000000
00001000
,  // measure 3
00010000
00001000
00010000
00000000
,  // measure 4
00000000
00100000
01000000
00100000
,  // measure 5
10000000
00000000
01000000
00100000
,  // measure 6
01000000
00100000
00020000
00000000
,  // measure 7
00002000
00000000
00000000
00033000
,  // measure 8
00011000
00000000
00000000
00000000
,  // measure 9
00000000
00000000
00000000
00000000
,  // measure 10
00000000
00000000
00011000
00000000
00000000
00100000
00000000
00000000
,  // measure 11
10000000
01000000
00100000
00110000
,  // measure 12
00000000
00001100
00000000
00000000
00022000
00000000
00000000
00000000
,  // measure 13
00000000
00000000
00000000
00033000
,  // measure 14
00000000
00000000
00000000
00100000
,  // measure 15
00010000
00100000
00000000
00000000
00010000
00000000
00100000
00000000
,  // measure 16
01000000
00000000
10000000
00000000
00100000
10000000
00000000
00000000
,  // measure 17
01000000
10000000
00100000
00010000
,  // measure 18
00001000
00010000
00000000
00000000
00001000
00000000
00010000
00000000
,  // measure 19
00001000
00000000
00000110
00000000
00000000
00000102
00000000
00000000
,  // measure 20
00000010
00001000
00000100
00001003
,  // measure 21
00001000
00000010
00001000
00000000
00000100
00000000
00000010
00000000
,  // measure 22
00000100
00000000
00001000
00000000
00010000
00100000
00010000
00000000
,  // measure 23
01000000
00100000
10000000
01000000
,  // measure 24
10000000
00010000
10000000
00000000
00100000
00000000
01000000
00000000
,  // measure 25
00100000
00000000
10010000
00000000
00000000
02200000
00000000
00000000
,  // measure 26
00000000
00000000
03300000
10010000
,  // measure 27
00010000
10000000
01000000
00000000
00100000
00000000
10010000
00000000
,  // measure 28
00000000
00000000
00001000
00000000
00001000
00000100
00000000
00000100
,  // measure 29
00000010
00000000
00000000
00001001
,  // measure 30
00000001
00000100
00000010
00000000
00001000
00000000
00000100
00000000
,  // measure 31
00000010
00000000
00001001
00000000
00010000
00100000
00000000
00100000
,  // measure 32
01000000
00000000
00000000
10010000
,  // measure 33
00010000
00001000
00010000
00000000
01000000
00000000
01100000
00000000
,  // measure 34
00000000
00000000
00001000
00000000
00001000
00000100
00000000
00000100
,  // measure 35
00000010
00000000
00000000
00001001
,  // measure 36
00001000
00010000
00001000
00000000
00000001
00000000
00000100
00000000
,  // measure 37
00000010
00000000
00001100
00000000
00000010
00000001
00000000
00010000
,  // measure 38
00000100
00000000
00100000
00010000
00000000
10000000
01000000
00000000
,  // measure 39
00000000
00100000
00000000
00000000
01000000
00000000
00100000
00000000
,  // measure 40
00010000
00000000
00100000
00000000
00000000
00001000
00000000
00000000
,  // measure 41
00010000
00001000
00010000
00000100
,  // measure 42
00000000
00000010
00000000
00000000
00000001
00000000
00000010
00000000
,  // measure 43
00000001
00000000
00001000
00000000
00000000
00000100
00000000
00000000
,  // measure 44
00001000
00000100
00001000
00110000
,  // measure 45
00000000
01000000
00000000
00000000
00100000
00000000
01000000
00000000
,  // measure 46
00100000
00000000
10000000
00000000
00000000
01000000
00000000
00000000
,  // measure 47
10000000
01000000
10000000
00100000
,  // measure 48
00000000
00010000
00000000
00000000
00100000
00000000
00010000
00000000
,  // measure 49
00100000
00000000
00010000
00000000
00000000
00000100
00000000
00000000
,  // measure 50
00010000
00000100
00010000
00001010
,  // measure 51
00000000
00000101
00000000
00000000
00000001
00000000
00000100
00000000
,  // measure 52
00001000
00010000
00100000
10000000
,  // measure 53
01000000
00100000
00010000
10010000
,  // measure 54
00000000
01100000
00000000
00000000
10010000
00000000
10000000
00000000
,  // measure 55
01000000
00010000
00001000
00000010
,  // measure 56
00000001
00000100
00000010
00001001
,  // measure 57
00000000
00000110
00000000
00000000
00000001
00000000
00000010
00000000
,  // measure 58
00001000
00010000
01000000
10000000
,  // measure 59
00100000
01000000
00010000
00110000
,  // measure 60
00000000
11000000
00000000
00000000
00110000
00000000
10000000
00000000
,  // measure 61
00100000
10100000
10000000
00010000
,  // measure 62
00100000
00010000
00100000
00010000
00000000
00000000
00001000
00000000
,  // measure 63
00010000
00001000
00010000
00001000
,  // measure 64
00000100
00000000
00000001
00000000
00000100
00000001
00000000
00000010
,  // measure 65
00001000
00010000
00000000
00100000
,  // measure 66
10000000
00100000
10000000
01000000
,  // measure 67
10000000
00000000
00100000
00000000
00010000
00001000
00000000
00000100
,  // measure 68
00000010
00000010
00000000
00000010
,  // measure 69
00001000
00010000
00100000
00010000
,  // measure 70
00001000
00000100
00001000
00010000
,  // measure 71
00011000
00011000
00000000
01000000
,  // measure 72
00100000
00010000
00000100
00001000
,  // measure 73
00010000
01000000
00100000
00010000
,  // measure 74
00011000
00011000
00000000
00000001
,  // measure 75
00000010
00000001
00000010
00000000
00000100
00000000
00010000
00000100
,  // measure 76
00010000
00000000
00001000
00000000
00100000
00001000
00100000
00000000
,  // measure 77
00110000
00110000
00000000
10000000
,  // measure 78
00100000
10000000
00100000
00000000
01000000
00000000
00010000
01000000
,  // measure 79
00010000
00000000
00100000
00000000
00001000
00010000
00001000
00000000
,  // measure 80
00010100
00001100
00000000
00000001
,  // measure 81
00000010
00000100
00001000
00000000
00000100
00000000
00010000
00001000
,  // measure 82
00100000
00000000
00010000
00000000
01000000
00100000
10000000
00000000
,  // measure 83
11000000
01010000
00000000
10000000
,  // measure 84
00100000
01000000
00010000
00000000
00100000
00000000
00001000
00010000
,  // measure 85
00000100
00000000
00001000
00000000
00000010
00000100
00000001
00000000
,  // measure 86
00000011
00001100
00000000
00020000
,  // measure 87
00000000
00000000
02030000
00000000
,  // measure 88
00000000
03200000
00000000
00000000
,  // measure 89
20300000
00000000
00000000
32000000
,  // measure 90
00000000
00000000
03020000
00000000
,  // measure 91
00000000
00032000
00000000
00000000
,  // measure 92
00023000
00000000
00000000
00031000
,  // measure 93
00010000
00100000
10000000
00100000
,  // measure 94
00010000
00001000
00000100
00000001
,  // measure 95
00000011
00001001
00000000
00001000
,  // measure 96
00000010
00000001
00000010
00001000
,  // measure 97
00010000
01000000
10000000
01000000
,  // measure 98
10010000
00110000
00000000
00010000
,  // measure 99
00010000
01000000
00000000
01000000
10000000
00000000
01000000
00000000
,  // measure 100
00100000
00000000
00110000
00000000
00000000
00001100
00000000
00000000
,  // measure 101
00022000
00000000
00000000
00000000
,  // measure 102
00000000
00033000
00000000
00000000
,  // measure 103
00000000
00022000
00000000
00000000
,  // measure 104
00000000
00033000
00000000
00000000
;

//---------------dance-double - ----------------
#NOTEDATA:;
#CHARTNAME:;
#STEPSTYPE:dance-double;
#DESCRIPTION:;
#CHARTSTYLE:;
#DIFFICULTY:Hard;
#METER:15;
#RADARVALUES:0.661311,0.709693,0.635377,0.310124,0.045384,612.000000,528.000000,84.000000,41.000000,0.000000,0.000000,0.000000,0.000000,0.000000,0.661311,0.709693,0.635377,0.310124,0.045384,612.000000,528.000000,84.000000,41.000000,0.000000,0.000000,0.000000,0.000000,0.000000;
#CREDIT:;
#NOTES:
// measure 0
00000000
00000000
00000000
00000000
,  // measure 1
00000000
00000000
00000000
00000000
,  // measure 2
00020000
00000000
00000000
00032000
00000000
00000000
00013000
00000000
,  // measure 3
00100000
00000000
10000000
00000000
02000000
00000000
00000000
03200000
,  // measure 4
00000000
00310000
00001000
00000010
,  // measure 5
00000200
00000000
00000000
00000302
00000000
00000000
00000013
00000000
,  // measure 6
00000100
00001000
00020000
20030000
,  // measure 7
30200000
00320000
00032000
00013000
,  // measure 8
00011000
00000000
00000000
00010000
00001000
00010000
00001000
00000000
,  // measure 9
00000000
01000000
00000000
00001000
00010000
00001000
00010000
00000000
,  // measure 10
00000100
00000010
00002001
00000000
00003100
00002000
00000000
00013000
,  // measure 11
00100000
01000000
10000000
10010000
,  // measure 12
00000000
00011000
00000000
00000000
00002002
00000000
00000000
00000000
,  // measure 13
00000000
00000000
00000000
00003003
,  // measure 14
00000001
00000010
00000100
00001000
00010000
00100000
01000000
10000000
01000000
00100000
00000000
00000000
,  // measure 15
00020000
00001000
00030000
00020000
00100000
00030000
00011000
00000000
,  // measure 16
00001100
00000000
00000010
00000000
00002000
00010000
00003000
00002000
,  // measure 17
00000010
00003000
00001100
00000000
00011000
00000000
00100000
00000000
,  // measure 18
02000000
10000000
03000000
00020000
00001000
00030000
00100000
00000000
,  // measure 19
00010000
00000000
00001200
00000000
00000000
00000002
00000000
00000003
,  // measure 20
00001300
00000000
00000100
00000000
00010000
00000000
00100000
10000000
,  // measure 21
01000000
00010000
01000000
00000000
00100000
00000000
10000000
00000000
,  // measure 22
00010000
00000000
00000010
00000001
00000100
00001000
00000100
00000000
,  // measure 23
00000010
00000000
00000001
00000000
00001000
00000000
01000000
10000000
,  // measure 24
00100000
00010000
00100000
00000000
10000000
00000000
01000000
00000000
,  // measure 25
00100000
00000000
00012000
00000000
00000000
00020000
00000000
00000000
,  // measure 26
00000000
00000000
00033000
00011000
,  // measure 27
00010000
00100000
10000000
00100000
00010000
00000000
00011000
00000000
,  // measure 28
00001000
00000010
00001000
00000000
01000000
00010000
00000000
00000100
,  // measure 29
00001000
00000000
00000000
00011000
,  // measure 30
00001000
00000100
00000001
00000100
00001000
00000000
00011000
00000000
,  // measure 31
00010000
01000000
00010000
00000000
00000010
00001000
00000000
00100000
,  // measure 32
00010000
00000000
00000000
10010000
,  // measure 33
10000000
00100000
00010000
00001000
00000100
00000000
00001001
00000000
,  // measure 34
00000010
00000100
00001000
00000000
00020000
00000100
00030000
00002000
,  // measure 35
01000000
00003000
00000000
00000000
00000000
00000000
00001001
00000000
,  // measure 36
00000001
00000100
00001000
00010000
00100000
00000000
10010000
00000000
,  // measure 37
01000000
00100000
00010000
00000000
00002000
00100000
00003000
00010000
,  // measure 38
00010010
00000000
00000100
00000101
00000000
00000001
00001001
00000000
,  // measure 39
00000001
00001000
00000000
00000100
00001000
00000000
00010010
00000000
,  // measure 40
00011000
00000000
01001000
00000000
00100000
00010000
00000000
00100000
,  // measure 41
01000000
10010000
01100000
01001000
,  // measure 42
00010000
00000100
00000000
00010000
00000010
00000000
00001010
00000000
,  // measure 43
00000101
00000000
00001010
00000000
00001000
00010000
00000000
00010000
,  // measure 44
01000000
10010000
01100000
00011000
,  // measure 45
00000100
00000010
00000000
00000001
00000010
00000000
00000110
00000000
,  // measure 46
00001100
00000000
01010000
00000000
00010000
00100000
00000000
01000000
,  // measure 47
00100000
10010000
01100000
00001100
,  // measure 48
00000100
00000010
00000000
00000001
00000010
00000000
00001100
00000000
,  // measure 49
00000110
00000000
00110000
00000000
01000000
10000000
00000000
00100000
,  // measure 50
01000000
00110000
01100000
00001100
,  // measure 51
00000000
00000011
00000000
00000000
00000001
00000100
00001000
00010000
,  // measure 52
00100000
10000000
00100000
00010000
00001000
00000100
00000001
00000100
,  // measure 53
00001000
00010000
00100000
10000000
00100000
00010000
00011000
00000000
,  // measure 54
00000000
00001001
00000000
00000000
00011000
00000000
00010000
00100000
,  // measure 55
10000000
00100000
00010000
00001000
00000100
00000001
00000100
00001000
,  // measure 56
00010000
00100000
10000000
00100000
00010000
00001000
00011000
00000000
,  // measure 57
00000000
00001001
00000000
00000000
00000001
00000010
00001000
00010000
,  // measure 58
01000000
10000000
01000000
00010000
00001000
00000010
00000001
00000010
,  // measure 59
00001000
00010000
01000000
10000000
01000000
00010000
00011000
00000000
,  // measure 60
00000000
00001001
00000000
00000000
00011000
00000000
00010000
01000000
,  // measure 61
10000000
00000000
11000000
00000000
01000000
00010000
00001000
00000000
,  // measure 62
00000001
00000010
00001000
00000100
00000000
00000000
00010000
00010000
,  // measure 63
01000000
10000000
00100000
00010000
,  // measure 64
00001000
00000000
01100000
00000000
01000000
10000000
00000000
01000000
,  // measure 65
11000000
00000000
01010000
00000000
00001000
00000000
00010000
00000100
,  // measure 66
00000010
00000000
00000100
00000000
00010000
00001000
00000010
00000000
,  // measure 67
00001000
00000000
00010000
00000000
00000010
00001000
00000000
00000001
,  // measure 68
00000011
00000000
00001100
00000000
00010000
00000000
00100000
10000000
,  // measure 69
01000000
00010000
00001000
00000100
00010000
01000000
10000000
00010000
,  // measure 70
00000100
00001000
01000000
00010000
00000100
00000010
00010000
00001000
,  // measure 71
00011000
00000000
00001100
00000000
00001001
00000000
00000100
00000001
,  // measure 72
00000010
00001000
00010000
00100000
00001000
00000010
00000001
00001000
,  // measure 73
00100000
00010000
00000010
00001000
00100000
01000000
00001000
00010000
,  // measure 74
00011000
00000000
00110000
00000000
10010000
00000000
10000000
01000000
,  // measure 75
00010000
00000100
00010000
01000000
10000000
00010000
00001000
00000010
,  // measure 76
00001000
00010000
10000000
01000000
00010000
00000100
00010000
01000000
,  // measure 77
10100000
00000000
01010000
00000000
00000000
00000000
00000001
00000010
,  // measure 78
00001000
00100000
00001000
00000010
00000001
00001000
00010000
01000000
,  // measure 79
00010000
00001000
00000001
00000010
00001000
00100000
00001000
00000010
,  // measure 80
00000101
00000000
00001010
00000000
00000000
00000000
00000010
00001000
,  // measure 81
00010000
01000000
00010000
00001000
00000100
00001000
00010000
01000000
,  // measure 82
00100000
00010000
00001000
00000010
00001000
00010000
01000000
00010000
,  // measure 83
00011000
00000000
00011000
00000000
00000000
00000000
01000000
00010000
,  // measure 84
00001000
00000010
00001000
00010000
00100000
00010000
00001000
00000010
,  // measure 85
00000100
00001000
00010000
01000000
00010000
00001000
00000010
00001000
,  // measure 86
00011000
00011000
00000000
20000000
,  // measure 87
01000000
01000000
30200000
01000000
,  // measure 88
01000000
00320000
00001000
00001000
,  // measure 89
00030200
00001000
00001000
00000320
,  // measure 90
00000100
00000100
00002030
00010000
,  // measure 91
00010000
00203000
10000000
10000000
,  // measure 92
00320000
00000000
01000000
00000000
01030000
00000000
10000000
00010000
,  // measure 93
10000000
00010000
10000000
00010000
00100000
00010000
00100000
00010000
,  // measure 94
00100000
00010000
00001000
00000010
00001000
00000010
00001000
00000010
,  // measure 95
00000101
00000000
00001010
00000000
00011000
00000000
00010000
00100000
,  // measure 96
10000000
01000000
00010000
00001000
00000100
00000001
00000010
00001000
,  // measure 97
00010000
00100000
10000000
01000000
00010000
00001000
00000100
00000001
,  // measure 98
00000110
00011000
00000000
00002001
,  // measure 99
00003100
00002000
00000000
00013000
00100000
00000000
01000000
00000000
,  // measure 100
10000000
00000000
10010000
00000000
00000000
00011000
00000000
00000000
,  // measure 101
00002002
00000000
00000000
00000000
,  // measure 102
00000000
00000000
00000000
00003003
00000000
00000000
00000001
00000010
00001000
00010000
01000000
10000000
,  // measure 103
00100000
01000000
00010000
00002000
00000000
00000000
00000000
00000000
00000000
00000000
00000000
00000000
,  // measure 104
00000000
00003000
00000000
00000000
;
