#VERSION:0.83;
#TITLE:Sweet Requiem;
#SUBTITLE:;
#ARTIST:REDALiCE & aran;
#TITLETRANSLIT:;
#SUBTITLETRANSLIT:;
#ARTISTTRANSLIT:;
#GENRE:;
#ORIGIN:;
#CREDIT:;
#BANNER:Sweet Requiem-bn.png;
#BACKGROUND:Sweet Requiem-bg.jpg;
#PREVIEWVID:;
#JACKET:Sweet Requiem-jacket.png;
#CDIMAGE:;
#DISCIMAGE:;
#LYRICSPATH:;
#CDTITLE:;
#MUSIC:Sweet Requiem.mp3;
#OFFSET:0.860000;
#SAMPLESTART:97.563713;
#SAMPLELENGTH:15.000000;
#SELECTABLE:YES;
#BPMS:0.000=190.000,
71.500=95.000,
87.500=190.000,
291.000=95.000,
293.000=190.000;
#STOPS:38.000=0.158,
166.000=0.158,
323.500=0.158;
#DELAYS:;
#WARPS:;
#TIMESIGNATURES:0.000=4=4;
#TICKCOUNTS:0.000=4;
#COMBOS:0.000=1;
#SPEEDS:0.000=1.000=0.000=0;
#SCROLLS:0.000=1.000;
#FAKES:;
#LABELS:0.000=Song Start;
#BGCHANGES:;
#KEYSOUNDS:;
#ATTACKS:
;

//---------------dance-single - ----------------
#NOTEDATA:;
#CHARTNAME:;
#STEPSTYPE:dance-single;
#DESCRIPTION:;
#CHARTSTYLE:;
#DIFFICULTY:Beginner;
#METER:4;
#RADARVALUES:0.186306,0.286673,0.071569,0.047713,0.000000,164.000000,155.000000,9.000000,6.000000,0.000000,0.000000,0.000000,0.000000,0.000000,0.186306,0.286673,0.071569,0.047713,0.000000,164.000000,155.000000,9.000000,6.000000,0.000000,0.000000,0.000000,0.000000,0.000000;
#CREDIT:;
#NOTES:
0000
0000
0000
0000
,
0000
0000
0000
0000
,
1000
0000
1000
0000
,
1000
0000
1000
0000
,
0010
0000
0010
0000
,
0100
0000
0100
0000
,
0001
0000
0001
0000
,
1000
0000
1000
0000
,
0001
0000
1000
0000
,
1001
0000
1001
0000
,
0000
0000
0000
0010
0000
0000
0000
0100
,
0000
0000
0000
0100
0000
0000
0000
0001
,
0000
0000
0000
1000
0000
0000
0000
0010
,
0000
0000
0000
0010
0000
0000
0000
1000
,
0000
0000
0000
1000
0000
0000
0000
0100
,
0000
0000
0000
0100
0000
0000
0000
0010
,
0000
0000
0000
0010
0000
0000
0000
0001
,
0000
0001
0000
0001
0000
0000
0000
1000
,
0000
0000
0000
0000
0000
0000
0000
0100
,
0000
0000
0000
0000
0000
0000
0000
0001
,
0000
0000
0000
1000
0000
0000
0000
0001
,
0000
1000
0000
0000
0000
0010
0000
0100
,
0000
0000
0000
0100
0000
0000
0000
0100
,
0000
0000
0000
0100
0000
0000
0000
0100
,
0000
0000
0000
0100
0000
0000
0000
0100
,
0000
0000
0000
0100
0000
0000
0000
0001
,
0000
0000
0000
0001
0000
0000
0000
1000
,
0000
0000
0000
1000
0000
0000
0000
0001
,
0000
0001
0000
0001
0000
0000
0000
0100
,
0000
0000
0000
0100
0000
0000
0000
0110
,
0000
0000
0000
0000
0000
0000
0000
0001
,
0000
0000
0000
0000
0000
0000
0000
0100
,
0000
0000
0000
1000
0000
0000
0000
0010
,
0000
0000
0000
0001
0000
0000
0000
0100
,
0000
0000
0000
0000
0000
0000
0000
0200
,
0000
0000
0000
0300
0000
0000
0000
0010
,
0000
0000
0000
0000
0000
0000
0000
0020
,
0000
0000
0000
0030
0000
0000
0000
1000
,
0000
0000
0000
1000
0000
0000
0000
0002
,
0000
0000
0000
0003
0000
0000
0000
0001
,
0000
0000
0000
1000
0000
0000
0000
0001
,
0000
0000
0000
0001
0000
0000
0000
0000
,
0000
1000
0000
1000
,
0000
0010
0000
1000
,
0000
1000
0000
0001
,
0000
1000
0000
0001
,
0000
0001
0000
1000
,
0000
1000
0000
0001
,
0000
1000
0000
0000
,
0010
0010
0000
0002
,
0000
0000
0000
0000
,
0000
0000
0000
0003
,
0000
0000
0000
0000
,
0000
0000
0000
2000
,
0000
0000
0000
0000
,
0000
0000
0000
3000
,
0000
0000
0000
0110
,
0000
0000
0000
0010
,
0000
0010
0000
0000
,
0010
0010
0000
0100
,
0000
0100
0000
0000
,
0100
0100
0000
0001
,
0000
0001
0000
0000
,
0001
0001
0000
1000
,
0000
1000
0000
0001
,
0001
0001
0000
1000
,
1000
1000
0000
0001
,
0001
0001
0000
0100
,
0100
0100
0000
0010
,
0010
0010
0000
0110
,
0000
0000
0000
1001
,
0000
0000
0000
1001
,
0000
1001
0000
0010
,
0000
1000
0000
0000
,
0000
1000
0000
0000
,
0000
0001
0000
0001
,
0000
0001
0000
0001
,
0000
0100
0000
0001
,
0000
0100
0000
0001
,
0000
1000
0000
1000
,
0000
0010
0000
0110
,
0000
0000
0000
0000
0000
0100
0000
0000
,
0000
0100
0000
0000
0000
0010
0000
0000
,
0000
1000
0000
0000
0000
1000
0000
0000
,
0000
0001
0000
0000
0000
1000
0000
0000
,
0000
0001
0000
0000
0000
0001
0000
0000
,
0000
1000
0000
0000
0000
1000
0000
0000
,
0000
0001
0000
0000
0000
1000
0000
0000
,
0000
0000
0000
0010
0000
0010
0000
0000
,
0000
0200
0000
0000
0000
0000
0000
0000
,
0000
0300
0000
0000
0000
0000
0000
0000
;

//---------------dance-single - ----------------
#NOTEDATA:;
#CHARTNAME:;
#STEPSTYPE:dance-single;
#DESCRIPTION:;
#CHARTSTYLE:;
#DIFFICULTY:Easy;
#METER:7;
#RADARVALUES:0.308996,0.394175,0.166994,0.127234,0.000000,272.000000,251.000000,21.000000,16.000000,0.000000,0.000000,0.000000,0.000000,0.000000,0.308996,0.394175,0.166994,0.127234,0.000000,272.000000,251.000000,21.000000,16.000000,0.000000,0.000000,0.000000,0.000000,0.000000;
#CREDIT:;
#NOTES:
0000
0000
0000
0000
,
0000
0000
0000
0000
,
1000
0000
1000
0000
,
1000
1000
1000
0000
,
0001
0000
0001
0000
,
0001
1000
0001
0000
,
0100
0000
0100
0000
,
0100
0100
0100
0000
,
0010
1000
0010
1000
,
0001
0000
0001
0000
0001
0000
0000
1000
,
0000
0000
0000
1000
0000
0000
0000
1000
,
0000
0100
0000
1000
0000
0000
0000
0001
,
0000
0010
0000
0001
0000
0000
0000
0001
,
0000
0001
0000
0001
0000
0000
0000
1000
,
0000
0000
0000
1000
0000
0000
0000
0001
,
0000
0001
0000
1000
0000
1000
0000
0010
,
0000
0100
0000
0010
0000
0100
0000
0001
,
0000
0100
0000
0001
0000
0100
0000
0010
,
0000
0000
0000
1000
0000
0000
0000
0100
,
0000
0000
0000
0002
0000
0003
0000
0110
,
0000
0000
0000
0110
0000
0000
0000
1001
,
0000
1001
0000
0000
0100
0100
0000
0010
,
0000
0000
0000
0010
0000
0000
0000
0010
,
0000
0000
0000
0010
0000
0000
0000
1000
,
0000
0000
0000
1000
0000
0000
0000
1000
,
0000
0000
0000
1000
0000
0000
0000
0001
,
0000
0001
0000
1000
0000
1000
0000
0001
,
0000
0001
0000
1000
0000
1000
0000
0010
,
0000
0010
0000
0100
0000
0100
0000
0000
,
0010
0100
0000
0110
0000
0000
0000
2000
,
0000
0000
0000
3000
0000
0000
0000
0020
,
0000
0000
0000
0030
0000
0000
0000
0001
,
0000
0000
0000
0100
0000
0000
0000
1000
,
0000
0000
0000
1001
0000
0000
0000
0120
,
0000
0000
0000
0100
0000
0000
0000
1030
,
0000
0000
0000
1000
0000
0100
0000
1200
,
0000
0000
0000
0010
0000
0000
0000
0310
,
0000
0000
0010
0001
0000
0000
0000
0102
,
0000
0100
0000
1000
0000
0000
0000
1003
,
0000
0000
0000
0010
0000
0100
0000
0102
,
0000
0000
0000
0003
0010
0100
0010
0001
,
0000
0001
0000
0001
0000
0000
1000
0000
,
1000
0010
0010
1000
,
0010
1000
1000
0001
,
0001
0000
0100
0000
0100
0000
0001
0010
,
0001
0001
0001
1000
,
1000
0001
0001
1000
,
1000
0001
0001
0100
,
0010
0000
0100
0000
0010
0000
0000
1000
,
0001
0100
0100
0020
,
0000
0000
0000
0000
,
0000
0000
0000
0030
,
0000
0000
0000
0000
,
0000
0000
0000
1000
,
0000
1000
0000
0000
0001
0000
0000
0001
,
0000
0100
0000
0010
,
0010
0010
0000
1001
,
0000
0000
0000
0001
,
0001
1000
1000
0000
,
1000
1000
1000
0001
,
0001
0100
0100
0000
,
0100
0010
0010
1000
,
1000
0100
0100
0000
,
0001
0010
1000
0001
,
0001
1000
1000
0020
,
0000
0000
0130
0200
,
0000
0000
0301
0002
,
0000
0000
0103
0200
,
0000
0000
0310
0020
,
0000
0000
0130
0110
,
0000
1001
0000
0110
,
0000
1001
0000
1100
,
0000
0101
0000
0220
,
0330
1000
0000
1000
,
0000
1000
0000
0000
,
1001
0001
0100
1000
,
0100
0001
0001
0001
,
0000
0000
1000
0000
0000
1000
0010
0000
,
0000
0010
0100
0000
0100
0000
0010
0000
,
0000
0000
0001
0000
0000
0001
0100
0000
,
0000
0100
0010
1001
,
0000
0010
0000
0100
0000
0001
0000
0100
,
0000
0010
0000
1000
0000
0010
0000
1000
,
0000
0100
0010
0001
0000
0100
0000
0001
,
0000
0100
0000
0000
0000
0110
0000
0001
,
0000
1000
0000
1000
0000
0001
0000
0001
,
0000
1000
0000
1000
0000
0001
0000
0001
,
0000
0100
0000
0010
0000
0100
0000
0010
,
0000
0000
1000
0001
0000
1000
0000
0010
,
0000
0200
0000
0000
0000
0000
0000
0000
,
0000
0300
0000
0000
0000
0000
0000
0000
;

//---------------dance-single - ----------------
#NOTEDATA:;
#CHARTNAME:;
#STEPSTYPE:dance-single;
#DESCRIPTION:;
#CHARTSTYLE:;
#DIFFICULTY:Medium;
#METER:12;
#RADARVALUES:0.555511,0.752517,0.190850,0.127234,0.286275,489.000000,465.000000,24.000000,16.000000,0.000000,0.000000,0.000000,0.000000,0.000000,0.555511,0.752517,0.190850,0.127234,0.286275,489.000000,465.000000,24.000000,16.000000,0.000000,0.000000,0.000000,0.000000,0.000000;
#CREDIT:;
#NOTES:
0000
0000
0000
0000
,
0000
0000
0000
0000
,
1000
0100
1000
0000
1000
0000
1000
0010
,
0100
0001
0010
0000
0010
0000
0001
0100
,
0010
0010
0010
0000
1000
0000
1000
0100
,
0010
1001
1001
0000
,
0001
0100
0010
0000
0010
0000
0010
1000
,
0100
0010
0100
0000
0100
0000
1000
0000
,
0001
1000
0001
1000
0010
1000
0010
1000
,
0100
0000
0000
0000
0010
0000
0000
0000
0001
0000
0000
0000
0100
0000
0000
0000
0020
0030
0000
0000
0000
0000
0000
0000
0000
0000
0000
0000
1000
0000
0000
0000
,
0100
1000
0000
1000
0000
1000
0100
0010
,
0001
0000
0100
0000
0000
0000
0100
0000
0000
0000
0001
0000
0010
0000
0100
1000
,
0100
1000
0010
0000
0000
0000
0100
0000
0000
0000
0001
0000
0100
0000
0010
0000
,
0000
0010
0000
0100
0010
0100
0000
0001
,
0000
0001
0000
1000
0000
1000
0000
0001
,
0000
0001
0000
1000
0000
1000
0000
0001
,
1000
0001
1000
0001
1000
0001
1000
0010
,
0100
0000
0010
0000
0100
0000
0010
0000
0100
0000
0010
0100
0010
0000
1000
0000
,
0000
0000
0000
1000
0000
0000
0000
0001
,
0000
0000
0000
0002
0000
0003
0000
0110
,
0000
0000
0000
1001
0000
0000
0000
0110
,
0000
0000
1001
0000
0000
0000
0000
0001
1000
0000
0001
0000
0001
0000
1000
0000
,
0000
0000
0000
1000
0000
0000
0000
0100
,
0000
0000
0000
0100
0000
0000
0000
0010
,
0000
0000
0000
0010
0000
0000
0000
0001
,
0000
0000
0000
0001
0000
0000
0000
1000
,
0000
0100
0000
0010
0000
0001
0000
0001
,
0000
0010
0000
0100
0000
1000
0000
0001
,
1000
0001
1000
0010
0100
0010
0100
0001
,
0000
0001
0000
0100
0000
0000
0000
0100
0000
0010
0000
0000
0000
0010
0000
1010
0000
0000
0000
0000
0000
0100
0000
0000
,
0000
0001
0000
0010
0000
1000
0000
1000
,
0000
0010
0000
0001
0000
0100
0000
1000
,
0000
0100
0000
0000
0000
0001
0000
0000
0000
0010
0000
0000
0000
0001
0000
0000
0000
0100
0000
0000
0000
1000
0000
0000
,
0000
0010
0000
0000
0000
0100
0000
0000
0000
0101
0000
0000
0000
0000
0000
0000
0000
0000
0000
0000
0000
0120
0000
0000
,
0000
0000
0000
1000
0000
0000
0000
0130
,
0000
0110
0000
0010
0000
0000
0000
0102
,
0000
0000
0000
1000
0000
0000
0000
0103
,
0000
0000
1000
1001
0000
0000
0000
0110
,
0000
0120
0000
0100
0000
0000
0000
1030
,
0000
0100
0000
1100
0000
0011
0001
0100
,
0000
0001
0000
0100
0000
1000
0000
0100
,
0001
0000
0000
0000
0100
0000
0000
0000
0010
0000
0000
0000
0100
0000
0000
0000
0002
0003
0000
0000
0000
0000
0000
0000
1000
0000
0000
0000
0000
0000
0000
0000
,
0100
0000
1000
0100
0010
0000
0001
0000
,
0100
0000
0001
0010
0100
0000
1000
0000
,
0100
0000
1000
0100
0010
0000
0001
0001
,
0100
0000
1000
0100
0010
0100
0001
0000
,
0001
1000
0100
0000
0100
1000
0001
0000
,
0001
1000
0100
0000
0100
1000
0001
1000
,
0001
1000
0010
0100
0010
0100
0000
0001
,
0001
0000
0000
0000
1000
0000
0000
1000
0000
0000
1000
0000
0020
0000
0000
0000
,
0000
0000
0000
0000
,
0000
0000
0000
0230
,
0000
0000
0000
0000
,
0000
0000
0000
0310
,
0000
0001
0000
0000
0100
0000
0000
1000
,
0000
0010
0001
0100
,
1000
0001
1000
1001
,
0000
0000
0000
0010
,
0010
0000
0000
0000
0010
0000
0000
0010
0000
0000
0010
0000
0000
0000
1000
0000
,
1000
0000
0000
0000
1000
0000
0000
1000
0000
0000
1000
0000
0001
0000
0000
0000
,
0001
0000
0000
0000
0001
0000
0000
0001
0000
0000
0001
0000
0000
0000
0100
0000
,
1000
0000
0000
0000
0100
0000
0000
0100
0000
0000
0100
0000
0010
0000
0000
0000
,
0010
0000
0000
0000
0010
0000
0000
0010
0000
0000
0010
0000
0000
0000
0001
0000
,
0001
0000
0000
0000
0001
0000
0000
0001
0000
0000
0001
0000
1000
0000
0000
0000
,
1000
0000
0000
0000
0000
0000
0000
0000
0000
0000
0000
0000
1000
0000
0000
0000
0000
0000
0000
0000
0000
1000
0000
0000
0000
0000
0000
0000
0000
0000
1000
0000
0000
0000
0000
0000
0001
0000
0000
0000
0100
0000
0000
0000
0001
0000
0000
0000
,
0100
0001
0100
0001
0100
0001
0100
0000
0000
0010
1000
0010
,
1000
0010
1000
0010
1000
0010
1000
0000
0000
0100
0001
0100
,
0001
0100
0001
0100
0001
0100
0001
0000
0000
0100
1000
0010
,
1000
0010
1000
0010
1000
0010
1000
0000
0000
0100
0010
0001
,
0010
0001
0010
0001
0010
0001
0010
0000
0000
0100
0000
0100
,
1000
0000
1000
0010
0000
0010
0001
0000
0001
0100
0000
0100
,
1000
0000
1000
0010
0000
0010
0100
0000
0100
0001
0010
0001
,
0100
0001
0100
0010
1000
0100
1000
0001
1000
0200
0000
0000
,
0000
1300
1000
0010
0000
0010
0100
0010
,
0000
0010
0001
0010
0000
0010
1000
0100
,
0110
0000
0011
0000
0001
0010
0100
0000
,
0100
1000
0200
0000
0001
0000
1300
0000
,
0010
0100
1200
0000
0310
0100
0012
0000
,
0013
0100
2000
0000
3100
0010
0001
0010
,
0100
1000
0020
0000
0130
1000
0200
0000
,
0310
0100
0001
0010
0100
1000
0100
0001
,
0000
1000
0010
1000
0010
0100
0001
0100
,
0001
1000
0100
0010
0001
1000
0001
1000
,
0010
0000
0100
0010
0100
0010
0100
0000
0000
0000
0001
0000
0000
0000
0001
0000
,
0010
0000
0100
0000
1000
0000
1000
0000
0001
1000
0001
0000
0000
0000
1000
0000
,
0000
0001
0000
0001
1000
0100
0000
0100
,
1000
0000
0001
0000
0010
0000
0001
0000
0000
0010
0001
0000
0000
0000
0010
0000
,
0100
1000
1000
0010
0010
0100
0100
0001
,
1000
0000
0000
0000
0001
0000
0010
0000
0000
0000
0110
0000
0000
1100
0000
0000
,
1001
0020
0000
0000
0000
0000
0000
0000
,
0000
0030
0000
0000
0000
0000
0000
0000
;

//---------------dance-single - ----------------
#NOTEDATA:;
#CHARTNAME:;
#STEPSTYPE:dance-single;
#DESCRIPTION:;
#CHARTSTYLE:;
#DIFFICULTY:Hard;
#METER:16;
#RADARVALUES:0.789530,1.003356,0.445317,0.151090,0.715689,695.000000,639.000000,56.000000,19.000000,0.000000,0.000000,0.000000,0.000000,0.000000,0.789530,1.003356,0.445317,0.151090,0.715689,695.000000,639.000000,56.000000,19.000000,0.000000,0.000000,0.000000,0.000000,0.000000;
#CREDIT:;
#NOTES:
0000
0000
0000
0000
,
0000
0000
0000
0000
,
1000
0100
1000
0000
1000
0000
1000
0100
,
0010
0001
0100
0000
0001
0000
0001
0010
,
0100
1100
0100
0000
0010
0000
0010
0001
,
0100
0000
0000
0000
0100
0000
0000
0000
0010
0000
0100
0010
0100
0000
0000
0000
,
1000
0100
1000
0100
0010
0000
0001
0100
,
0001
0100
0010
1000
0010
1000
0100
0010
,
0001
0010
0001
0010
0100
0000
1000
0001
1000
0001
0100
0000
0010
0100
0010
0100
,
0001
0000
0000
0000
0010
0000
0000
0000
0100
0000
0000
0000
1000
0000
0001
0000
0020
0030
0000
0000
0110
0000
0000
0000
0000
0000
0000
0000
1000
0000
0000
0000
,
0100
1000
0000
1000
0000
1000
0100
0010
,
0001
0000
0100
0000
0000
0000
0100
0000
0000
0000
0100
0000
0001
0000
0010
0100
,
1000
0100
0010
0000
0001
0000
1000
0000
0000
0000
1000
0000
0100
0000
0010
0000
,
0000
0000
0010
0000
0000
0000
0001
0000
0100
0001
0100
0000
0000
0000
0001
0000
,
0010
0100
1000
0100
0000
0100
1000
0010
,
0100
0000
0001
0000
0010
0000
0100
0000
0000
0000
0100
0000
1000
0000
0001
1000
,
0001
1000
0010
0000
0100
0010
0100
0010
1000
0000
0001
0010
0001
0010
0100
0000
,
0100
0000
0010
0000
0100
0000
1000
0100
0010
0001
0010
0100
1000
0001
1000
0000
,
0000
0001
1000
0000
0000
0000
0100
0000
0000
0100
0010
0100
1000
0001
0100
0000
,
0000
0100
0001
0000
0000
0000
0201
0000
0000
0000
0300
0000
0000
0000
1001
0000
,
0000
0010
0100
0000
0000
0000
1001
0000
0000
0010
0100
0010
0100
0010
1001
0100
,
0000
0000
0000
0000
1001
0000
0100
0000
0000
0000
0000
0000
0000
0000
1001
0000
1001
0000
0000
0000
0010
0000
0000
0010
0000
0000
0010
0000
1000
0000
0000
0000
,
0000
0000
1000
0000
0000
0000
1000
0000
0000
1000
0000
0000
1000
0000
0001
0000
,
0000
0000
0001
0000
0000
0000
0001
0000
0000
0001
0000
0000
0001
0000
0010
0000
,
0000
0000
0010
0000
0000
0000
0010
0000
0000
0010
0000
0000
0010
0000
0100
0000
,
0000
0000
0100
0000
0000
0000
0100
0000
0000
0100
0000
0000
0100
0000
1000
0000
,
0010
1000
0010
0100
0001
0100
0001
1000
,
0100
0000
1000
0000
0100
0000
0010
0000
0001
0000
0010
0000
0001
0000
1000
0100
,
1000
0000
0000
0100
0000
0000
1000
0000
0000
0001
0000
0000
0100
0000
0000
0001
0000
0000
0100
0000
0000
0001
0000
0000
1000
0000
0000
0010
0000
0000
1000
0000
0000
0010
0000
0000
0100
0000
0000
0010
0000
0000
0100
0000
0000
0000
0001
0000
,
0000
0010
0000
0100
0000
1000
0000
0010
0000
0100
0000
0001
0000
1000
0000
1000
0000
0000
0000
0000
0000
1000
0000
0000
,
0000
1000
0000
0010
0000
0000
0000
0010
0000
0100
0000
0000
0000
0100
0000
0001
0000
0000
0000
0001
0000
0010
0000
0000
,
0000
0010
0000
1000
0000
0000
0000
1000
0000
0100
0000
0010
0000
0100
0000
1000
0000
0001
0000
0100
0000
0001
0000
0000
,
0000
0101
0000
0000
0000
1001
0000
0000
0000
0100
0000
0000
0000
1100
0000
0000
0000
1001
0000
0000
0000
0010
0000
0000
,
0000
0110
0000
0000
0000
0101
0000
0000
0000
1001
0000
0000
0000
0000
0000
0000
0000
0000
0000
0000
0000
1002
0000
0000
,
0000
0000
0100
1000
0000
0000
0000
1003
,
0000
0000
1000
0100
0000
0010
0000
0021
,
0000
0000
0100
1000
0000
0000
0000
0031
,
0000
0000
0001
0101
0000
0000
0000
0110
,
0000
0120
0000
1000
0000
0000
0000
0001
,
0000
1030
0000
1100
0000
0011
0001
0100
,
0000
1000
0000
0100
0010
0001
0100
0010
,
1000
0000
0000
0000
0010
0000
0000
0000
0010
0000
0000
0000
0100
0000
0000
0000
0020
0030
0000
0000
1000
0000
0000
0000
1000
0000
0000
0000
0000
0000
0000
0000
,
1000
0100
0001
0000
0001
0010
1000
0000
,
1000
0000
0100
0010
0001
0000
0010
0000
0001
0000
0100
0000
0001
0000
0000
0000
,
0001
0100
1000
0000
1000
0100
0010
0011
,
0010
0000
0000
0000
0100
0000
0000
1000
0100
0000
0010
0000
0001
0000
0000
0000
,
0001
0000
0001
0100
1000
0000
0000
0000
1000
0000
1000
0100
0001
0000
0000
0000
,
0001
0000
0001
0100
1000
0000
0100
0000
0001
0000
0100
0000
0010
0000
0010
0000
,
1000
1000
0100
0100
0010
0010
0001
1000
,
0100
0000
0000
0000
1001
0000
0000
1010
0000
0000
0100
0000
0002
0000
0000
0000
,
0000
0000
0000
0000
,
0000
0000
0000
0203
,
0000
0000
0000
0000
,
0000
0000
0000
0000
0000
0000
0000
0000
0000
0000
0000
0000
0310
0100
0001
0100
,
0000
0001
1000
0001
1000
0100
1000
0000
0001
0100
0010
1000
0100
0010
0001
0000
,
0100
0000
0001
0000
0010
0000
0100
0000
1000
0000
0010
0000
0100
0010
1000
0010
,
1000
0010
0100
0001
0010
0100
1000
0001
1000
0001
0100
0001
0020
0000
0000
0000
,
0000
0000
0000
0000
0032
0000
0000
2003
0000
0000
3100
0000
1100
0000
0000
0000
,
1100
0000
0000
0000
1100
0000
0000
1100
0000
0000
1100
0000
0000
0000
0010
0000
,
0100
0000
0000
0000
0101
0000
0000
0101
0000
0000
0101
0000
0011
0000
0000
0000
,
0011
0000
0000
0000
0101
0000
0000
0101
0000
0000
0101
0000
0000
0000
0001
1000
,
0001
0000
0000
0000
1001
0000
0000
1001
0000
0000
1001
0000
0110
0000
0000
0000
,
0110
0000
0000
0000
0101
0000
0000
0101
0000
0000
0101
0000
0000
0000
1010
0000
,
1010
0000
0000
0000
1100
0000
0000
1100
0000
0000
1100
0000
0001
0000
0000
0000
,
0100
0000
0000
0000
0000
0000
0000
0000
0000
0000
0000
0000
0010
0000
0000
0000
0000
0000
0000
0000
0000
1000
0000
0000
0000
0000
0000
0000
0000
0000
0100
0000
0000
0000
0000
0000
0010
0000
0000
0000
1000
0000
0000
0000
0100
0000
0000
0000
,
0010
0001
0100
0010
1000
0100
0010
0000
0000
0010
0001
0100
,
0010
1000
0100
0010
0001
0100
0010
0000
0000
0010
1000
0100
,
0010
0001
0100
0010
1000
0100
0010
0000
0000
0010
0001
0010
,
1000
0010
0001
0010
1000
0010
0001
0000
0000
0001
0100
1000
,
0100
0001
0100
1000
0100
0001
0100
0000
0000
0010
1000
0010
,
1000
0010
1000
0100
0010
0100
0010
0100
0010
0001
0100
0001
,
0100
0001
0100
0010
0100
0010
0100
0010
0100
0001
0010
0100
,
1000
0000
0100
0000
0010
0000
0001
0000
1000
0000
0010
0000
0100
0000
0001
0000
1000
0000
0010
1000
0100
0010
0001
1000
,
0002
0103
1000
0010
0000
0010
0100
0010
,
0000
0000
0010
0000
0001
0000
0010
0000
0000
0000
0010
0000
1000
0000
0100
0010
,
0100
0010
0001
0000
0001
0100
1000
0000
,
1000
0100
0002
0000
0010
0000
1003
0000
,
1000
0100
0020
0000
0001
1030
0200
0000
,
1000
0310
0002
0000
0010
0103
2000
0010
,
0100
3010
0100
0000
0100
0001
0010
0000
,
0010
0000
0000
0000
0100
0000
0000
0000
1000
0000
0000
0000
0001
0000
0000
0000
0100
0000
0000
0000
0001
0000
1000
0000
0100
0000
0000
0000
0020
0030
0000
0000
,
0000
0000
0001
0000
0100
0000
0001
0000
1000
0010
1000
0000
0100
0000
1000
0000
,
0010
1000
0100
0000
1000
0000
0010
0000
0100
0001
0100
0000
0010
0000
1000
0000
,
0100
0000
0010
0001
0010
0100
1000
0000
1000
0000
0001
0000
0000
0000
0001
0000
,
1000
0000
0010
0000
0000
0000
0010
0000
0100
0010
0100
0000
0000
0000
1001
0000
,
0000
0000
0001
0000
0000
0000
0001
0000
0001
0100
1000
0000
0000
0000
1000
0000
,
1000
0100
0001
0000
1001
0000
1000
0000
0000
1000
0010
0000
0000
0010
0100
0000
,
0010
0000
1000
0001
0010
0001
1000
0100
0010
0100
1000
0001
0010
0001
1000
0100
,
0010
0100
1000
0001
0010
0000
0010
0000
0000
0000
1010
0000
0000
0101
0000
0000
,
1000
0020
0000
0000
0000
0000
0000
0000
,
0000
0030
0000
0000
0000
0000
0000
0000
;

//---------------dance-double - ----------------
#NOTEDATA:;
#CHARTNAME:;
#STEPSTYPE:dance-double;
#DESCRIPTION:;
#CHARTSTYLE:;
#DIFFICULTY:Easy;
#METER:8;
#RADARVALUES:0.315812,0.430010,0.214707,0.143138,0.000000,278.000000,251.000000,27.000000,18.000000,0.000000,0.000000,0.000000,0.000000,0.000000,0.315812,0.430010,0.214707,0.143138,0.000000,278.000000,251.000000,27.000000,18.000000,0.000000,0.000000,0.000000,0.000000,0.000000;
#CREDIT:;
#NOTES:
00000000
00000000
00000000
00000000
,
00000000
00000000
00000000
00000000
,
10000000
00000000
10000000
00000000
,
10000000
01000000
00010000
00000000
,
00010000
00000000
00010000
00000000
,
00100000
00010000
00001000
00000000
,
00010000
00000000
00010000
00000000
,
00010000
00001000
00000100
00000000
,
00000001
00001000
00000001
00001000
,
00000010
00000000
00000100
00000000
00000001
00000000
00000000
00001000
,
00000000
00000000
00000000
00001000
00000000
00000000
00000000
00001000
,
00000000
00000100
00000000
00000001
00000000
00000000
00000000
00000010
,
00000000
00001000
00000000
00001000
00000000
00000000
00000000
00010100
,
00000000
00000000
00000000
00000100
00000000
00000000
00000000
00000100
,
00000000
00001000
00000000
00010000
00000000
00000000
00000000
00100000
,
00000000
01000000
00000000
10000000
00000000
00000000
00000000
00010000
,
00000000
10000000
00000000
00100000
00000000
01000000
00000000
00020000
,
00000000
00000000
00000000
00000000
00000000
00000000
00000000
01030000
,
00000000
00000000
00000000
01000000
00000000
00000000
00000000
00100000
,
00000000
00000000
00000000
01100000
00000000
00000000
00000000
01000000
,
00000000
00000000
00000000
01000000
00000000
00000000
00000000
00010000
,
00000000
00001000
00000000
00000000
00010000
00011000
00000000
00001000
,
00000000
00001000
00000000
00010000
00000000
00010000
00000000
00001000
,
00000000
00001000
00000000
00010000
00000000
00000000
00000000
00000100
,
00000000
00000100
00000000
00010000
00000000
00010000
00000000
00000100
,
00000000
00000100
00000000
00010000
00000000
00000000
00000000
00000010
,
00000000
00001000
00000000
00000001
00000000
00001000
00000000
00000001
,
00000000
00000010
00000000
00000100
00000000
00001000
00000000
00000001
,
00000000
00001000
00000000
00000001
00000000
00000100
00000000
00000020
,
00000000
00000000
00000000
00000000
00000000
00001030
00000000
00001000
,
00000000
00010000
00000000
01000000
00000000
00100000
00000000
00100000
,
00000000
00010000
00000000
00001000
00000000
00010000
00000000
00000200
,
00000000
00000000
00000000
00002300
00000000
00000000
00000000
00003002
,
00000000
00000000
00000000
00000103
00000000
00000000
00000000
00001002
,
00000000
00000000
00000000
00000000
00000000
00000000
00000000
00001003
,
00000000
00000000
00000000
00001000
00000000
00000100
00000000
00010200
,
00000000
00000000
00000000
00010000
00000000
00000000
00000000
00010300
,
00000000
00000000
00000000
00011000
00000000
00000000
00000000
00102000
,
00000000
00100000
00000000
00000000
00000000
00000000
00000000
01003000
,
00000000
00000000
00000000
01000000
00000000
00100000
00000000
10000000
,
00000000
10000000
00000000
00010000
00000000
00010000
00000000
10000000
,
00000000
00010000
00000000
01100000
00000000
00000000
10000000
00000000
,
01000000
10000000
01000000
00010000
,
01000000
10000000
00000000
00100000
,
01000000
00010000
01000000
00100000
,
01000000
00100000
00000000
00010000
,
00010000
00001000
00001000
00010000
,
00010000
00001000
00001000
00010000
,
00000100
00000010
00000001
00001000
,
00000001
00001001
00000000
00000120
,
00000000
00000000
00000000
00000000
,
00000000
00000000
00000000
00000230
,
00000000
00000000
00000000
00000000
,
00000000
00000000
00000000
00000301
,
00000000
00000001
00000000
00000000
00001000
00000000
00000000
00001000
,
00000000
00000001
00000010
00000100
,
00010000
00001000
00010000
00011000
,
00000000
00000000
00000000
00100000
,
00100000
01000000
01000000
00000000
,
10000000
10010000
00000000
00100000
,
00100000
01000000
01000000
00001000
,
00010000
00011000
00000000
00001000
,
00000100
00001000
00000100
00000001
,
00000010
00000011
00000000
00000001
,
00001000
00000100
00010000
00002000
,
00000000
00000000
00013000
00020000
,
00000000
00000000
00130000
00200000
,
00000000
00000000
10300000
00020000
,
00000000
00000000
10030000
20000000
,
00000000
00000000
30010000
01100000
,
00000000
10010000
00000000
01100000
,
00000000
10010000
00000000
01100000
,
00000000
00011000
00000000
00002000
,
00000000
00013000
00000000
00010000
,
00000000
00010000
00000000
00000000
,
00011000
00001000
00000100
00000001
,
00000100
00001000
00001000
00001000
,
00000000
00010000
00000000
00010000
,
00000000
00010000
01000000
10000000
,
10000000
00100000
10000000
00010000
,
00100000
00000000
00010000
00000000
01000000
00000000
00010000
10000000
,
00000000
10000000
00000000
01000000
00000000
10000000
00000000
01000000
,
00000000
00010000
00000000
01000000
00000000
10000000
00000000
00100000
,
00000000
00011000
00000000
00010000
00000000
00001000
00000000
00000000
,
00000000
00011000
00000000
00011000
00000000
00011000
00000000
00000000
,
00000000
00010000
00000000
00010000
00000000
00001000
00000000
00001000
,
00000000
00010000
00000000
00010000
00000000
00001000
00000000
00001000
,
00000000
00000010
00000000
00000001
00000000
00000100
00000000
00000010
,
00000000
00001000
00000000
00000100
00000000
00010100
00000000
00000000
,
00000000
00022000
00000000
00000000
00000000
00000000
00000000
00000000
,
00000000
00033000
00000000
00000000
00000000
00000000
00000000
00000000
;

//---------------dance-double - ----------------
#NOTEDATA:;
#CHARTNAME:;
#STEPSTYPE:dance-double;
#DESCRIPTION:;
#CHARTSTYLE:;
#DIFFICULTY:Medium;
#METER:13;
#RADARVALUES:0.569143,0.680849,0.270371,0.143138,0.254467,501.000000,467.000000,34.000000,18.000000,0.000000,0.000000,0.000000,0.000000,0.000000,0.569143,0.680849,0.270371,0.143138,0.254467,501.000000,467.000000,34.000000,18.000000,0.000000,0.000000,0.000000,0.000000,0.000000;
#CREDIT:;
#NOTES:
// measure 0
00000000
00000000
00000000
00000000
,  // measure 1
00000000
00000000
00000000
00000000
,  // measure 2
10000000
01000000
10000000
00000000
10000000
00000000
00100000
00000000
,  // measure 3
10000000
01000000
10000000
00000000
10000000
00000000
00100000
01000000
,  // measure 4
00010000
00010000
01000000
00000000
01100000
00000000
01000000
00100000
,  // measure 5
01000000
10010000
10010000
00000000
,  // measure 6
00100000
00010000
00001000
00000000
00001000
00000000
00010000
00001000
,  // measure 7
00010000
00001000
00001000
00000000
00010000
00000000
00001000
00000000
,  // measure 8
00010100
00000000
00000000
00001010
00000000
00000000
00000101
00000000
,  // measure 9
00001001
00000000
00000000
00000000
00000000
00000000
00000000
00000000
00000010
00000000
00000000
00000000
00000100
00000000
00000000
00000000
00000200
00000300
00000000
00000000
00000000
00000000
00000000
00000000
00000000
00000000
00000000
00000000
00000001
00000000
00000000
00000000
,  // measure 10
00000100
00001000
00000000
00000100
00000000
00000001
00000000
00000100
,  // measure 11
00001000
00000100
00000000
00000001
00000000
00001000
00000000
00000100
,  // measure 12
00000100
00001000
00000000
00010000
00000000
01000000
00001000
01000000
,  // measure 13
00000000
01001000
00000000
01100000
00000000
00000000
00000000
10000000
,  // measure 14
01000000
00100000
00000000
00010000
00000000
00010000
01000000
00100000
,  // measure 15
10000000
01000000
00000000
01000000
00000000
10000000
00100000
00010000
,  // measure 16
00001000
00010000
00000100
00010000
00001000
00010000
00000100
00000010
,  // measure 17
00000001
00000010
00001000
00000010
00000001
00000010
00000100
00002000
,  // measure 18
00000000
00000000
00000000
00003010
00000000
00000001
00001000
00000200
,  // measure 19
00000000
00000000
00000000
00000310
00000000
00000000
00000000
00011000
,  // measure 20
00000000
00000000
00000000
00110000
00000000
00000000
00000000
10010000
,  // measure 21
00000000
00000000
01100000
00000000
00000000
00000000
00000000
00010000
10000000
00000000
00200000
00000000
00000000
00000000
01300000
00000000
,  // measure 22
00000000
00000000
00000000
00000000
00000000
00000000
01000000
00000000
00000000
01000000
00000000
00000000
01000000
00000000
00100000
00000000
,  // measure 23
00000000
00000000
00000000
00000000
00000000
00000000
00100000
00000000
00000000
00100000
00000000
00000000
00100000
00000000
00001000
00000000
,  // measure 24
00000000
00000000
00000000
00000000
00000000
00000000
00001000
00000000
00000000
00001000
00000000
00000000
00001000
00000000
00000010
00000000
,  // measure 25
00000000
00000000
00000000
00000000
00000000
00000000
00000010
00000000
00000000
00000010
00000000
00000000
00000010
00000000
00000001
00000000
,  // measure 26
00000000
00000100
00000000
00001000
00010000
00100000
00000000
10000000
,  // measure 27
00000000
00100000
00000000
00010000
00001000
00000100
00000000
00000001
,  // measure 28
00001000
00000001
00001000
00000010
00001000
00000010
00001000
00000100
,  // measure 29
00000000
00000100
00000000
00010000
00000000
00000000
00000000
00010000
00000000
00001000
00000000
00100000
00000000
00010000
00000000
01000000
00000000
00000000
00000000
00000000
00000000
01000000
00000000
00000000
,  // measure 30
00000000
01000000
00000000
00010000
00000000
00010000
00000000
00001000
,  // measure 31
00000000
00000000
00000000
00001000
00000000
00000000
00000000
00000000
00000000
00000100
00000000
00000000
00000000
00000001
00000000
00000000
00000000
00000010
00000000
00000000
00000000
00001000
00000000
00000000
,  // measure 32
00000000
00001000
00000000
00000000
00000000
00001000
00000000
00000000
00000000
00010000
00000000
00000000
00000000
00010000
00000000
00000000
00000000
00010000
00000000
00000000
00000000
01000000
00000000
00000000
,  // measure 33
00000000
10000000
00000000
00000000
00000000
10100000
00000000
00000000
00000000
10010000
00000000
00000000
00000000
00000000
00000000
00000000
00000000
00000000
00000000
00000000
00000000
02100000
00000000
00000000
,  // measure 34
00000000
00000000
00000000
00100000
00000000
00000000
00000000
03100000
,  // measure 35
00000000
00010000
00000000
00001100
00000000
00000000
00000000
00000120
,  // measure 36
00000000
00000000
00000000
00000100
00000000
00000000
00000000
00000130
,  // measure 37
00000000
00000000
00000100
00000100
00000000
00000000
00000000
00001100
,  // measure 38
00000000
00001200
00000000
00001000
00000000
00000000
00000000
00010000
,  // measure 39
00000000
00010300
00000000
00001000
00000000
00001000
00000100
00001000
,  // measure 40
00010000
00100000
00000000
00100000
00010000
00001000
00000000
00100000
,  // measure 41
00010000
00000000
00000000
00000000
10000000
00000000
00000000
00000000
01000000
00000000
00000000
00000000
00100000
00000000
00000000
00000000
00020000
00030000
00000000
00000000
00000000
00000000
00000000
00000000
10000000
00000000
00000000
00000000
00000000
00000000
00000000
00000000
,  // measure 42
10000000
01000000
00010000
00000000
00010000
01000000
10000000
00000000
,  // measure 43
10000000
00100000
00010000
00001000
00100000
00010000
00001000
00000000
,  // measure 44
00001000
00000100
00010000
00000000
00010000
00001000
00010000
00000100
,  // measure 45
00000100
00000000
00000000
00000000
00001100
00000000
00000000
00001000
00000001
00000000
00000010
00000000
00000100
00000000
00000000
00000000
,  // measure 46
00000100
00001000
00010000
00000000
00010000
00001000
00000010
00000000
,  // measure 47
00000010
00001000
00010000
10000000
01000000
00100000
00010000
00010000
,  // measure 48
01000000
01000000
00100000
00100000
00010000
00010000
00001000
00010000
,  // measure 49
00000100
00000000
00000000
00000000
00001001
00000000
00000000
00001100
00000000
00000000
00000101
00000000
00000020
00000000
00000000
00000000
,  // measure 50
00000000
00000000
00000000
00000000
,  // measure 51
00000000
00000000
00000000
00000230
,  // measure 52
00000000
00000000
00000000
00002300
,  // measure 53
00000000
00000000
00000000
00013000
,  // measure 54
00000000
10100000
00000000
00000000
01000000
00000000
00000000
00110000
,  // measure 55
00000000
00000000
00001000
00000000
00010000
00000000
00100000
10000000
,  // measure 56
01000000
00100000
00001000
00010000
00100000
01000000
20000000
00000000
,  // measure 57
00000000
00000000
30010000
10010000
,  // measure 58
00010000
00000000
00000000
00000000
00100000
00000000
00000000
00100000
00000000
00000000
00100000
00000000
00000000
00000000
01000000
00000000
,  // measure 59
00010000
00000000
00000000
00000000
00001000
00000000
00000000
00001000
00000000
00000000
00010000
00000000
00000100
00000000
00000000
00000000
,  // measure 60
00000100
00000000
00000000
00000000
00000010
00000000
00000000
00000010
00000000
00000000
00000010
00000000
00000000
00000000
00000001
00000000
,  // measure 61
00000100
00000000
00000000
00000000
00001000
00000000
00000000
00001000
00000000
00000000
00001000
00000000
00010000
00000000
00000000
00000000
,  // measure 62
00010000
00000000
00000000
00000000
01000000
00000000
00000000
01000000
00000000
00000000
01000000
00000000
00000000
00000000
10000000
00000000
,  // measure 63
00100000
00000000
00000000
00000000
01000000
00000000
00000000
01000000
00000000
00000000
01000000
00000000
00010000
00000000
00000000
00000000
,  // measure 64
00001000
00000000
00000000
00000100
00000000
00000000
00000010
00000000
00000000
00000001
00000000
00000001
,  // measure 65
00000100
00000000
00000100
00000010
00001000
00000010
00001000
00000000
00000000
00000100
00000000
00000100
,  // measure 66
00010000
00000000
00010000
00000100
00010000
00001000
00010000
00000000
00000000
00000100
00000000
00000100
,  // measure 67
00010000
00000000
00010000
00000100
00010000
00001000
00010000
00000000
00000000
00100000
00000000
00100000
,  // measure 68
01000000
00000000
01000000
00010000
01000000
00100000
10000000
00000000
00000000
00100000
00000000
00100000
,  // measure 69
01000000
00000000
01000000
00010000
01000000
00100000
10000000
00000000
00000000
10000000
00000000
00100000
,  // measure 70
00000000
00010000
00000000
00001000
00000000
00000100
00000000
00000001
00000000
00000100
00000000
00001000
,  // measure 71
00000000
00010000
00000000
00100000
00000000
10000000
00000000
01000000
00000000
10000000
01000000
00100000
,  // measure 72
00010000
00001000
00000100
00000010
00000100
00001000
00000100
00000010
00000001
00000200
00000000
00000000
,  // measure 73
00000000
00000310
00001000
00000100
00000000
00000100
00000010
00000100
,  // measure 74
00000000
00000100
00000001
00000100
00000000
00000100
00001000
00000010
,  // measure 75
00000110
00000000
00000001
00000000
00000001
00000100
00001000
00000000
,  // measure 76
00001000
00010000
00200000
00000000
00010000
00000000
01300000
00000000
,  // measure 77
10000000
00000000
20000000
00000000
30010000
01000000
00200000
00000000
,  // measure 78
01300000
00001000
00020000
00000000
00031000
00100000
00010000
00001000
,  // measure 79
00000100
00000001
00000010
00000000
00000010
00001000
00010000
00000000
,  // measure 80
00010000
00000100
00001000
00010000
00100000
01000000
10000000
00100000
,  // measure 81
00000000
10000000
01000000
00010000
01000000
10000000
00100000
10000000
,  // measure 82
00100000
10000000
01000000
00010000
01000000
10000000
00100000
00010000
,  // measure 83
00001000
00011000
00010000
00001000
00000100
00000001
00000000
00000001
,  // measure 84
00000010
00000000
00000100
00000000
00000100
00000000
00000010
00000000
00000100
00000010
00000100
00000000
00000000
00000000
00001001
00000000
,  // measure 85
00000000
00000100
00000000
00000100
00001000
00010000
00000000
00010000
,  // measure 86
00001000
00000000
00000010
00000000
00000010
00000000
00001100
00000000
00000000
00001000
00010000
00000000
00100000
00000000
01000000
00000000
,  // measure 87
00100000
00010000
00010000
01000000
01000000
00100000
00100000
00010000
,  // measure 88
00010000
00000000
00001000
00000000
00010000
00000000
00000100
00000000
00000000
00000000
00001001
00000000
00000000
00001100
00000000
00000000
,  // measure 89
00000101
00000020
00000000
00000000
00000000
00000000
00000000
00000000
,  // measure 90
00000000
00000030
00000000
00000000
00000000
00000000
00000000
00000000
;

//---------------dance-double - ----------------
#NOTEDATA:;
#CHARTNAME:;
#STEPSTYPE:dance-double;
#DESCRIPTION:;
#CHARTSTYLE:;
#DIFFICULTY:Hard;
#METER:16;
#RADARVALUES:0.778169,1.003356,0.397605,0.286275,0.695808,685.000000,635.000000,50.000000,36.000000,0.000000,0.000000,0.000000,0.000000,0.000000,0.778169,1.003356,0.397605,0.286275,0.695808,685.000000,635.000000,50.000000,36.000000,0.000000,0.000000,0.000000,0.000000,0.000000;
#CREDIT:;
#NOTES:
// measure 0
00000000
00000000
00000000
00000000
,  // measure 1
00000000
00000000
00000000
00000000
,  // measure 2
10000000
10000000
01000000
00010000
01000000
00000000
10000000
00100000
,  // measure 3
10000000
10000000
01000000
00010000
01000000
00000000
10000000
00100000
,  // measure 4
10000000
10010000
10000000
00000000
00110000
00000000
00100000
00010000
,  // measure 5
00100000
00001000
00001000
00000100
00000001
00000000
00000010
00000100
,  // measure 6
00000010
00000010
00000001
00001000
00000100
00000000
00000010
00000100
,  // measure 7
00000010
00000010
00000001
00001000
00000100
00000000
00000010
00000100
,  // measure 8
00000010
00000001
00000010
00000001
00000100
00000000
00000010
00001000
00000010
00001000
00000100
00000000
00010000
00001000
00100000
00001000
,  // measure 9
00010000
00000000
00000000
00000000
00100000
00000000
10000000
00000000
01000000
00000000
00100000
00000000
00010000
00000000
00100000
00000000
02000000
03000000
00000000
00000000
00010000
00000000
10000000
00000000
00010000
00000000
00000000
00000000
10000000
00000000
00000000
00000000
,  // measure 10
01000000
00010000
00001000
00010000
00000000
00100000
01000000
10000000
,  // measure 11
01000000
00000000
00010000
00000000
00001000
00000000
00010000
00000000
00000000
00000000
10000000
00000000
01000000
00000000
00100000
00010000
,  // measure 12
00100000
00010000
00100000
00000000
00001000
00000000
00010000
00000000
00000000
00000000
00001000
00000000
00010000
00000000
00010100
00000000
,  // measure 13
00000000
00001100
00000000
00000011
00000000
00000101
00000000
00001001
,  // measure 14
00000001
00000100
00001000
00010000
00000000
00010000
00001000
00000100
,  // measure 15
00000001
00000000
00000100
00000000
00001000
00000000
00010000
00000000
00000000
00000000
00010000
00000000
00001000
00000000
00000100
00000010
,  // measure 16
00000100
00000010
00001000
00000000
00000100
00010000
00000100
00010000
00001000
00000000
00100000
00010000
00100000
00010000
01000000
00000000
,  // measure 17
01000000
00000000
00100000
00000000
00100000
00000000
10000000
00010000
10000000
00010000
01000000
00100000
01000000
00100000
10000000
00000000
,  // measure 18
00000000
10000000
01000000
00000000
00000000
00000000
10000000
00000000
00000000
10000000
00100000
10000000
10000000
01000000
00100000
00000000
,  // measure 19
00000000
00100000
01000000
00000000
00000000
00000000
02100000
00000000
00000000
00000000
03000000
00000000
00000000
00000000
10010000
00000000
,  // measure 20
00000000
00100000
01000000
00000000
00000000
00000000
00011000
00000000
00000000
00100000
00010000
00100000
01000000
00100000
00001000
00001000
,  // measure 21
00000000
00000000
00000000
00000000
00010000
00000000
00010000
00000000
00000000
00000000
00000000
00000000
00000000
00000000
00000100
00000000
00001000
00000000
00000000
00000000
00000010
00000000
00000000
00000010
00000000
00000000
00000010
00000000
00002001
00000000
00000000
00000000
,  // measure 22
00000000
00000100
00000000
00023000
00000000
01000000
00000000
00032000
,  // measure 23
00000000
00000010
00000000
00023000
00000000
00100000
00000000
20030000
,  // measure 24
00000000
00100000
00000000
30020000
00000000
00001000
00000000
00030020
,  // measure 25
00000000
00000000
00000001
00000000
00000000
00000000
00002030
00000000
00000000
00010000
00000000
00000000
00010000
00000000
00013000
00000000
,  // measure 26
00100000
10000000
00100000
10000000
01000000
00010000
00001000
00000010
,  // measure 27
00000001
00000000
00000100
00000000
00000001
00000000
00000100
00000000
00000010
00000000
00001000
00000000
00010000
00000000
00100000
00010000
,  // measure 28
00100000
00000000
00000000
00010000
00000000
00000000
10000000
00000000
00000000
00010000
00000000
00000000
10000000
00000000
00000000
00010000
00000000
00000000
01000000
00000000
00000000
00100000
00000000
00000000
01000000
00000000
00000000
00100000
00000000
00000000
10000000
00000000
00000000
01000000
00000000
00000000
00100000
00000000
00000000
00010000
00000000
00000000
01000000
00000000
00000000
00000000
00100000
00000000
,  // measure 29
00000000
01000000
00000000
00010000
00000000
00100000
00000000
00010000
00000000
00001000
00000000
00000100
00000000
00001000
00000000
00001000
00000000
00000000
00000000
00000000
00000000
00000001
00000000
00000000
,  // measure 30
00000000
00000001
00000000
00000100
00000000
00000000
00000000
00000100
00000000
00001000
00000000
00000000
00000000
00001000
00000000
00010000
00000000
00000000
00000000
00010000
00000000
01000000
00000000
00000000
,  // measure 31
00000000
01000000
00000000
10000000
00000000
00000000
00000000
10000000
00000000
00100000
00000000
10000000
00000000
01000000
00000000
00100000
00000000
00010000
00000000
01000000
00000000
00100000
00000000
00000000
,  // measure 32
00000000
00001000
00000000
00000000
00000000
00000100
00000000
00000000
00000000
00010000
00000000
00000000
00000000
00100000
00000000
00000000
00000000
00001000
00000000
00000000
00000000
00000010
00000000
00000000
,  // measure 33
00000000
00010000
00000000
00000000
00000000
00100000
00000000
00000000
00000000
00011000
00000000
00000000
00000000
00000000
00000000
00000000
00000000
00000000
00000000
00000000
00000000
00021000
00000000
00000000
,  // measure 34
00000000
00000000
00000000
00001000
00000000
00000000
00000000
00031000
,  // measure 35
00000000
00100000
00000000
01100000
00000000
00000000
00000000
20010000
,  // measure 36
00000000
00000000
00000000
00100000
00000000
00000000
00000000
31000000
,  // measure 37
00000000
00000000
01000000
01100000
00000000
00000000
00000000
00011000
,  // measure 38
00000000
00012000
00000000
00010000
00000000
00000000
00000000
00013000
,  // measure 39
00000000
00010000
00000000
00000100
00000010
00000001
00000100
00000010
,  // measure 40
00000000
00000010
00001000
00010000
00000000
00010000
00001000
00000010
,  // measure 41
00000110
00000000
00000000
00000000
00001000
00000000
00000000
00000000
00001001
00000000
00000000
00000000
00000100
00000000
00000000
00000000
00020000
00030000
00000000
00000000
00001000
00000000
00010000
00000000
00001000
00000000
00000000
00000000
00010000
00000000
00000000
00000000
,  // measure 42
00100000
00000000
10000000
00100000
10000000
00000000
00100000
00000000
01000000
00000000
00010000
00000000
00001000
00000000
00000000
00000000
,  // measure 43
00001000
00000000
00010000
00100000
01000000
00000000
10000000
00000000
00100000
00000000
00010000
00000000
00001000
00000000
00000000
00000000
,  // measure 44
00001000
00000100
00000001
00000000
00000001
00000010
00000100
00000110
,  // measure 45
00000100
00000000
00000000
00000000
00000010
00000000
00000000
00000010
00000001
00000000
00000100
00000000
00001000
00000000
00000000
00000000
,  // measure 46
00001000
00000000
00001000
00010000
00100000
00000000
00000000
00000000
00010000
00000000
00010000
00001000
00000010
00000000
00000000
00000000
,  // measure 47
00001000
00000000
00001000
00010000
00100000
00000000
10000000
00000000
01000000
00000000
00010000
00000000
00001000
00000000
00000010
00000000
,  // measure 48
00001000
00000010
00000001
00000100
00000001
00000100
00000010
00001000
,  // measure 49
00000100
00000000
00000000
00000000
00011000
00000000
00000000
01010000
00000000
00000000
01100000
00000000
20000000
00000000
00000000
00000000
,  // measure 50
00000000
00000000
00000000
00000000
,  // measure 51
00000000
00000000
00000000
30020000
,  // measure 52
00000000
00000000
00000000
00230000
,  // measure 53
00000000
00000000
00000000
00000000
00000000
00000000
00000000
00000000
00000000
00000000
00000000
00000000
00301000
00010000
00001000
00010000
,  // measure 54
00000000
00000010
00001000
00000010
00001000
00000100
00010000
00000000
00001000
00010000
00001000
00100000
00010000
01000000
00100000
10000000
,  // measure 55
01000000
00000000
00100000
00000000
00010000
00000000
00001000
00000000
00000100
00000000
00000010
00000000
00000001
00000010
00000100
00001000
,  // measure 56
00000010
00000100
00000001
00001000
00000001
00000100
00000001
00000010
00000001
00000100
00000010
00001000
00000200
00000000
00000000
00000000
,  // measure 57
00000000
00000000
00000310
00001001
,  // measure 58
00001001
00000000
00000000
00000000
00000010
00000000
00000000
00000010
00000000
00000000
00000010
00000000
00000000
00000000
00000100
00000000
,  // measure 59
00001000
00000000
00000000
00000000
00010100
00000000
00000000
00010100
00000000
00000000
00010100
00000000
00001000
00000000
00000000
00000000
,  // measure 60
00001000
00000000
00000000
00000000
00100000
00000000
00000000
00100000
00000000
00000000
00100000
00000000
00000000
00000000
01000000
10000000
,  // measure 61
00100000
00000000
00000000
00000000
10010000
00000000
00000000
10010000
00000000
00000000
10010000
00000000
00100000
00000000
00000000
00000000
,  // measure 62
00100000
00000000
00000000
00000000
00010000
00000000
00000000
00010000
00000000
00000000
00010000
00000000
00000000
00000000
00000100
00000000
,  // measure 63
00001000
00000000
00000000
00000000
00000011
00000000
00000000
00000011
00000000
00000000
00000011
00000000
00000001
00000000
00000000
00000000
,  // measure 64
00000100
00000000
00000000
00000000
00000000
00000000
00000000
00000000
00000000
00000000
00000000
00000000
00011000
00000000
00000000
00000000
00000000
00000000
00000000
00000000
00000000
00110000
00000000
00000000
00000000
00000000
00000000
00000000
00000000
00000000
00011000
00000000
00000000
00000000
00000000
00000000
00000100
00000000
00000000
00000000
00001000
00000000
00000000
00000000
00010000
00000000
00000000
00000000
,  // measure 65
00100000
00010000
00001000
00000100
00001000
00010000
00100000
00000000
00000000
10000000
01000000
00100000
,  // measure 66
00010000
00001000
00010000
00100000
01000000
10000000
01000000
00000000
00000000
10000000
01000000
00100000
,  // measure 67
00010000
00001000
00010000
00100000
01000000
10000000
01000000
00000000
00000000
00010000
00001000
00000010
,  // measure 68
00001000
00010000
00000100
00010000
00001000
00000010
00001000
00000000
00000000
00010000
00001000
00000010
,  // measure 69
00001000
00010000
00000100
00010000
00001000
00000010
00001000
00000000
00000000
00000010
00000001
00000100
,  // measure 70
00000001
00000100
00000001
00000010
00000100
00001000
00000010
00001000
00000100
00010000
00001000
00100000
,  // measure 71
00001000
00100000
00001000
01000000
00100000
01000000
00010000
01000000
00100000
10000000
00100000
00010000
,  // measure 72
00001000
00000000
00000100
00000000
00000010
00000000
00000100
00000000
00001000
00000000
00010000
00000000
01000000
00000000
10000000
00000000
00100000
00000000
01000000
00010000
10000000
00010000
10000000
00100000
,  // measure 73
02000000
03100000
01000000
00020000
00000000
00031000
00010000
02000000
,  // measure 74
00000000
00000000
03010000
00000000
00001000
00000000
00020000
00000000
00000000
00000000
01030000
00000000
00010000
00000000
00100000
00001000
,  // measure 75
00100000
00011000
00020000
00000000
00031000
00000100
00000020
00000000
,  // measure 76
00000130
00001000
00020000
00000000
00100000
00000000
00030100
00000000
,  // measure 77
00100000
00000000
00200000
00000000
00310000
00001000
00000020
00000000
,  // measure 78
00001030
00000000
00010000
00000000
02000000
00000000
00000000
00000000
03100000
00000000
01000000
00100000
01000000
00000000
00010000
00000000
,  // measure 79
10000000
01000000
00200000
00000000
00301000
00000100
00000002
00000000
,  // measure 80
00001003
00000000
00000000
00000000
00010000
00000000
00000000
00000000
01000000
00000000
00000000
00000000
00100000
00000000
00000000
00000000
01000000
00000000
00000000
00000000
00010000
00000000
00000000
00000000
10000000
00000000
00000000
00000000
20000000
30000000
00000000
00000000
,  // measure 81
00000000
00000000
10010000
00000000
00000000
00000000
10010000
00000000
10000000
01000000
00010000
00000000
00000000
00000000
00011000
00000000
,  // measure 82
00000000
00000000
00011000
00000000
00000000
00000000
00001000
00000000
00010000
00001000
00000010
00000000
00000001
00000000
00000100
00000000
,  // measure 83
00000010
00000000
00010000
00001000
00000100
00000010
00000001
00000000
00000010
00000000
00001000
00000000
00000010
00000000
00010000
00000000
,  // measure 84
00000100
00000000
00000010
00000000
00000100
00000000
00010000
00000000
00001000
00010000
00001000
00000000
00000000
00000000
00011000
00000000
,  // measure 85
00000000
01002000
00000000
00100000
00003000
00020100
00000000
00000010
,  // measure 86
00030000
00000000
01002000
00000000
01000000
00000000
01000000
00000000
00003000
00001000
00020000
00000000
00001000
00000000
00001000
00000000
,  // measure 87
00030100
00000000
00000010
00000001
00000010
00000001
00001000
00000010
00001000
00000010
00000100
00000001
00000010
00000001
00000100
00000010
,  // measure 88
00001000
00000100
00010000
00000000
00001000
00000000
00001000
00000000
00000000
00000000
00011000
00000000
00000000
01010000
00000000
00000000
,  // measure 89
01100000
20000000
00000000
00000000
00000000
00000000
00000000
00000000
,  // measure 90
00000000
30000000
00000000
00000000
00000000
00000000
00000000
00000000
;
