#VERSION:0.83;
#TITLE:Stasis;
#SUBTITLE:;
#ARTIST:Maozon;
#TITLETRANSLIT:;
#SUBTITLETRANSLIT:;
#ARTISTTRANSLIT:;
#GENRE:;
#ORIGIN:;
#CREDIT:;
#BANNER:Stasis-bn.png;
#BACKGROUND:Stasis-bg.png;
#PREVIEWVID:;
#JACKET:Stasis-jacket.png;
#CDIMAGE:;
#DISCIMAGE:;
#LYRICSPATH:;
#CDTITLE:;
#MUSIC:Stasis.mp3;
#OFFSET:0.200000;
#SAMPLESTART:108.973030;
#SAMPLELENGTH:15.000000;
#SELECTABLE:YES;
#BPMS:0.000=180.000;
#STOPS:;
#DELAYS:;
#WARPS:;
#TIMESIGNATURES:0.000=4=4;
#TICKCOUNTS:0.000=4;
#COMBOS:0.000=1;
#SPEEDS:0.000=1.000=0.000=0;
#SCROLLS:0.000=1.000;
#FAKES:;
#LABELS:0.000=Song Start;
#BGCHANGES:;
#KEYSOUNDS:;
#ATTACKS:
;

//---------------dance-single - ----------------
#NOTEDATA:;
#CHARTNAME:;
#STEPSTYPE:dance-single;
#DESCRIPTION:;
#CHARTSTYLE:;
#DIFFICULTY:Beginner;
#METER:2;
#RADARVALUES:0.185257,0.219076,0.064198,0.070618,0.000000,202.000000,192.000000,10.000000,11.000000,0.000000,0.000000,0.000000,0.000000,0.000000,0.185257,0.219076,0.064198,0.070618,0.000000,202.000000,192.000000,10.000000,11.000000,0.000000,0.000000,0.000000,0.000000,0.000000;
#CREDIT:;
#NOTES:
0000
0000
0000
0000
,
0000
0000
0000
0000
,
0000
0000
0000
0000
,
0000
0000
0000
0000
,
0000
0000
0000
0000
,
0000
0000
0000
0000
,
0001
0000
0000
0001
0000
0000
0000
0000
,
0000
1000
0000
0000
0000
1000
0000
0000
,
0010
0000
0000
0010
0000
0000
0000
0000
,
0200
0000
0000
0000
,
0310
0000
0010
0000
,
0010
0000
0010
0000
,
0010
0000
0010
0000
,
0010
0000
0010
0000
,
1000
0000
0001
0000
,
1000
0000
0001
0000
,
0100
0000
0010
0000
,
0100
0000
0000
0000
,
0001
0000
0001
0000
,
0001
0000
0001
0000
,
1000
0000
1000
0000
,
1000
0000
1000
0000
,
0010
0000
0010
0000
,
0010
0000
0010
0000
,
0100
0000
0100
0000
,
1001
0000
0000
0000
,
0001
0000
0001
0000
,
0001
0000
0001
0000
,
1000
0000
1000
0000
,
1000
0000
0010
0000
,
0100
0000
0100
0000
,
0100
0000
0100
0000
,
0001
0000
0001
0000
,
1001
0000
0000
0000
,
0001
0000
0100
0000
,
0010
0000
1000
0000
,
0001
0000
1000
0000
,
0010
0000
0100
0000
,
1000
0000
0100
0000
,
0010
0000
0001
0000
,
0010
0000
0100
0000
,
0010
0000
1000
0000
,
1001
0000
1000
0000
,
0100
0000
1000
0000
,
0001
0000
0100
0000
,
0010
0000
1000
0000
,
1000
0000
0100
0000
,
0010
0000
0001
0000
,
0010
0000
0100
0000
,
0001
0000
0100
0000
,
1001
0000
0000
0000
,
0000
0000
0000
0000
,
0000
0000
0000
0000
,
0000
0000
0000
0010
,
1000
0000
1000
0000
,
0001
0000
0001
0000
,
1000
0000
1000
0000
,
0001
0000
0001
0000
,
0100
0000
0100
0000
,
0100
0000
0100
0000
,
0010
0000
0010
0000
,
0010
0000
0010
0000
,
1000
0000
0001
0000
,
1000
0000
0001
0000
,
0010
0000
0100
0000
,
1001
0000
0000
0000
,
0001
0000
0001
0000
,
0001
0000
0001
0000
,
0001
0000
0001
0000
,
0001
0000
0001
0000
,
1001
0000
1000
0000
,
0001
0000
1000
0000
,
0001
0000
1000
0000
,
0110
0000
0000
0000
,
0001
0000
0100
0000
,
0001
0000
0100
0000
,
0001
0000
0100
0000
,
0001
0000
0100
0000
,
1001
0000
1000
0000
,
0010
0000
0100
0000
,
0001
0000
1000
0000
,
0110
0000
0000
0000
,
0001
0000
1000
0000
,
0001
0000
1000
0000
,
0020
0030
0100
0000
,
0010
0000
1000
0000
,
0100
0000
0010
0000
,
0001
0000
1000
0000
,
0002
0003
0100
0000
,
0010
0000
1000
0000
,
0001
0000
0010
0000
,
0100
0000
1000
0000
,
0002
0003
0100
0000
,
0010
0000
1001
0000
,
0100
0000
0010
0000
,
1000
0000
0100
0000
,
0020
0000
0000
0000
,
0032
0000
0000
0000
,
0103
0000
0100
0000
,
0010
0000
0010
0000
,
1000
0000
1000
0000
,
0001
0000
1000
0000
,
0001
0000
0001
0000
,
0010
0000
0010
0000
,
0001
0000
0001
0000
,
0100
0000
0010
0000
,
2000
0000
0000
0000
,
0000
0000
0000
0000
,
0000
0000
0000
0000
,
3020
0000
0000
0000
,
0230
0000
0000
0000
,
0302
0000
0000
0000
,
2003
0000
0000
0000
,
3001
0000
0000
0100
;

//---------------dance-single - ----------------
#NOTEDATA:;
#CHARTNAME:;
#STEPSTYPE:dance-single;
#DESCRIPTION:;
#CHARTSTYLE:;
#DIFFICULTY:Easy;
#METER:7;
#RADARVALUES:0.358592,0.402080,0.192594,0.077038,0.000000,391.000000,361.000000,30.000000,12.000000,0.000000,0.000000,0.000000,0.000000,0.000000,0.358592,0.402080,0.192594,0.077038,0.000000,391.000000,361.000000,30.000000,12.000000,0.000000,0.000000,0.000000,0.000000,0.000000;
#CREDIT:;
#NOTES:
0000
0000
0000
0000
,
0000
0000
0000
0000
,
0000
0000
0000
0000
,
0000
0000
0000
0000
,
0000
0000
0000
0000
,
0000
0000
0000
0000
,
1000
0000
0000
1000
0000
0000
0000
0000
,
0000
0010
0000
0010
0000
0010
0000
0000
,
0001
0000
0000
0001
0000
0000
0000
0000
,
0200
0000
0000
0000
,
0310
0010
0010
0010
,
0010
0010
0010
0010
,
0010
0010
0010
0010
,
0010
0010
0010
1001
,
0100
0010
1000
0100
,
0010
0001
0100
0001
,
1000
0010
0100
0001
,
1010
0000
0000
0000
,
0100
0010
0000
0010
,
0100
0000
0100
0010
,
1001
0100
0000
0100
,
0010
0000
0010
0100
,
1001
0010
0000
0100
,
0010
0000
0010
0100
,
1001
0100
0000
0010
,
0100
1000
0010
0100
,
0011
1000
0000
1000
,
0100
0000
0100
1000
,
0011
0100
0000
1000
,
0100
0000
0011
0000
,
1000
0100
0000
1000
,
0100
0000
0100
1000
,
0011
0100
0000
0100
,
1000
0010
0100
0001
,
1001
0010
0100
1000
,
0010
1000
0100
0010
,
0001
0100
0001
1000
,
0100
1000
0100
0010
,
1000
0010
0100
0001
,
0010
0100
1000
0001
,
0010
0100
0010
1000
,
0001
0010
0100
1000
,
0101
0100
0010
1000
,
0001
1000
0100
0010
,
0001
0100
0001
1000
,
0010
0100
0001
1000
,
0010
0100
0010
0001
,
1000
0010
0100
0001
,
0100
0010
0001
0010
,
0100
1000
0100
0010
,
1001
0000
0000
0000
,
0000
0000
0000
0000
,
0000
0000
0000
0000
,
0000
0000
0000
0110
,
0001
1000
0100
0010
,
0001
0010
0100
1000
,
0010
0100
0001
0100
,
0010
1000
0010
0100
,
0001
0010
0100
1000
,
0001
0010
0100
1000
,
0001
0100
0010
1000
,
0001
0100
0010
1001
,
1000
0010
0100
0001
,
0010
0100
1000
0010
,
0100
0001
0100
0010
,
1001
0000
0000
0000
,
1001
0100
0100
0100
,
0100
0100
0100
0100
,
0100
0100
0100
0100
,
0100
0100
0100
0100
,
1001
0010
0100
0010
,
0100
0010
0100
0010
,
0100
0010
0100
0010
,
1001
0000
0000
0000
,
1100
0010
0001
0010
,
0001
0010
0001
0010
,
0001
0010
0001
0010
,
0001
0010
0001
0010
,
1100
0010
0100
0001
,
0010
0100
0001
0100
,
1000
0010
0100
0001
,
1001
0000
0000
0110
0000
0000
0000
0000
,
0001
0100
0010
1000
,
0100
0010
0100
1000
,
1002
0103
0010
0100
,
0001
0010
0001
0010
,
1100
0010
0100
0001
,
1000
0100
0010
0100
,
2001
3010
0100
0010
,
1000
0100
0010
0001
,
1001
0100
0010
1000
,
0100
1000
0010
0100
,
0012
0103
1000
0010
,
0100
0001
1001
0000
,
0110
1000
0010
0100
,
0001
0010
0001
0100
,
2001
3001
0010
0100
,
1000
0100
0010
0001
,
1000
0010
1000
1000
,
0010
1000
0010
0010
,
0100
0001
0100
0100
,
0001
0100
0001
0001
,
0010
0100
0010
0010
,
0100
0010
0100
0100
,
0001
0100
0001
0001
,
0100
0001
0100
0100
,
0020
0000
0000
0000
,
0000
0000
0000
0000
,
0000
0000
0000
0000
,
2030
0000
3200
0000
,
0320
0000
0000
0000
,
0032
0000
2003
0000
,
3020
0000
0000
0000
,
0130
0000
0000
0000
0000
0000
1000
0001
;

//---------------dance-single - ----------------
#NOTEDATA:;
#CHARTNAME:;
#STEPSTYPE:dance-single;
#DESCRIPTION:;
#CHARTSTYLE:;
#DIFFICULTY:Medium;
#METER:12;
#RADARVALUES:0.519087,0.657950,0.269632,0.128396,0.006420,566.000000,524.000000,42.000000,20.000000,0.000000,0.000000,0.000000,0.000000,0.000000,0.519087,0.657950,0.269632,0.128396,0.006420,566.000000,524.000000,42.000000,20.000000,0.000000,0.000000,0.000000,0.000000,0.000000;
#CREDIT:;
#NOTES:
0000
0000
0000
0000
,
0000
0000
0000
0000
,
0000
0000
0000
0000
,
0000
0000
0000
0000
,
0000
0000
0000
0000
,
0000
0000
0000
0000
,
1001
0000
0000
1001
0000
0000
0000
0000
,
0000
0110
0000
0110
0000
0110
0000
0000
,
1001
0000
0000
1001
0000
0000
0000
0000
,
0120
0000
0000
0000
,
1030
0100
0010
0001
1000
0100
0010
0001
,
1000
0100
0010
0001
1000
0100
0010
0001
,
1000
0100
0010
0001
1000
0100
0010
0001
,
1000
0100
0010
0001
1000
0100
0020
0000
,
0031
0100
0010
1000
0001
0100
0010
1000
,
0100
0010
0001
0100
0010
0100
1000
0100
,
0001
0010
0100
1000
0100
0010
0001
1000
,
0110
0000
0000
0000
,
0002
0103
0000
0100
,
0001
0000
0000
0001
0100
0001
0100
0000
,
0020
1030
0000
1000
,
0010
0000
0000
1000
0010
1000
0010
0000
,
0200
0301
0000
0100
,
0001
0000
0000
0100
0001
0100
0001
0000
,
0020
0130
0000
0010
,
0100
1000
0100
1000
0010
0100
0010
0100
,
0002
1003
0000
1000
,
0001
0000
0000
0001
1000
0001
1000
0000
,
0020
0130
0000
0010
,
0100
0000
0000
0000
0000
0000
0100
0000
0010
0000
0000
0100
0000
0000
0010
0000
,
2000
3001
0000
0001
,
1000
0000
0000
1000
0001
1000
0001
0000
,
0200
0310
0000
0010
,
0100
0001
0010
0000
0100
1000
0010
0000
,
0101
0000
0010
0100
0000
1000
0000
0100
,
0000
0010
0000
0001
0010
0000
0100
0000
,
1000
0000
0001
0100
0000
0010
0000
0100
,
0000
0001
0000
1000
0100
0000
0010
0001
,
0000
0010
0100
0001
0000
0000
1000
0001
,
0000
0100
0000
0010
1000
0000
0100
1000
,
0000
0100
0000
0010
0000
0100
0000
0001
,
0000
1000
0000
0100
0010
0000
0100
0000
,
1001
0000
0100
0001
0000
0010
0000
0001
,
0000
1000
0000
0001
0010
0000
0100
0000
,
1000
0000
0010
0100
0000
0010
0000
1000
,
0000
0100
0000
0010
0100
0000
1000
0001
,
0000
0010
0100
0010
0000
0000
1000
0001
,
0000
0010
0000
0100
1000
0000
0010
0100
,
0000
1000
0000
0100
0000
0010
0000
0001
,
0000
0010
0000
0100
1000
0000
0001
0000
,
0110
0000
0000
0000
,
0000
0000
0000
0000
,
0000
0000
0000
0000
,
0000
0000
0000
1001
,
0010
0100
0010
1000
0100
0010
0100
0010
,
0001
0100
0010
1000
0100
0010
0100
1000
,
0010
0100
0001
1000
0001
0010
0100
1000
,
0010
1000
0010
0100
0001
0100
0001
0010
,
1100
1010
1001
0101
,
0011
0110
1100
1010
,
0110
0101
0011
0110
,
1100
1010
1001
0110
,
0001
0010
0001
0010
0100
1000
0100
1000
,
0010
0100
0010
0100
0001
1000
0001
1000
,
0100
0010
0001
0100
0010
1000
0100
0010
,
0001
0000
0000
0000
,
1010
0010
0010
0010
,
0010
0010
0010
0010
,
0010
0010
0010
0010
,
0010
0010
0010
0010
,
1010
0000
1000
0100
0010
0100
1000
0100
,
0010
0100
1000
0100
0010
0100
1000
0100
,
0010
0100
1000
0100
0010
0100
1000
0100
,
0010
0001
0100
0010
,
1100
0000
0001
0100
0010
0100
0001
0100
,
0010
0100
0001
0100
0010
0100
0001
0100
,
0010
0100
0001
0100
0010
0100
0001
0100
,
0010
0100
0001
0100
0010
0100
0001
0100
,
0010
0000
1000
0100
0010
0001
0100
0010
,
1000
0100
0010
0001
0100
0010
1000
0100
,
0010
0001
0100
0010
1000
0100
0010
0000
,
1001
0000
0000
0110
0000
0000
0000
0000
,
0001
0000
1000
0100
0000
0110
0000
1000
,
0000
0010
0000
0100
0001
0000
1000
0000
,
0012
0000
0103
1000
0000
0010
0000
0100
,
0000
0001
0000
0100
1000
0000
0100
0000
,
1001
0000
0010
0100
0000
1000
0010
0100
,
0000
0001
0000
0100
0010
0000
0100
0000
,
2001
0000
3010
0010
0000
0100
0000
0001
,
1000
0100
0010
0001
0010
0001
0100
0010
,
1001
0000
0100
0010
0000
1000
0000
0100
,
0000
0001
0000
0010
0001
0000
0010
0000
,
2100
0000
3010
0100
0000
0001
0000
0100
,
0000
0000
0010
0000
0000
0000
1000
0000
0100
0000
0000
0100
0000
0000
0010
0000
,
0001
0000
0100
0010
0000
0100
0010
1000
,
0000
0001
0000
0100
0010
0000
1000
0000
,
0011
0100
1000
0010
,
0100
0001
0010
0100
,
1001
0001
0100
0010
0000
1000
0000
0010
,
1000
0100
0010
0100
0000
1000
0001
0001
,
0100
0010
1000
0100
0000
0100
0010
0000
,
0001
0100
0010
1000
0100
0010
0001
0000
,
0100
0010
0010
1000
0000
0100
0010
0000
,
0100
1000
0010
0010
0100
0001
0010
0100
,
1000
1000
0010
0100
0000
0010
1000
0100
,
0010
0010
0001
0100
0010
1000
0100
0000
,
0002
0000
0000
0000
,
0000
0000
0000
0000
,
0000
0000
0000
0000
,
0203
0000
0320
0000
,
2030
0000
0000
0000
,
3200
0000
0320
0000
,
0032
0000
0000
0000
,
0003
1000
0001
1000
0000
0010
0100
0001
;

//---------------dance-single - ----------------
#NOTEDATA:;
#CHARTNAME:;
#STEPSTYPE:dance-single;
#DESCRIPTION:;
#CHARTSTYLE:;
#DIFFICULTY:Hard;
#METER:17;
#RADARVALUES:0.796973,1.206241,0.725438,0.231113,0.510374,869.000000,756.000000,113.000000,36.000000,0.000000,0.000000,0.000000,0.000000,0.000000,0.796973,1.206241,0.725438,0.231113,0.510374,869.000000,756.000000,113.000000,36.000000,0.000000,0.000000,0.000000,0.000000,0.000000;
#CREDIT:;
#NOTES:
0000
0000
0000
0000
,
0000
0000
0000
0000
,
0000
0000
0000
0000
,
0000
0000
0000
0000
,
0000
0000
0000
0000
,
0000
0000
0000
0000
,
1001
0000
0000
1001
0000
0000
0000
0000
,
0000
0110
0000
0110
0000
0110
0000
0000
,
1001
0000
0000
1001
0000
0000
0000
0000
,
0220
0000
0000
0300
,
1030
1000
0100
0100
0010
0010
0001
0001
,
1000
1000
0100
0100
0010
0010
0001
0001
,
1000
1000
0100
0100
0010
0010
0001
0001
,
1000
1000
0100
0100
0010
0010
1001
0000
,
0100
1000
0010
0100
0001
0010
1000
0010
,
0001
0100
0010
1000
0100
0010
0001
0100
,
0010
0100
0010
0100
0001
0010
0001
0010
0100
1000
0010
0100
0010
0100
0001
0010
,
0100
0000
0100
0000
1000
0000
0010
0100
0001
0000
0001
0000
0100
0000
0000
0000
,
2001
0010
0000
0010
,
0010
0000
0000
0010
0010
0010
0010
3000
,
2002
3000
0100
0000
0000
0000
0100
0000
,
0100
0000
0000
0100
0100
0100
0100
0013
,
2002
0003
0010
0000
0000
0000
0010
0000
,
0010
0000
0000
0010
0010
0010
0010
3000
,
2002
3000
0100
0000
0000
0000
0100
0000
,
0103
0010
1000
0001
0010
0100
1000
0010
,
0201
0010
0000
0010
,
0010
0000
0000
0010
0010
0010
0010
0300
,
2020
3000
0100
0000
0000
0000
0100
0000
,
0100
0000
0000
0000
0000
0000
0130
0000
0110
0000
0000
1010
0000
0000
0101
0000
,
1002
0100
0000
0100
,
0100
0000
0000
0100
0100
0100
0100
0003
,
2020
0030
0010
0000
0000
0000
3010
0000
,
0110
0000
0010
1000
0100
0010
0001
0000
,
1001
0000
0100
0010
1001
0000
0010
0000
,
0001
0100
0010
0000
1001
0000
0010
0000
,
0100
0000
1000
0100
0011
0000
0100
0000
,
0010
0000
1000
0100
1001
0000
0010
0110
,
0000
1000
0000
0010
0101
0000
0001
0000
,
0100
0000
0010
1000
0101
0000
0010
1001
,
0000
0001
0000
1000
0011
0000
0100
0000
,
1000
0010
0101
1000
,
1001
0000
0010
0100
1001
0000
0100
0000
,
1000
0010
0100
0000
1001
0000
0100
0000
,
0010
0000
0001
0010
1100
0000
0010
0000
,
0100
0000
0001
0010
1001
0000
0100
0110
,
0000
0001
0000
0100
1010
0000
1000
0000
,
0010
0000
0100
0001
1010
0000
0100
1001
,
0000
0001
0010
0100
1000
0010
0100
0001
,
0000
0100
0010
1000
0100
0010
0100
0000
,
1001
0000
0000
0000
,
0000
0000
0000
0000
,
0000
0000
0000
0000
,
0000
0000
0000
0110
,
0001
0010
0001
0010
0100
1000
0010
0100
,
0001
0010
0100
1000
0100
0010
0001
0010
,
0100
1000
0010
0100
0001
1000
0100
0010
,
0001
1000
0001
0100
0010
0100
0001
1000
,
1100
0110
0011
0110
,
1100
0110
0011
0110
,
1001
0110
1001
0110
,
0011
1100
0011
1001
,
0001
1000
0001
1000
0010
0100
0010
0100
,
0001
0010
0001
0010
0100
1000
0100
1000
,
0010
0100
0010
0100
0001
0010
0100
0010
0100
1000
0010
0100
0001
0010
0100
1000
,
0010
0000
0000
0000
,
1001
0000
0000
0000
0001
0100
0010
0100
0001
0100
0010
0100
0001
0100
0010
0100
,
0001
0100
0010
0100
0001
0100
0010
0100
0001
0100
0010
0100
0001
0100
0010
0100
,
0001
0100
0010
0100
0001
0100
0010
0100
0001
0100
0010
0100
0001
0100
0010
0100
,
0001
0100
0010
0100
0001
0100
0010
0100
0001
0100
0010
0100
0001
0100
0010
0000
,
1001
0000
0000
0000
0001
0010
0100
1000
0100
0010
0001
0010
0100
1000
0100
0010
,
0001
0010
0100
1000
0100
0010
0001
0010
0100
1000
0100
0010
0001
0010
0100
1000
,
0100
0010
0001
0010
0100
1000
0100
0010
0001
0010
0100
1000
0100
0010
0001
0010
,
0100
0100
0010
0001
1000
0010
0100
0001
,
1001
0000
0000
0000
0001
0100
0010
1000
0010
0100
0001
0100
0010
1000
0010
0100
,
0001
0100
0010
1000
0010
0100
0001
0100
0010
1000
0010
0100
0001
0100
0010
1000
,
0010
0100
0001
0100
0010
1000
0010
0100
0001
0100
0010
1000
0010
0100
0001
0100
,
0010
1000
0010
0100
0001
0100
0010
1000
0010
0100
0001
0100
0010
1000
0001
0000
,
1001
0000
0000
0000
1000
0100
0010
0001
0100
0010
1000
0100
0010
0001
0100
0010
,
1000
0100
0010
0001
0100
0010
1000
0100
0010
0001
0100
0010
1000
0100
0010
0001
,
0100
0010
1000
0100
0010
0001
0100
0010
1000
0100
0010
0001
0100
0000
0000
0000
,
1001
0000
1000
0110
0001
0010
0100
0000
,
1001
0010
0100
0101
0000
0011
0100
1100
,
0000
0101
0000
0010
0110
0000
1001
0100
,
0220
0330
0001
1001
0000
0101
0010
1010
,
0000
1100
0000
0010
0110
0000
1001
0100
,
0110
0000
0001
0101
0000
1010
1000
1100
,
0000
0101
0001
1000
1001
0000
0110
0000
,
2002
3003
0010
0110
0000
0011
0000
1010
,
0001
0010
0100
0010
0001
1000
0010
0100
0001
0010
0100
1000
0100
0010
0100
1000
,
0001
0000
0010
0110
0000
1010
0100
0101
,
0000
0011
0000
0100
1100
0000
0101
0010
,
2020
3030
0100
0110
0000
0011
1000
1100
,
0000
0000
0101
0000
0000
0000
0010
0000
0110
0000
0000
1001
0000
0000
0110
0000
,
1001
0000
0100
0110
0000
0011
0001
1001
,
0000
0110
0000
1000
1100
0000
0110
0010
,
2002
3003
0001
0002
0000
1000
2003
0010
,
3200
0010
0000
0010
0320
0001
0001
0030
,
1001
0000
0001
0000
1000
0000
0010
1000
0001
1000
0010
0000
0100
0001
0010
0001
,
1000
0000
1000
0000
0001
0000
0010
0001
0100
0001
0010
0000
0100
1000
0001
1000
,
0001
0000
0001
0000
0100
0000
0010
1000
0001
1000
0010
0000
0100
0001
0100
0001
,
1000
0000
0010
1000
0010
1000
0001
0000
0100
0010
1000
0100
0020
0000
0000
0000
,
0031
0000
0001
0000
1000
0000
0010
0100
0001
0100
0010
0000
1000
0001
1000
0010
,
0100
0000
0100
0000
0010
0000
1000
0100
0010
0001
0100
0000
0010
0100
0001
0010
,
0100
0000
0100
0000
1000
0000
0001
0100
0010
1000
0100
0000
0010
0001
0100
0010
,
1000
0000
0001
1000
0001
0100
0010
0000
1000
0001
1000
0010
0200
0000
0000
0000
,
0320
0000
0000
0000
,
0000
0000
0000
0000
,
0000
0000
0000
0000
,
2030
0000
3200
0000
,
0320
0001
0001
0100
0000
1000
0000
0100
,
0032
1000
0000
1000
0203
0010
0000
0010
,
0320
1000
0000
0001
0000
1000
0000
0001
,
1030
0100
1000
0010
0000
0100
0001
0010
;

//---------------dance-double - ----------------
#NOTEDATA:;
#CHARTNAME:;
#STEPSTYPE:dance-double;
#DESCRIPTION:;
#CHARTSTYLE:;
#DIFFICULTY:Easy;
#METER:7;
#RADARVALUES:0.331996,0.365528,0.141236,0.006420,0.000000,362.000000,340.000000,22.000000,1.000000,0.000000,0.000000,0.000000,0.000000,0.000000,0.331996,0.365528,0.141236,0.006420,0.000000,362.000000,340.000000,22.000000,1.000000,0.000000,0.000000,0.000000,0.000000,0.000000;
#CREDIT:;
#NOTES:
00000000
00000000
00000000
00000000
,
00000000
00000000
00000000
00000000
,
00000000
00000000
00000000
00000000
,
00000000
00000000
00000000
00000000
,
00000000
00000000
00000000
00000000
,
00000000
00000000
00000000
00000000
,
00010000
00000000
00000000
00010000
00000000
00000000
00000000
00000000
,
00000000
00001000
00000000
00001000
00000000
00001000
00000000
00000000
,
00010000
00000000
00000000
00010000
00000000
00000000
00000000
00000000
,
00002000
00000000
00000000
00000000
,
00013000
00010000
00001000
00001000
,
00100000
00100000
00010000
00010000
,
10000000
10000000
01000000
01000000
,
00100000
00100000
00010000
10010000
,
10000000
00100000
01000000
00010000
,
00100000
00001000
00010000
00000100
,
00001000
00000010
00000100
00000001
,
00000010
00000000
00000000
00000000
,
00000001
00000100
00000000
00000100
,
00000001
00000000
00000001
00000100
,
00000010
00001000
00000000
00001000
,
00000100
00000000
00000100
00001000
,
00010000
00100000
00000000
00100000
,
00001000
00000000
00001000
00100000
,
01000000
10000000
00000000
10000000
,
00100000
00010000
00001000
00010000
,
00000100
00000010
00000000
00000010
,
00000100
00000000
00000100
00000010
,
00000001
00000100
00000000
00000100
,
00000010
00000000
00001001
00000000
,
00000100
00001000
00000000
00001000
,
00000100
00000000
00000100
00010000
,
00001000
00100000
00000000
00100000
,
01000000
10000000
00100000
01000000
,
10010000
00000000
00100000
00000000
,
00010000
10000000
01000000
00000000
,
01010000
00000000
00100000
00000000
,
00010000
00100000
00010000
00000000
,
00011000
00000000
00010000
00000000
,
00001000
00010000
00001000
00000000
,
00001100
00000000
00000010
00000000
,
00000001
00000100
00000010
00000000
,
00000101
00000000
00000010
00000000
,
00000100
00010000
00001000
00000000
,
00110000
00000000
01000000
00000000
,
00100000
10000000
00010000
00000000
,
01100000
00000000
00100000
00000000
,
10000000
00010000
00100000
00010000
,
00000000
01000000
00000000
00100000
,
00000000
01000000
01000000
00000000
,
10010000
00000000
00000000
00000000
,
00000000
00000000
00000000
00000000
,
00000000
00000000
00000000
00000000
,
00000000
00000000
00000000
10010000
,
10000000
01000000
00100000
00010000
,
00010000
01000000
00100000
00010000
,
00001000
00010000
00000100
00000100
,
00000010
00000001
00000010
00000001
,
00000100
00000100
00000010
00000010
,
00001000
00001000
00000100
00000100
,
00010000
00010000
00001000
00001000
,
00100000
00100000
01000000
01100000
,
10000000
10000000
00100000
00100000
,
00010000
00010000
00001000
00001000
,
00010000
00000100
00000010
00000001
,
00001001
00000000
00000000
00000000
,
00000001
00000100
00000100
00000100
,
00000100
00000100
00000100
00000100
,
00000100
00000100
00000100
00000100
,
00000100
00000100
00000100
00000100
,
00000010
00010000
00001000
00010000
,
00001000
00010000
00001000
00010000
,
00001000
00010000
00001000
00010000
,
00011000
00000000
00000000
00010000
,
10000000
00100000
00100000
00100000
,
00100000
00100000
00100000
00100000
,
00100000
00100000
00100000
00100000
,
00100000
00100000
00100000
00100000
,
10000000
01000000
00100000
00010000
,
00100000
01000000
10000000
01000000
,
10000000
00010000
00100000
01000000
,
10010000
00000000
00000000
00000000
,
00100000
01000000
00000000
01000000
,
00000000
00010000
00100000
00010000
,
00011000
00000000
00000100
00010000
,
00000000
00010000
00000100
00000010
,
00000001
00000100
00000000
00000001
,
00000000
00000001
00000010
00000100
,
00010100
00000010
00000000
00000100
,
00001000
00010000
01000000
00100000
,
10000000
00010000
00000000
00010000
,
01000000
00100000
10000000
01000000
,
10100000
00010000
00000000
01000000
,
00000000
00001000
00011000
00000000
,
00001100
00000001
00000000
00000010
,
00000000
00000100
00001000
00000010
,
00010000
00001000
00010000
00001000
,
00100000
01000000
10000000
00010000
,
01000000
00000000
00100000
00000000
01000000
00100000
00000000
00000000
,
00010000
00000000
00001000
00000000
00010000
00001000
00000000
00000000
,
00100000
00000000
00010000
00000000
00000000
00010000
00000000
00000000
,
10000000
00000000
00000000
10000000
00000000
00000000
10010000
00000000
,
00100000
00000000
01000000
00000000
00010000
01000000
00000000
00000000
,
00001000
00000000
00010000
00000000
00001000
00010000
00000000
00000000
,
00000100
00000000
00010000
00000000
00000000
00001000
00000000
00000000
,
00010000
00000000
00000000
00000100
00000000
00000000
00001010
00000000
,
00000001
00000000
00000010
00000000
00000000
00000001
00000000
00000000
,
00000100
00000000
00001000
00000000
00000000
00010000
00000000
00000000
,
00001000
00000000
00010000
00000000
00000000
00100000
00000000
00000000
,
10000000
01000000
10000000
10000000
,
00010000
00000000
01000000
00100000
00000000
00100000
00000000
00010000
,
00000000
00001000
00000000
00010000
00000000
00000100
00000000
00000100
,
00000000
00000000
00000000
00010000
00000000
00010000
00000000
00010000
,
00000000
00000010
00000000
00000100
00000000
00000010
00000000
00000010
;

//---------------dance-double - ----------------
#NOTEDATA:;
#CHARTNAME:;
#STEPSTYPE:dance-double;
#DESCRIPTION:;
#CHARTSTYLE:;
#DIFFICULTY:Medium;
#METER:12;
#RADARVALUES:0.514501,0.657950,0.237533,0.154075,0.006420,561.000000,524.000000,37.000000,24.000000,0.000000,0.000000,0.000000,0.000000,0.000000,0.514501,0.657950,0.237533,0.154075,0.006420,561.000000,524.000000,37.000000,24.000000,0.000000,0.000000,0.000000,0.000000,0.000000;
#CREDIT:;
#OFFSET:0.200000;
#BPMS:0.000000=180.000000
;
#STOPS:;
#DELAYS:;
#WARPS:;
#TIMESIGNATURES:0.000000=4=4
;
#TICKCOUNTS:0.000000=4
;
#COMBOS:0.000000=1
;
#SPEEDS:0.000000=1.000000=0.000000=0
;
#SCROLLS:0.000000=1.000000
;
#FAKES:;
#LABELS:0.000000=Song Start
;
#NOTES:
// measure 0
00000000
00000000
00000000
00000000
,  // measure 1
00000000
00000000
00000000
00000000
,  // measure 2
00000000
00000000
00000000
00000000
,  // measure 3
00000000
00000000
00000000
00000000
,  // measure 4
00000000
00000000
00000000
00000000
,  // measure 5
00000000
00000000
00000000
00000000
,  // measure 6
00011000
00000000
00000000
00011000
00000000
00000000
00000000
00000000
,  // measure 7
00000000
00001000
00000000
00010000
00000000
00011000
00000000
00000000
,  // measure 8
00011000
00000000
00000000
00011000
00000000
00000000
00000000
00000000
,  // measure 9
00012000
00000000
00000000
00000000
,  // measure 10
00013000
00001000
00100000
00001000
00010000
00001000
00100000
00001000
,  // measure 11
00010000
00001000
00100000
00001000
00010000
00001000
00100000
00001000
,  // measure 12
00010000
00000100
00010000
00001000
00010000
00000100
00010000
00001000
,  // measure 13
00100000
00001000
00010000
00001000
00100000
00001000
00011000
00000000
,  // measure 14
00000100
00001000
00000100
00000010
00000001
00000010
00000001
00000010
,  // measure 15
00000100
00001000
00000100
00001000
00010000
00100000
00010000
00100000
,  // measure 16
00001000
00010000
00100000
01000000
00100000
01000000
00010000
00100000
,  // measure 17
01000000
00000000
00000000
00000000
,  // measure 18
10020000
01030000
00000000
01000000
,  // measure 19
00100000
00000000
00000000
01000000
00100000
01000000
00100000
00000000
,  // measure 20
02001000
03001000
00000000
00010000
,  // measure 21
00001000
00000000
00000000
00010000
00001000
00010000
00001000
00000000
,  // measure 22
00000012
00000013
00000000
00000001
,  // measure 23
00000010
00000000
00000000
00000001
00000010
00000001
00000010
00000000
,  // measure 24
00001020
00001030
00000000
00000010
,  // measure 25
00001000
00000100
00000010
00000100
00010000
00001000
00010000
00001000
,  // measure 26
00200000
01300000
00000000
01000000
,  // measure 27
00100000
00000000
00000000
00100000
00010000
00100000
00010000
00000000
,  // measure 28
12000000
13000000
00000000
10000000
,  // measure 29
00100000
00000000
00000000
00000000
00000000
00000000
00100000
00000000
01000000
00000000
00000000
01000000
00000000
00000000
01000000
00000000
,  // measure 30
00002000
00013000
00000000
00010000
,  // measure 31
00001000
00000000
00000000
00001000
00010000
00001000
00010000
00000000
,  // measure 32
00002010
00003010
00000000
00000001
,  // measure 33
00000001
00000010
00000100
00001000
00000010
00000100
00001000
00000000
,  // measure 34
00010100
00001000
00010000
00100000
,  // measure 35
01000000
10000000
01000000
00100000
,  // measure 36
00011000
00000100
00000010
00000001
,  // measure 37
00000010
00000000
00000100
00000000
00010000
00000000
00001000
00010000
,  // measure 38
00000000
00100000
10000000
01000000
,  // measure 39
00010000
00000000
00001000
00000000
00010000
00000000
00000100
00000010
,  // measure 40
00000000
00000001
00000100
00001000
,  // measure 41
00010000
00001000
00101000
00000000
,  // measure 42
11000000
10000000
00100000
10000000
,  // measure 43
01000000
00010000
00001000
00000100
,  // measure 44
00000001
00000010
00000001
00001000
,  // measure 45
00000100
00000000
00000010
00000000
00000100
00000000
00010000
00001000
,  // measure 46
00000000
00010000
01000000
10000000
,  // measure 47
01000000
00000000
00010000
00000000
00001000
00000000
00010000
00000100
,  // measure 48
00000000
00000010
00000000
00001000
00000000
00010000
00000000
00100000
,  // measure 49
00000000
00000000
01000000
00000000
00010000
00010000
10000000
00000000
,  // measure 50
10010000
00000000
00000000
00000000
,  // measure 51
00000000
00000000
00000000
00000000
,  // measure 52
00000000
00000000
00000000
00000000
,  // measure 53
00000000
00000000
00000000
10010000
,  // measure 54
10000000
00100000
10000000
00100000
01000000
00010000
01000000
00000000
,  // measure 55
00001000
00010000
00001000
00010000
00000100
00010000
00000100
00000000
,  // measure 56
00000010
00000001
00000010
00000100
,  // measure 57
00010000
00001000
00010000
00000000
00101000
00000000
00010100
00000000
,  // measure 58
00000010
00000001
00000100
00001000
,  // measure 59
00010000
00100000
10000000
00100000
,  // measure 60
00010000
00001000
00000100
00000001
,  // measure 61
00000010
00000100
00010000
00011000
,  // measure 62
00100000
00010000
00100000
00010000
10000000
00100000
10000000
00100000
,  // measure 63
01000000
00010000
01000000
00010000
00100000
00001000
00100000
00001000
,  // measure 64
00010000
00000100
00001000
00000010
00000100
00000001
00000010
00000100
,  // measure 65
00010000
00000000
00000000
00000000
,  // measure 66
00011000
00000000
00100000
00010000
01000000
00010000
00100000
00010000
,  // measure 67
01000000
00010000
00100000
00010000
01000000
00010000
00100000
00010000
,  // measure 68
01000000
00010000
00100000
00010000
01000000
00010000
00100000
00010000
,  // measure 69
01000000
00010000
00100000
00010000
01000000
00010000
00100000
00010000
,  // measure 70
01000000
00000000
00001000
00100000
00001000
00010000
00000100
00010000
,  // measure 71
00001000
00100000
00001000
00010000
00000100
00010000
00001000
00100000
,  // measure 72
00001000
00010000
00000100
00010000
00001000
00100000
00001000
00010000
,  // measure 73
00000100
00001000
00000001
00000010
,  // measure 74
00001100
00000000
00000001
00001000
00000100
00001000
00000001
00001000
,  // measure 75
00000100
00001000
00000001
00001000
00000100
00001000
00000001
00001000
,  // measure 76
00000010
00001000
00000001
00001000
00000010
00001000
00000001
00001000
,  // measure 77
00000010
00001000
00000001
00001000
00000010
00001000
00000001
00001000
,  // measure 78
00000100
00000000
00000001
00000010
00000100
00001000
00010000
00100000
,  // measure 79
01000000
10000000
01000000
00100000
00010000
00100000
01000000
10000000
,  // measure 80
01000000
00100000
00010000
00001000
00000100
00000010
00000001
00000000
,  // measure 81
00001001
00000000
00000000
00000110
00000000
00000000
00000000
00000000
,  // measure 82
00002001
00000000
00003001
00000100
00000000
00000010
00000000
00000100
,  // measure 83
00000000
00000010
00000000
00001000
00000100
00000000
00000010
00000000
,  // measure 84
00020100
00000000
00031000
00010000
00000000
00010000
00000000
00100000
,  // measure 85
00000000
10000000
00000000
01000000
00100000
00000000
01000000
00000000
,  // measure 86
01020000
00000000
00130000
00010000
00000000
00010000
10000000
10000000
,  // measure 87
00000000
01000000
00000000
10000000
00100000
00000000
01000000
00000000
,  // measure 88
00021000
00000000
00030100
00010000
00000000
00010000
00000000
00001000
,  // measure 89
00010000
00000100
00001000
00000010
00000100
00000001
00000010
00000100
,  // measure 90
00020000
00000000
00031000
00010000
00000000
00001000
00000000
00010000
,  // measure 91
00000000
00100000
00000000
01000000
10000000
00000000
00100000
00000000
,  // measure 92
10020000
00000000
10030000
01000000
00000000
00010000
00000000
00001000
,  // measure 93
00000000
00000000
00010000
00000000
00000000
00000000
00000000
00000000
00010100
00000000
00000000
00001100
00000000
00000000
00000110
00000000
,  // measure 94
00000200
00000000
00001300
00000100
00000000
00010000
00000100
00010000
,  // measure 95
00000000
00001000
00000000
00010000
00001000
00000000
00100000
00000000
,  // measure 96
12000000
00000000
13000000
01000000
00000000
00010000
00000000
00001000
,  // measure 97
00000000
00010000
00000000
00000000
00000100
00001000
00000100
00000000
,  // measure 98
00000010
00000001
00000001
00000010
00000100
00001000
00000000
00000000
,  // measure 99
00000100
00010000
00010000
00001000
00010000
00001000
00000000
00000000
,  // measure 100
00100000
00010000
00010000
00001000
00010000
00010000
01000000
00100000
,  // measure 101
00100000
10000000
01000000
01000000
00100000
00010000
10010000
00000000
,  // measure 102
10000000
00000000
00100000
01000000
01000000
00010000
00000000
00000000
,  // measure 103
10000000
00000000
00010000
00100000
00100000
01000000
00000000
00000000
,  // measure 104
10000000
00000000
00010000
00010000
00100000
00010000
00010000
00001000
,  // measure 105
00010000
00010000
01000000
00001000
00001000
00010000
00010100
00000000
,  // measure 106
00000020
00000000
00000000
00000000
,  // measure 107
00000000
00000000
00000000
00000000
,  // measure 108
00000000
00000000
00000000
00000000
,  // measure 109
00000230
00000000
00020300
00000000
,  // measure 110
00032000
00100000
00000000
00100000
,  // measure 111
02003000
00100000
00000000
00100000
,  // measure 112
03002000
00010000
00203000
01000000
,  // measure 113
00300000
00010000
10000000
00010000
00000000
01000000
00100000
01000000
;

//---------------dance-double - ----------------
#NOTEDATA:;
#CHARTNAME:;
#STEPSTYPE:dance-double;
#DESCRIPTION:;
#CHARTSTYLE:;
#DIFFICULTY:Hard;
#METER:17;
#RADARVALUES:0.759371,1.206241,0.513584,0.301731,0.510374,828.000000,748.000000,80.000000,47.000000,0.000000,0.000000,0.000000,0.000000,0.000000,0.759371,1.206241,0.513584,0.301731,0.510374,828.000000,748.000000,80.000000,47.000000,0.000000,0.000000,0.000000,0.000000,0.000000;
#CREDIT:;
#NOTES:
// measure 0
00000000
00000000
00000000
00000000
,  // measure 1
00000000
00000000
00000000
00000000
,  // measure 2
00000000
00000000
00000000
00000000
,  // measure 3
00000000
00000000
00000000
00000000
,  // measure 4
00000000
00000000
00000000
00000000
,  // measure 5
00000000
00000000
00000000
00000000
,  // measure 6
00011000
00000000
00000000
00011000
00000000
00000000
00000000
00000000
,  // measure 7
00000000
00110000
00000000
00011000
00000000
00001100
00000000
00000000
,  // measure 8
00011000
00000000
00000000
00011000
00000000
00000000
00000000
00000000
,  // measure 9
00202000
00000000
00000000
00003000
,  // measure 10
00301000
00001000
01000000
01000000
00010000
00010000
10000000
10000000
,  // measure 11
00100000
00100000
01000000
01000000
00010000
00010000
00001000
00001000
,  // measure 12
00000010
00000010
00000100
00000100
00000001
00000001
00000010
00000010
,  // measure 13
00001000
00001000
00010000
00010000
00100000
00100000
10010000
00000000
,  // measure 14
10000000
10000000
01000000
00010000
00001000
00000100
00000001
00000010
,  // measure 15
00000100
00000100
00001000
00010000
01000000
10000000
01000000
00010000
,  // measure 16
00100000
00001000
00100000
00001000
00100000
00001000
00100000
00001000
00010000
00000100
00010000
00000100
00010000
00000100
00010000
00000100
,  // measure 17
00000010
00000000
00000000
00000000
,  // measure 18
00002002
00000003
00000100
00000000
00000000
00000000
00000100
00000000
,  // measure 19
00000010
00000000
00000000
00000010
00000100
00000100
00003100
00000000
,  // measure 20
00002002
00003000
00000010
00000000
00000000
00000000
00000010
00000000
,  // measure 21
00000100
00000000
00000000
00000100
00000010
00000010
00000103
00000010
,  // measure 22
00020200
00030000
00001000
00000000
00000000
00000000
00001000
00000000
,  // measure 23
00010000
00000000
00000000
00010000
00001000
00001000
00001300
00000000
,  // measure 24
00220000
00300000
01000000
00000000
00000000
00000000
01000000
00000000
,  // measure 25
10030000
00100000
00010000
00001000
00000100
00000010
00000100
00000001
,  // measure 26
00000022
00000003
00000001
00000000
00000000
00000000
00000001
00000000
,  // measure 27
00000100
00000000
00000000
00000100
00000001
00000001
00000031
00000000
,  // measure 28
00002200
00003000
00010000
00000000
00000000
00000000
00001000
00000000
,  // measure 29
00010000
00000000
00000000
00000000
00000000
00000000
00010300
00000000
00001100
00000000
00000000
00011000
00000000
00000000
01010000
00000000
,  // measure 30
20020000
00030000
01000000
00000000
00000000
00000000
01000000
00000000
,  // measure 31
00100000
00000000
00000000
00100000
01000000
01000000
31000000
00000000
,  // measure 32
00220000
00300000
01000000
00000000
00000000
00000000
01030000
00000000
,  // measure 33
10010000
00000000
00100000
10000000
01000000
00010000
01000000
00000000
,  // measure 34
10100000
00000000
10000000
01000000
00100000
00000000
00010000
00000000
,  // measure 35
00001000
00000000
00000100
00010000
00001000
00000000
00000100
00000000
,  // measure 36
00000011
00000000
00000010
00000100
00001000
00000000
00010000
00000000
,  // measure 37
00000100
00000000
00001000
00010000
01000000
00000000
00100000
10100000
,  // measure 38
00000000
10000000
00000000
01000000
00000000
00100000
00000000
00001000
,  // measure 39
00000000
00000100
00000000
00000001
00000010
00000000
00000100
00011000
,  // measure 40
00000000
01000000
00000000
00100000
00000000
10000000
00000000
01000000
,  // measure 41
00000000
00000000
00010000
00000000
00000100
00001000
00010000
00000000
,  // measure 42
00101000
00000000
00000100
00001000
00000010
00000000
00000100
00000000
,  // measure 43
00000001
00000010
00000100
00010000
,  // measure 44
00101000
00000000
00010000
10000000
01000000
00000000
00010000
00000000
,  // measure 45
00100000
00000000
00010000
00000000
00001000
00000000
00010000
00010100
,  // measure 46
00000000
00000010
00000100
00000000
00000001
00000000
00000010
00000000
,  // measure 47
00000100
00000000
00001000
00000000
00010000
00000000
01000000
00011000
,  // measure 48
00000000
00100000
00000000
00000100
00000000
01000000
00000000
00000010
,  // measure 49
00000000
00010000
00000000
00000000
00000100
00001000
00010000
00000000
,  // measure 50
00011000
00000000
00000000
00000000
,  // measure 51
00000000
00000000
00000000
00000000
,  // measure 52
00000000
00000000
00000000
00000000
,  // measure 53
00000000
00000000
00000000
00011000
,  // measure 54
00000100
00010000
00000100
00010000
00000010
00001000
00000001
00000010
,  // measure 55
00000100
00010000
00000100
00010000
00001000
00100000
00010000
00001000
,  // measure 56
00000100
00010000
00000100
00010000
00001000
00010000
00001000
00100000
,  // measure 57
00010000
10000000
00100000
00010000
00001000
00010000
00000100
00000010
,  // measure 58
00000110
00010100
00011000
00101000
,  // measure 59
01010000
10010000
01100000
01010000
,  // measure 60
00011000
00001100
00000110
00000011
,  // measure 61
00000110
00010100
01001000
01100000
,  // measure 62
10000000
00010000
10000000
00010000
01000000
00100000
01000000
00100000
,  // measure 63
00010000
00001000
00010000
00001000
00010000
00000010
00010000
00000010
,  // measure 64
00001000
00000100
00001000
00000100
00001000
00000100
00001000
00000100
00010000
00000100
00010000
00000100
00010000
00000100
00010000
00000100
,  // measure 65
00000010
00000000
00000000
00000000
,  // measure 66
00002000
00000000
00000000
00000000
00003001
00000100
00000010
00000100
00000001
00000100
00000010
00000100
00000001
00000100
00000010
00000100
,  // measure 67
00000001
00000100
00000010
00000100
00000001
00000100
00000010
00000100
00000001
00000100
00000010
00000100
00000001
00000100
00000010
00000100
,  // measure 68
00000001
00000100
00000010
00000100
00000001
00000100
00000010
00000100
00000001
00000100
00000010
00000100
00000001
00000100
00000010
00000100
,  // measure 69
00000001
00000100
00000010
00000100
00000001
00000100
00000010
00000100
00000001
00000100
00000010
00000100
00000001
00000100
00000010
00000000
,  // measure 70
00002000
00000000
00000000
00000000
00003100
00010000
00001000
00010000
00000100
00010000
00001000
00010000
00000100
00010000
00001000
00010000
,  // measure 71
00000100
00010000
00001000
00010000
00000100
00010000
00001000
00010000
00000100
00010000
00001000
00010000
00000100
00010000
00001000
00010000
,  // measure 72
00001000
01000000
00001000
00010000
00001000
01000000
00001000
00010000
00001000
01000000
00001000
00010000
00001000
01000000
00001000
00010000
,  // measure 73
00001000
00100000
01000000
10000000
00100000
00010000
00001000
00000100
,  // measure 74
00000002
00000000
00000000
00000000
00001003
00000100
00000010
00000001
00000010
00000100
00001000
00000100
00000010
00000001
00000010
00000100
,  // measure 75
00001000
00000100
00000010
00000001
00000010
00000100
00001000
00000100
00000010
00000001
00000010
00000100
00001000
00000100
00000010
00000001
,  // measure 76
00000010
00000100
00001000
00000100
00000010
00000001
00000010
00000100
00001000
00000100
00000010
00000001
00000010
00000100
00001000
00000100
,  // measure 77
00000010
00000001
00000010
00000100
00001000
00000100
00000010
00000001
00000010
00000100
00001000
00000100
00000010
00000001
00000010
00000100
,  // measure 78
00002000
00000000
00000000
00000000
00013000
00100000
00001000
00010000
00001000
00100000
00010000
00100000
00001000
00010000
00001000
00100000
,  // measure 79
00010000
00100000
00001000
00010000
00001000
00100000
00010000
00100000
00001000
00010000
00001000
00100000
00010000
00100000
00001000
00010000
,  // measure 80
00001000
01000000
00010000
01000000
00001000
00010000
00001000
01000000
00010000
01000000
00001000
00010000
00001000
00000000
00000000
00000000
,  // measure 81
00011000
00000000
00010000
00001000
00000010
00001000
00010000
00000000
,  // measure 82
00000110
00001000
00000001
00000110
00000000
00001000
00000100
00000011
,  // measure 83
00000000
00000100
00001000
00010000
00110000
00000000
01001000
01000000
,  // measure 84
20020000
30030000
10000000
11000000
00000000
10000000
00100000
01010000
,  // measure 85
00000000
00001000
00010000
01000000
10100000
00000000
00010000
00001000
,  // measure 86
00002200
00003300
00000001
00000101
00000000
00010000
00000100
00001001
,  // measure 87
00000000
00001000
00000100
00000010
00000101
00000000
00000001
00000010
,  // measure 88
00022000
00033000
00010000
01001000
00000000
00100000
01000000
10010000
,  // measure 89
01000000
00010000
01000000
00010000
00100000
00001000
00100000
00001000
00010000
00001000
00010000
00001000
01000000
00010000
01000000
00010000
,  // measure 90
10000000
00010000
10000000
01100000
00000000
00010000
00100000
11000000
,  // measure 91
00000000
00100000
00010000
00001000
00001100
00000000
00010010
00000010
,  // measure 92
00002002
00003003
00000001
00000011
00000000
00000001
00000100
00001010
,  // measure 93
00000000
00000000
00010000
00000000
00001000
00000000
00000010
00000000
00000101
00000000
00000000
00001100
00000000
00000000
00011000
00000000
,  // measure 94
00220000
00330000
10000000
10100000
00000000
00001000
00100000
10010000
,  // measure 95
00000000
00010000
00100000
01000000
10100000
00000000
10000000
01000000
,  // measure 96
00022000
00033000
00001000
00002000
00000000
00010000
00203000
01000000
,  // measure 97
00320000
00100000
00000000
00032000
00000100
00000100
00000100
00003000
,  // measure 98
00001001
00000000
00000001
00000000
00000100
00000000
00001000
00100000
00010000
00100000
00001000
00000000
00010000
00001000
00010000
00001000
,  // measure 99
01000000
00000000
01000000
00000000
00100000
00000000
10000000
00100000
01000000
00100000
10000000
00000000
00100000
01000000
00100000
01000000
,  // measure 100
00010000
00000000
00010000
00000000
00001000
00000000
00000100
00010000
00000010
00010000
00001000
00000000
01000000
00001000
00100000
00001000
,  // measure 101
00010000
00000000
00000010
00010000
00001000
00010000
00000100
00000000
00100000
00001000
00010000
00001000
02000000
00000000
00000000
00000000
,  // measure 102
03100000
00000000
00100000
00000000
10000000
00000000
01000000
00100000
00010000
00100000
01000000
00000000
10000000
01000000
10000000
01000000
,  // measure 103
00100000
00000000
00100000
00000000
00001000
00000000
00010000
00000100
00001000
00000100
00010000
00000000
00000100
00001000
00000100
00001000
,  // measure 104
00010000
00000000
00010000
00000000
00001000
00000000
00000100
00000010
00000001
00000010
00000100
00000000
00001000
00000100
00000010
00000100
,  // measure 105
00001000
00000000
00010000
00001000
00000100
00001000
00010000
00000000
00100000
00010000
00001000
00010000
02000000
00000000
00000000
00000000
,  // measure 106
03200000
00000000
00000000
00000000
,  // measure 107
00000000
00000000
00000000
00000000
,  // measure 108
00000000
00000000
00000000
00000000
,  // measure 109
00320000
00000000
00030200
00000000
,  // measure 110
00002300
00000100
00000010
00000001
00000000
00000001
00000000
00000100
,  // measure 111
00003020
00000100
00000000
00000100
00002030
00000100
00000000
00000100
,  // measure 112
00023000
00100000
00000000
10000000
00000000
01000000
00000000
01000000
,  // measure 113
00030000
00010000
10000000
00010000
00000000
01000000
00100000
01000000
;
