#TITLE:Southern Cross;
#SUBTITLE:;
#ARTIST:403;
#TITLETRANSLIT:;
#SUBTITLETRANSLIT:;
#ARTISTTRANSLIT:;
#GENRE:;
#CREDIT:;
#BANNER:Southern Cross-bn.jpg;
#BACKGROUND:Southern Cross-bg.jpg;
#LYRICSPATH:;
#CDTITLE:;
#MUSIC:Southern Cross.mp3;
#OFFSET:1.308000;
#SAMPLESTART:86.031013;
#SAMPLELENGTH:15.000000;
#LASTBEATHINT:0.409821;
#SELECTABLE:YES;
#BPMS:0.000000=86.500000
,36.000000=173.000000
,352.000000=86.500000
,384.000000=173.000000
;
#STOPS:
;
#BGCHANGES:
;
#KEYSOUNDS:;
#ATTACKS:;

//---------------dance-single - ----------------
#NOTES:
     dance-single:
     :
     Beginner:
     7:
     0.278553,0.344267,0.094566,0.018013,0.000000,433.000000,412.000000,21.000000,4.000000,0.000000,0.000000,0.278553,0.344267,0.094566,0.018013,0.000000,433.000000,412.000000,21.000000,4.000000,0.000000,0.000000:
0000
0000
0000
0000
,
0000
0000
0000
0000
,
0000
0000
0000
0000
,
0000
0000
0000
0000
,
0000
0000
0000
0000
,
0001
0000
1000
0000
,
0001
0000
1000
0000
,
1000
0000
0001
0000
,
0100
0000
0010
0000
,
1000
1000
1000
0000
,
0001
0010
0100
1000
,
0010
0010
0010
0000
,
1000
0001
1000
0000
,
0010
0010
0010
0000
,
0100
0100
0100
0000
,
1001
0000
0000
0000
,
0002
0000
0000
0000
,
0003
0000
0000
0000
,
1000
0100
1000
0010
,
0100
0100
0001
0001
,
0010
0001
0100
0001
,
1000
1000
0010
0010
,
1000
0100
0010
0001
,
0001
0010
0100
1000
,
0010
0100
0010
1000
,
0001
0100
0001
0000
,
0010
0001
1000
0001
,
0100
0100
0010
0010
,
1000
0100
1000
0001
,
0100
0100
0001
0001
,
1000
0100
0010
0001
,
0001
0010
0100
1000
,
0010
0100
0001
1000
,
0010
0100
0010
0100
,
1001
0000
0000
0000
,
0000
0000
0000
0100
,
0010
0000
0010
0000
,
1000
1000
1000
0000
,
0001
0000
0001
0000
,
1000
0001
1000
0010
,
0100
0000
0100
0000
,
0010
0100
0010
0000
,
0001
0000
0001
0000
,
1000
0001
1000
1000
,
0100
0100
0010
0000
,
0001
0001
0001
0000
,
1000
0001
0100
0010
,
1000
1000
1000
0000
,
0010
0100
0001
0000
,
1000
1000
1000
0000
,
0001
0001
0001
0000
,
0110
0000
0000
0000
,
0200
0000
0000
0000
,
0300
0000
0000
0000
,
0001
1000
0001
0010
,
0100
0100
1000
1000
,
0010
0100
0010
1000
,
0100
0100
0010
0010
,
0001
1000
0010
0100
,
0100
0010
1000
0001
,
0010
0001
0100
0010
,
1000
0001
1000
0000
,
0010
0100
0010
0100
,
0001
0010
0100
1000
,
0010
0100
0010
1000
,
0100
0010
0001
1000
,
0010
0100
0010
1000
,
0001
0010
0100
1000
,
0001
1000
0010
0100
,
0001
0010
0001
0010
,
1001
0000
0000
0000
,
0000
0000
0000
0110
,
1000
1000
0001
0001
,
0010
0100
1000
0010
,
0100
0100
0001
0001
,
1000
0100
1001
0000
,
0010
0100
0010
1000
,
0001
0001
1000
1000
,
0001
0010
0100
1000
,
0010
1000
0001
0000
,
0101
0000
1100
0000
,
1000
0010
1001
0000
,
0011
0000
1100
0000
,
1000
0100
1001
0000
,
0001
0010
0100
1000
,
1000
0100
0010
0001
,
2000
0000
0000
0000
,
0000
0000
0000
0000
,
3000
0000
0000
0000
,
0000
0000
0000
0000
,
0000
0000
0000
0000
,
0000
0000
0000
0000
,
0001
0000
0001
0000
,
1000
0000
0010
0000
,
0100
0000
1000
0000
,
0001
0000
0100
0000
,
1001
0000
0000
0000
,
1000
0010
1000
0100
,
0010
0010
0001
0001
,
0100
0010
0100
0001
,
0010
0010
0100
0100
,
1000
0100
0010
0001
,
0001
0010
0100
1000
,
0001
0100
0010
1000
,
0001
0010
0100
0100
,
1000
0010
1000
0100
,
0010
0010
0100
0100
,
1000
0001
0010
0001
,
0100
0100
0010
0010
,
1000
0001
0010
0100
,
0100
0010
0001
1000
,
0010
0100
0001
0100
,
0010
1000
0010
1000
,
0011
0000
0000
0000
,
0101
0000
0100
0000
,
0010
1000
0010
1000
,
0001
0010
0100
1000
,
0001
1000
0001
0010
,
0100
1000
0100
0010
,
0001
0100
0001
1000
,
0100
0100
0010
0000
,
0101
1000
0001
1000
,
0010
0010
0100
0100
,
1001
0010
0100
0010
,
0001
0001
0100
0100
,
0001
0010
0100
1000
,
1000
0100
0010
0001
,
1000
0010
0100
0001
,
1000
0010
1000
0010
,
0101
0000
0000
0000
,
1001
0000
1000
0000
,
0110
0000
0001
0000
,
1001
0000
1000
0000
,
1000
0001
1000
0001
,
0010
0100
0010
0100
,
1000
0010
1000
0001
,
0010
0010
0010
0010
,
0100
0000
1000
0000
,
0002
0000
0000
0000
,
1003
0000
0000
0000
;

//---------------dance-single - ----------------
#NOTES:
     dance-single:
     :
     Medium:
     12:
     0.598921,0.657237,0.252177,0.009006,0.126089,931.000000,875.000000,56.000000,2.000000,0.000000,0.000000,0.598921,0.657237,0.252177,0.009006,0.126089,931.000000,875.000000,56.000000,2.000000,0.000000,0.000000:
0000
0000
0000
0000
,
0000
0000
0000
0000
,
0000
0000
0000
0000
,
0000
0000
0000
0000
,
0000
0000
0000
0000
,
0001
0000
0000
0001
0010
0100
1000
0000
0000
1000
0010
0100
,
0001
0000
0000
0001
0100
0010
1000
0100
1000
0100
0000
0010
,
0001
0000
0000
0001
0010
0100
1000
0000
0000
1000
0100
0010
,
0001
0100
0001
1000
0010
0100
0010
0000
0000
0000
0000
0000
,
1001
0110
1001
0000
,
0001
0010
0100
1000
0001
0100
0010
0000
,
0110
1001
0110
0000
,
1000
0100
0010
0001
0100
0000
0000
0000
,
0110
0000
1001
0000
0110
0000
0001
1000
,
0110
1001
0110
0000
,
0001
0010
0100
1000
,
0001
0100
0001
0100
0001
0100
0001
0100
,
0010
1000
0010
1000
0100
0010
0100
0010
,
0001
0100
0010
0100
0001
0100
0010
1000
,
0100
0010
0100
0010
0001
0100
0001
0100
,
0010
1000
0001
1000
0010
1000
0001
1000
,
0100
0010
0100
0010
0001
0100
0001
0100
,
0010
1000
0100
0010
0100
0010
0100
1000
,
0001
0100
0010
0100
0010
0100
0001
0010
,
0100
1000
0001
0100
0010
1000
0100
0010
,
0001
1000
0001
1000
0010
0010
0100
0100
,
0001
0010
0100
1000
0001
0010
0100
1000
,
0010
1000
0010
1000
0100
0010
0100
0010
,
0001
0100
0010
1000
0001
0100
0010
1000
,
0001
0010
0001
0010
0100
1000
0100
1000
,
0001
0100
0010
0100
0001
1000
0100
0010
,
0001
1000
0001
0010
0100
1000
0010
0100
,
0001
0010
0100
1000
0100
0010
0001
1000
,
0010
0100
0010
0100
0010
0100
0010
0100
,
1001
0000
0000
0000
,
0000
0000
0000
1001
,
0001
0000
0000
0001
0000
0001
1000
0000
0000
1000
0000
1000
,
0100
0000
0100
0010
0000
0010
0001
0000
0000
1001
0000
0000
,
0110
0000
0000
0100
0010
0100
0010
0000
0000
0010
0000
0010
,
1000
0000
1000
0001
0000
0001
0010
0000
0000
0011
0000
0000
,
1010
0000
0000
0010
0000
0010
1000
0000
0000
1000
0000
1000
,
0100
0000
0100
0010
0000
0010
0001
0000
0000
1001
0000
0000
,
0110
0000
0000
0001
0010
0100
1000
0000
0000
0001
0000
0000
,
1000
0100
0010
0001
0010
0100
1000
0000
1000
0001
0000
0001
,
1000
0000
1000
0001
0000
0001
1000
0000
0000
0000
0000
0000
,
0110
1001
0110
0000
,
1000
0100
0010
0001
0010
0100
1000
0000
,
1001
0110
1001
0000
,
0001
0010
0100
1000
0001
0000
0000
0000
,
0110
0000
1001
0000
0110
0000
1000
0001
,
0110
1001
0110
0000
,
0001
0010
0100
1000
0001
0100
0010
1000
,
0100
0010
0100
0010
0001
0100
0001
0100
,
0010
1000
0100
1000
0010
1000
0100
1000
,
0001
0010
0100
1000
0001
0010
0100
1000
,
0010
0100
0010
0100
0001
1000
0001
1000
,
0100
0010
0001
0100
0010
1000
0100
0010
,
0001
1000
0001
1000
0100
1000
0100
1000
,
0010
0100
0001
0100
0010
1000
0100
0010
,
0001
0100
0010
0100
0001
0010
0100
1000
,
0001
0100
0010
1000
0100
1000
0001
0100
,
0010
0100
0010
0100
0001
0001
1000
1000
,
0100
0010
0001
1000
0100
0010
0001
1000
,
0010
0100
0010
0100
0001
0100
0001
0100
,
0010
1000
0100
1000
0001
1000
0010
0100
,
0001
0010
0001
0010
0100
1000
0100
1000
,
0001
0100
0010
0100
0001
0010
0100
1000
,
0010
0100
0010
1000
0100
0010
0001
1000
,
0010
0100
0001
0010
0100
1000
0001
0100
,
0010
0100
0010
0100
0010
0100
0010
0100
,
1001
0000
0000
0000
,
0000
0000
0000
0110
,
0001
0010
0001
0010
0100
1000
0100
1000
,
0010
1000
0010
0100
0001
0100
0001
0100
,
0001
0010
0100
0010
0100
0001
0100
0001
,
0100
1000
0010
0100
0101
0000
1100
0000
,
1000
0001
1000
0001
0010
0100
0010
0100
,
0001
0100
0001
0100
1000
0010
1000
0010
,
0001
0010
1000
0100
0010
0001
0010
0100
,
1000
0001
1000
0001
1000
0000
0000
0000
,
0101
0011
1100
1010
,
1000
0100
0010
0001
0010
0000
0000
0000
,
0101
1010
1100
0101
,
0010
1000
0100
1000
0010
0000
0000
0000
,
1000
0100
0010
0001
1000
0100
0010
0001
,
1000
0010
0100
0001
1000
0100
0010
0001
,
0200
0000
0000
0000
,
0000
0000
0000
0000
,
0300
0000
0000
0000
,
0000
0000
0000
0000
,
0000
0000
0000
0000
,
0000
0000
0000
0000
,
0001
0000
0000
0001
1000
0000
0100
0000
1000
0000
0000
0000
0010
0000
0000
0010
0100
0000
0001
0000
0100
0000
0000
0000
,
0001
0000
0000
0010
0100
0000
1000
0000
0001
0000
0000
0000
0001
0000
0100
0000
0010
0000
1000
0000
0000
0000
0000
0000
,
1000
0000
0000
1000
0100
0000
0010
0000
0001
0000
0000
0000
0100
0000
0000
0100
0010
0000
1000
0000
0100
0000
0000
0000
,
0010
0001
0010
0100
1000
0001
0100
0000
0000
0000
0000
0000
,
0000
0000
0000
0000
,
0001
0100
0001
0100
0010
0100
0001
0010
,
0100
1000
0100
1000
0100
0010
0100
0010
,
0001
1000
0010
0100
0001
1000
0100
0010
,
0001
0100
0001
0100
0010
1000
0010
1000
,
0100
0010
0100
1000
0100
0010
0001
0100
,
0010
1000
0010
0100
0001
0010
0100
1000
,
0001
0100
0010
1000
0100
0010
0001
1000
,
0010
0100
0010
0100
0001
0001
1000
1000
,
0001
0010
0001
0010
0100
1000
0001
0100
,
0010
1000
0010
1000
0100
0010
0100
0010
,
0001
0100
0010
0100
0001
0010
0100
1000
,
0010
0100
0010
0100
0001
0100
0001
0010
,
0100
1000
0100
0010
0001
0100
0010
0100
,
0001
0010
0001
1000
0100
0010
0001
0100
,
0010
1000
0010
0100
0001
0010
0100
1000
,
0010
0100
0010
0100
0010
0100
0010
0100
,
1001
0000
0000
0001
0010
0100
1000
0001
,
0100
0100
0010
0010
,
0100
0001
0100
0001
0010
0001
0010
0001
,
1000
0100
0010
0001
1000
0100
0010
0001
,
1000
0010
1000
0010
0100
0001
0100
0001
,
0010
0100
1000
0001
0010
0100
1000
0001
,
0100
0010
0100
0001
0010
0100
1000
0001
,
0100
0010
0100
0010
0100
0000
0001
0000
,
0101
1000
0100
0010
0001
0010
0100
1000
,
0001
0100
0010
0100
0001
0100
0010
0100
,
1001
0010
1000
0010
0100
0001
1000
0100
,
0010
0001
1000
0001
0100
0001
1000
0001
,
0100
0010
0100
0001
0010
0100
1000
0001
,
0100
0010
0100
0001
0010
0100
1000
0001
,
0010
0100
1000
0010
0100
0001
1000
0100
,
0010
0001
0010
0001
1000
0001
1000
0001
,
1001
0000
0000
0000
,
0110
0000
0000
0000
,
1001
0000
0110
0000
,
1001
0000
1001
0110
,
0001
0010
0001
1000
0001
1000
0010
1000
,
0100
1000
0100
0010
0100
0010
0001
0100
,
0010
0100
0010
0100
0001
0100
0001
0100
,
0010
1000
0100
0010
0001
0100
0010
1000
,
0100
0010
0001
0100
1000
0100
0001
0100
,
1002
0000
0000
0000
0000
0000
0013
0100
,
1001
0000
0000
0000
;

//---------------dance-single - ----------------
#NOTES:
     dance-single:
     :
     Challenge:
     17:
     1.143161,1.377068,0.535877,0.031522,1.783254,1777.000000,1658.000000,119.000000,7.000000,0.000000,0.000000,1.143161,1.377068,0.535877,0.031522,1.783254,1777.000000,1658.000000,119.000000,7.000000,0.000000,0.000000:
// measure 0
0000
0000
0000
0000
,  // measure 1
0000
0000
0000
0000
,  // measure 2
0000
0000
0000
0000
,  // measure 3
0000
0000
0000
0000
,  // measure 4
0000
0000
0000
0000
,  // measure 5
0001
0000
0000
0001
0010
0100
1000
0000
0000
1000
0100
0010
,  // measure 6
0001
0000
0000
0001
0100
0010
1000
0010
0100
0001
0000
0001
,  // measure 7
0010
0000
0000
0010
0100
1000
0010
0000
0000
0010
0100
0001
,  // measure 8
0011
0101
1100
1010
0110
0101
1001
0000
0000
0000
0000
0000
,  // measure 9
1001
0000
0110
0000
1001
0000
0010
1000
,  // measure 10
0001
0100
0010
0100
0001
1000
0001
1000
0010
0100
0001
0010
0100
1000
0010
0100
,  // measure 11
0101
0000
1001
0000
1010
0000
0010
1000
,  // measure 12
0001
0010
0001
0010
0001
0100
0001
0100
0010
1000
0001
0010
0100
1000
0010
0100
,  // measure 13
1001
0000
0110
0000
1001
0000
1001
0110
,  // measure 14
1001
0000
0110
0000
1001
0000
0001
0001
,  // measure 15
1000
0000
0100
0010
0001
0000
0001
0000
0010
0000
0100
0000
1000
0000
0001
0000
,  // measure 16
0100
0010
0100
0010
0100
0010
0100
0010
0100
0010
0100
0010
0100
0010
0100
0010
,  // measure 17
1000
0001
0100
0001
1000
0010
1000
0001
0100
0001
1000
0010
0100
0001
0100
0010
,  // measure 18
1000
0100
1000
0100
1000
0100
1000
0100
1000
0100
1000
0100
1000
0100
1000
0100
,  // measure 19
0010
0001
0010
0001
0010
0001
0010
0001
1000
0010
1000
0010
1000
0010
1000
0010
,  // measure 20
0100
0010
0100
0010
0100
0010
0100
0010
0100
0010
0100
0010
0100
0010
0100
0010
,  // measure 21
1000
0001
1000
0001
1000
0001
1000
0001
0100
0001
0100
0001
0100
0001
0100
0001
,  // measure 22
1000
0010
0100
0001
0100
0010
1000
0001
0010
0100
1000
0001
0100
0001
0100
0001
,  // measure 23
1000
0010
0100
0001
0010
0100
1000
0010
0100
0001
1000
0001
1000
0010
1000
0100
,  // measure 24
0010
0001
0010
0001
0010
0001
0010
0001
1000
0010
0100
0010
1000
0100
0010
0001
,  // measure 25
0100
0010
0100
0010
0100
0010
0100
0010
0110
0000
1001
0000
1010
0000
0101
0000
,  // measure 26
0001
0010
0001
0010
0001
0010
0001
0010
0001
0010
0001
0010
0001
0010
0001
0010
,  // measure 27
0100
1000
0100
1000
0100
1000
0100
1000
0001
0100
0001
0100
0001
0100
0001
0100
,  // measure 28
0010
0100
0010
0100
0010
0100
0010
0100
0010
0100
0010
0100
0010
0100
0010
0100
,  // measure 29
0001
1000
0001
1000
0001
1000
0001
1000
0010
1000
0010
1000
0010
1000
0010
1000
,  // measure 30
0001
0100
0010
1000
0010
0100
0001
1000
0100
0010
0001
1000
0010
1000
0010
1000
,  // measure 31
0001
0100
0010
1000
0010
1000
0100
0010
0001
1000
0010
0100
0010
1000
0001
0010
,  // measure 32
0100
1000
0100
1000
0100
1000
0100
1000
0001
0100
0010
0100
0001
0010
0100
1000
,  // measure 33
0010
0100
0010
0100
0010
0100
0010
0100
0010
0100
0010
0100
0010
0100
0010
0100
,  // measure 34
1001
0000
0000
0000
,  // measure 35
0000
0000
0000
0110
,  // measure 36
1001
1000
0001
0010
0100
0100
1001
0010
0100
1000
0001
0010
,  // measure 37
0110
1000
0001
1001
0100
0010
1010
1000
0001
0010
0001
1000
,  // measure 38
1001
0010
0100
1000
1000
0001
0011
0010
0001
1000
0010
0100
,  // measure 39
0110
1000
0100
0110
0010
0001
1001
0100
0010
1010
0100
0001
,  // measure 40
1001
0010
0100
1000
0010
0010
0101
1000
0001
0001
0010
0100
,  // measure 41
1100
1000
0010
0110
1000
0001
0011
0010
0100
1000
0100
1000
,  // measure 42
1001
0100
0001
0011
0010
0100
1100
1000
0001
0110
0010
1000
,  // measure 43
1001
0010
0100
1001
0100
0010
1001
0100
0010
0001
1000
0100
,  // measure 44
0010
0000
0000
0000
0001
0000
0000
0000
1000
0000
0000
0000
0100
0000
0000
0000
0010
0000
0000
0000
0001
0000
0000
0000
1000
0000
0000
0000
0000
0000
0000
0000
0000
0000
0000
0000
0010
0000
0000
0100
0000
0000
0010
0000
0000
0100
0000
0000
,  // measure 45
1001
0000
0110
0000
1001
0000
0010
1000
,  // measure 46
0001
0100
0010
0100
0001
1000
0001
1000
0010
0100
0001
0010
0100
1000
0010
0100
,  // measure 47
0101
0000
1001
0000
1010
0000
0010
1000
,  // measure 48
0001
0010
0001
0010
0001
0100
0001
0100
0010
1000
0001
0010
0100
1000
0010
0100
,  // measure 49
1001
0000
0110
0000
1001
0000
1001
0110
,  // measure 50
1001
0000
0110
0000
1001
0000
0001
0001
,  // measure 51
1000
0000
0100
0010
0001
0000
0001
0000
0010
0000
0100
0000
1000
0000
0001
0000
,  // measure 52
0100
0010
0100
0010
0100
0010
0100
0010
0100
0010
0100
0010
0100
0010
0100
0010
,  // measure 53
1000
0001
0100
0001
1000
0010
1000
0001
0100
0001
1000
0010
0100
0001
0100
0010
,  // measure 54
1000
0100
1000
0100
1000
0100
1000
0100
1000
0100
1000
0100
1000
0100
1000
0100
,  // measure 55
0010
0001
0010
0001
0010
0001
0010
0001
1000
0010
1000
0010
1000
0010
1000
0010
,  // measure 56
0100
0010
0100
0010
0100
0010
0100
0010
0100
0010
0100
0010
0100
0010
0100
0010
,  // measure 57
1000
0001
1000
0001
1000
0001
1000
0001
0100
0001
0100
0001
0100
0001
0100
0001
,  // measure 58
1000
0010
0100
0001
0100
0010
1000
0001
0010
0100
1000
0001
0100
0001
0100
0001
,  // measure 59
1000
0010
0100
0001
0010
0100
1000
0010
0100
0001
1000
0001
1000
0010
1000
0100
,  // measure 60
0010
0001
0010
0001
0010
0001
0010
0001
1000
0010
0100
0010
1000
0100
0010
0001
,  // measure 61
0100
0010
0100
0010
0100
0010
0100
0010
0110
0000
1001
0000
1010
0000
0101
0000
,  // measure 62
0001
0010
0001
0010
0001
0010
0001
0010
0001
0010
0001
0010
0001
0010
0001
0010
,  // measure 63
0100
1000
0100
1000
0100
1000
0100
1000
0001
0100
0001
0100
0001
0100
0001
0100
,  // measure 64
0010
0100
0010
0100
0010
0100
0010
0100
0010
0100
0010
0100
0010
0100
0010
0100
,  // measure 65
0001
1000
0001
1000
0001
1000
0001
1000
0010
1000
0010
1000
0010
1000
0010
1000
,  // measure 66
0001
0100
0010
1000
0010
0100
0001
1000
0100
0010
0001
1000
0010
1000
0010
1000
,  // measure 67
0001
0100
0010
1000
0010
1000
0100
0010
0001
1000
0010
0100
0010
1000
0001
0010
,  // measure 68
0100
1000
0100
1000
0100
1000
0100
1000
0001
0100
0010
0100
0001
0010
0100
1000
,  // measure 69
0010
0100
0010
0100
0010
0100
0010
0100
0010
0100
0010
0100
0010
0100
0010
0100
,  // measure 70
1001
0000
0000
0000
,  // measure 71
0000
0000
0000
0110
,  // measure 72
0001
0100
0001
0100
0010
1000
0010
1000
0100
0010
0001
0100
0010
1000
0001
0010
,  // measure 73
0100
1000
0100
1000
0001
0100
0001
0100
0010
1000
0010
0100
0010
1000
0010
0100
,  // measure 74
0001
0010
0100
1000
0001
0100
0001
0100
0010
1000
0010
0100
0001
0010
0001
0100
,  // measure 75
0010
1000
0100
0010
0001
0100
0001
1000
0010
0110
0000
0000
1000
1001
0000
0000
,  // measure 76
1000
0001
1000
0010
1000
0001
1000
0010
0100
0001
0100
0010
0100
0001
0100
0010
,  // measure 77
1000
0100
1000
0001
0010
0100
0010
0001
0100
0010
1000
0100
1000
0001
0010
0100
,  // measure 78
1000
0001
1000
0001
1000
0001
1000
0001
0100
0010
0100
0010
0100
0010
0100
0010
,  // measure 79
1000
0100
0010
0001
1000
0100
0010
0001
0200
0000
0000
0000
0300
0000
0000
0000
,  // measure 80
0001
0100
0001
0100
0010
0100
0010
0100
1000
0100
1000
0100
0001
0010
0100
1000
,  // measure 81
1001
0000
0100
0010
0100
0000
0101
0000
2002
0000
0000
0000
3003
0000
0000
0000
,  // measure 82
1000
0010
1000
0010
0100
0010
0100
0010
0001
0010
0001
0010
1000
0100
0010
0001
,  // measure 83
1001
0000
0010
0100
0010
0000
1100
0000
2002
0000
0000
0000
3003
0000
0000
0000
,  // measure 84
0001
0010
0001
1000
0001
0010
0001
1000
0010
0100
0010
1000
0010
0100
0010
1000
,  // measure 85
0001
0010
0100
1000
0100
0010
0100
0010
0001
1000
0010
0001
1000
0100
0001
1000
,  // measure 86
0200
0000
0000
0000
,  // measure 87
0000
0000
0000
0000
,  // measure 88
0300
0000
0000
0000
,  // measure 89
0000
0000
0000
0000
,  // measure 90
0000
0000
0000
0000
,  // measure 91
0000
0000
0000
0000
,  // measure 92
1001
0000
0000
1010
1010
0000
0100
0000
0010
0000
0001
0000
1001
0000
0000
0110
0110
0000
0001
0000
0010
0000
0100
0000
,  // measure 93
1010
0000
0000
1001
1001
0000
0010
0000
0100
0000
0001
0000
0010
0100
0010
0001
0010
0100
1000
0001
0100
0001
1000
0001
,  // measure 94
1010
0000
0000
0110
0110
0000
0010
0000
1000
0000
0100
0000
0110
0000
0000
0011
0011
0000
0001
0000
0100
0000
0010
0000
,  // measure 95
1010
1100
0110
0011
1001
1010
0110
0000
0000
0000
0000
0000
,  // measure 96
1000
0001
1000
0001
1000
0001
1000
0001
0010
0001
1000
0001
1000
0001
1000
0001
,  // measure 97
0100
0010
0100
0010
0100
0010
0100
0010
1000
0001
0010
0100
1000
0001
1000
0010
,  // measure 98
0100
0001
0100
0001
1000
0001
1000
0001
0010
0100
0010
0100
0010
0001
0010
0001
,  // measure 99
1000
0100
1000
0100
1000
0100
1000
0100
0010
0001
1000
0100
0010
0100
1000
0100
,  // measure 100
0010
0001
0010
0001
0100
0001
0100
0001
1000
0010
1000
0010
0100
0010
0100
0010
,  // measure 101
1000
0001
1000
0001
0100
0010
0100
0010
1000
0010
1000
0010
0100
0001
0010
0100
,  // measure 102
1000
0001
1000
0001
0100
0001
0100
0001
0010
0100
1000
0100
0010
0001
0100
0001
,  // measure 103
1000
0010
0100
0001
0100
0010
1000
0001
0010
0100
1000
0001
0100
0010
0100
0001
,  // measure 104
1000
0010
1000
0010
1000
0010
1000
0010
1010
0000
1001
0000
0101
0000
0110
0000
,  // measure 105
0001
0010
0001
0010
0001
0010
0001
0010
0100
1000
0100
0010
0001
0100
0001
0010
,  // measure 106
0100
1000
0100
1000
0001
1000
0001
1000
0010
0100
0010
0100
0001
0100
0001
0100
,  // measure 107
0010
1000
0010
1000
0010
1000
0010
1000
0001
0100
0010
1000
0100
0010
0100
1000
,  // measure 108
0001
0010
0001
0010
0001
0100
0001
0100
0010
1000
0010
1000
0010
0100
0010
1000
,  // measure 109
0001
0100
0010
1000
0010
0100
0001
1000
0100
0010
0001
1000
0010
1000
0010
1000
,  // measure 110
0001
0100
0010
1000
0010
1000
0100
0010
0001
1000
0010
0100
0010
1000
0001
0010
,  // measure 111
0100
1000
0100
1000
0100
1000
0100
1000
0001
0100
0010
0100
0001
0010
0100
1000
,  // measure 112
0010
0100
0010
0100
0010
0100
0010
0100
0010
0100
0010
0100
0010
0100
0010
0100
,  // measure 113
1001
0000
0000
0001
0010
0100
1000
0010
,  // measure 114
1010
0000
0000
0000
0110
0000
0000
0000
0101
0000
0000
0000
0001
0010
0100
1000
,  // measure 115
0010
0100
0010
0100
0010
0100
0010
0100
0001
1000
0100
0010
0001
0010
0100
0001
,  // measure 116
1000
0010
0001
0100
0010
1000
0100
0100
0100
1000
0001
1000
0010
0100
0001
0010
,  // measure 117
0100
1000
0100
1000
0100
1000
0010
0100
0001
1000
0001
0010
0100
1000
0001
1000
,  // measure 118
0010
0100
0010
0100
0001
0100
0001
0100
0010
1000
0010
1000
0010
1000
0100
0010
,  // measure 119
0001
1000
0001
0010
0001
0100
0010
1000
0001
1000
0010
0100
0001
0010
0100
1000
,  // measure 120
0010
0010
0100
0100
0001
0010
0100
1000
,  // measure 121
1001
0001
0100
0010
1000
0001
0010
0100
0010
0001
1000
0010
0100
0010
1000
0001
,  // measure 122
0100
0010
0100
0001
0100
0010
0100
0001
1000
0100
1000
0001
1000
0100
1000
0001
,  // measure 123
1001
0100
0001
0010
0100
1000
0100
1000
0001
0100
0001
0010
0100
1000
0001
0100
,  // measure 124
0010
1000
0010
0001
0010
0100
0010
1000
0100
0010
0100
0001
0100
0010
0100
1000
,  // measure 125
0001
0010
0001
0100
0001
0100
0010
1000
0100
0001
0100
1000
0010
0100
0010
1000
,  // measure 126
0001
0100
0010
0100
0001
1000
0001
0010
0001
0010
1000
0010
1000
0010
0100
1000
,  // measure 127
0001
0100
0001
0100
0001
0100
0001
0100
0010
1000
0100
1000
0010
0100
0001
0010
,  // measure 128
0100
1000
0100
1000
0100
1000
0100
1000
0100
1000
0100
1000
0100
1000
0100
1000
,  // measure 129
1001
0000
0000
0000
,  // measure 130
0110
0000
0000
0000
,  // measure 131
1001
0000
0110
0000
,  // measure 132
1001
0000
0110
0110
,  // measure 133
0001
0010
0001
0010
0001
0010
0001
0010
0100
1000
0001
0100
0010
1000
0100
0010
,  // measure 134
0001
0100
0001
0100
0001
0100
0001
0100
0010
1000
0010
0001
0010
1000
0100
1000
,  // measure 135
0010
0010
0100
0100
0001
0001
1000
1000
,  // measure 136
0010
0100
0010
0100
0010
0100
0010
1000
0001
0100
0010
0100
0010
0100
0010
1000
,  // measure 137
0001
0100
0010
0100
0010
0100
0010
0100
0001
1000
0001
1000
0001
1000
0001
1000
,  // measure 138
1002
0000
0000
0000
0000
0000
0000
0000
0000
0000
0000
0000
1003
0001
0010
0100
,  // measure 139
0110
0000
0000
0000
;
