#VERSION:0.83;
#TITLE:She is my wife すーぱーアイドル☆ミツル子remixちゃん;
#SUBTITLE:;
#ARTIST:高井さんとuno(IOSYS);
#TITLETRANSLIT:She is my wife Super idol Mitsuruko Remix-chan;
#SUBTITLETRANSLIT:;
#ARTISTTRANSLIT:;
#GENRE:;
#ORIGIN:;
#CREDIT:;
#BANNER:She is my wife Super idol Mitsuruko Remix-chan-bn.png;
#BACKGROUND:She is my wife Super idol Mitsuruko Remix-chan-bg.png;
#PREVIEWVID:;
#JACKET:She is my wife Super idol Mitsuruko Remix-chan-jacket.png;
#CDIMAGE:;
#DISCIMAGE:;
#LYRICSPATH:;
#CDTITLE:;
#MUSIC:She is my wife Super idol Mitsuruko Remix-chan.mp3;
#OFFSET:2.233001;
#SAMPLESTART:37.513004;
#SAMPLELENGTH:15.000000;
#SELECTABLE:YES;
#BPMS:0.000=85.000,
48.000=185.000,
266.000=125.000,
294.000=370.000;
#STOPS:;
#DELAYS:;
#WARPS:;
#TIMESIGNATURES:0.000=4=4;
#TICKCOUNTS:0.000=4;
#COMBOS:0.000=1;
#SPEEDS:0.000=1.000=0.000=0;
#SCROLLS:0.000=1.000;
#FAKES:;
#LABELS:0.000=Song Start;
#BGCHANGES:;
#KEYSOUNDS:;
#ATTACKS:
;

//---------------dance-single - ----------------
#NOTEDATA:;
#CHARTNAME:;
#STEPSTYPE:dance-single;
#DESCRIPTION:;
#CHARTSTYLE:;
#DIFFICULTY:Beginner;
#METER:2;
#RADARVALUES:0.141770,0.195997,0.090969,0.066159,0.004135,120.000000,109.000000,11.000000,8.000000,0.000000,0.000000,0.000000,0.000000,0.000000,0.141770,0.195997,0.090969,0.066159,0.004135,120.000000,109.000000,11.000000,8.000000,0.000000,0.000000,0.000000,0.000000,0.000000;
#CREDIT:;
#NOTES:
0000
0000
0000
0000
,
0000
0000
0000
0000
,
0000
0000
0000
0000
,
0000
0000
0000
0000
,
0000
0000
0000
0000
,
1000
0000
0001
0000
,
1000
0000
0001
0000
,
1000
0000
0000
0000
,
0010
0010
0010
0000
,
1000
0000
0001
0000
,
1000
0000
0001
0000
,
1000
0000
0010
0000
,
0010
0000
0000
0000
,
0000
0000
0000
0000
,
0000
0000
2000
0000
,
0000
0000
3001
0000
,
0001
0000
1000
0000
,
0001
0000
1000
1000
,
0000
0000
0001
0000
,
1000
0000
0001
0001
,
0000
0000
0100
0000
,
0010
0000
0100
0100
,
0000
0000
0010
0000
,
0100
0000
1001
0000
,
0001
0000
0100
0000
,
0000
0000
0100
0000
,
0100
0000
0100
0000
,
0100
0000
0010
0010
,
0000
0000
1000
0000
,
0001
0000
1000
0000
,
0001
0000
0010
0000
,
0010
0000
0000
0001
,
1000
0000
0000
0000
,
0000
0101
0000
0000
,
0000
1010
0000
0000
,
0000
0101
0000
0000
,
0000
1010
0000
0000
,
0000
0011
0000
0000
,
0000
1100
0000
0000
,
0000
0011
0000
0000
,
0000
1000
0001
0000
,
0001
0000
1000
0000
,
0001
0000
0100
0000
,
0010
0000
0100
0100
,
0000
0000
1001
0000
,
0000
0000
0001
1000
,
0001
0000
1000
0000
,
1000
0000
0010
0000
,
0010
0000
0100
0000
,
0001
0000
1000
0000
,
1000
0000
0001
0000
,
0001
0000
0100
0000
,
0000
0000
0010
0000
,
0010
0000
0010
0000
,
0000
0000
0100
0000
,
0100
0000
0200
0000
,
0000
0000
0300
0000
,
0000
0000
0000
0000
,
0001
0000
1000
0000
,
0001
0000
1000
1000
,
0000
0000
0001
0000
,
1000
0000
0001
0001
,
0000
0000
0100
0000
,
0010
0000
0100
0100
,
0000
0000
0010
0000
,
0100
0000
1001
0000
,
0001
0000
0000
0000
,
0000
0000
2000
0000
,
3000
0000
2000
0000
,
3000
0000
0020
0000
,
0000
0000
0030
0000
,
0000
0000
0200
0000
,
0000
0000
0300
0000
,
0000
0000
0000
0000
2002
0000
0000
0000
0000
0000
0000
0000
,
0000
0000
0000
0000
,
0000
0000
3003
0000
,
0000
0000
0000
0000
,
0000
0000
0000
0000
,
0000
0000
0000
0000
,
0100
0000
0000
0000
;

//---------------dance-single - ----------------
#NOTEDATA:;
#CHARTNAME:;
#STEPSTYPE:dance-single;
#DESCRIPTION:;
#CHARTSTYLE:;
#DIFFICULTY:Easy;
#METER:7;
#RADARVALUES:0.254005,0.359329,0.198478,0.124049,0.012405,215.000000,191.000000,24.000000,15.000000,0.000000,0.000000,0.000000,0.000000,0.000000,0.254005,0.359329,0.198478,0.124049,0.012405,215.000000,191.000000,24.000000,15.000000,0.000000,0.000000,0.000000,0.000000,0.000000;
#CREDIT:;
#NOTES:
0000
0000
0000
0000
,
0000
0000
0000
0000
,
0000
0000
0000
0000
,
0000
0000
0000
0000
,
0000
0000
0000
0000
,
1000
0100
0001
0100
,
1000
0010
0001
0010
,
1000
0000
0001
0000
,
1000
0001
1001
1000
,
0001
0010
1000
0010
,
0001
0100
1000
0100
,
0001
0010
0100
1000
,
0001
0000
0000
0000
,
0000
0000
0000
0000
,
0000
0000
0100
0010
,
0100
0010
1001
0000
,
0100
0000
0001
0000
,
0001
0001
1000
0000
,
1000
1000
0001
0000
,
0001
0001
1000
0000
,
1000
1000
0010
0000
,
0010
0010
0100
0000
,
0100
0100
0110
0000
,
1001
0000
0010
0100
,
1001
0000
0002
0000
,
0003
0000
1000
0000
,
1000
0000
1000
1000
,
1000
1000
0100
0100
,
0000
1001
0001
0010
,
0001
0010
0100
1000
,
0100
1000
1001
0000
,
0110
0000
0000
0001
,
1000
0000
0002
0000
,
0000
0103
2000
0000
,
0000
3100
0002
0000
,
0000
0013
2000
0000
,
0000
3010
0002
0000
,
0000
0103
2000
0000
,
0000
3100
0002
0000
,
0000
0103
0010
0100
,
0110
0110
0002
0000
,
2003
0000
3001
1000
,
1001
0000
0001
0010
,
0001
1000
0100
0010
,
0100
1000
0001
0000
,
1001
0000
0110
0110
,
0110
0000
1000
0100
,
0001
0100
1000
0010
,
0001
0010
1000
0000
,
0001
0000
1000
0001
,
1001
0000
0110
0000
,
1100
0000
0101
0000
,
0011
0000
0001
1000
,
0001
1000
0100
0000
,
1000
0001
0010
0100
,
0010
0100
1000
0000
,
0001
0000
2002
0000
,
0000
0000
3003
0000
,
0100
0000
0001
0000
,
0001
0001
1000
0000
,
1000
1000
0001
0000
,
0001
0001
1000
0000
,
1000
1000
0010
0000
,
0010
0010
0100
0000
,
0100
0100
0110
0000
,
1001
0000
0010
0100
,
1001
0000
0002
0000
,
0000
0000
1003
0000
,
1000
0000
0010
0000
,
0001
0000
0001
0010
,
0100
1000
1000
0100
,
0010
0001
0001
0100
,
0010
0000
0000
1000
0000
0000
0001
0000
0000
0000
1000
0000
,
0000
0000
0002
0000
2000
0000
0000
0000
0000
0000
0000
0000
,
0000
0000
0000
0000
,
0000
0000
3003
0000
,
0000
0000
0000
0000
,
0000
0000
0000
0000
,
0000
0000
0000
0000
,
0100
0000
0000
0000
;

//---------------dance-single - ----------------
#NOTEDATA:;
#CHARTNAME:;
#STEPSTYPE:dance-single;
#DESCRIPTION:;
#CHARTSTYLE:;
#DIFFICULTY:Medium;
#METER:10;
#RADARVALUES:0.381598,0.555326,0.248098,0.281178,0.033080,323.000000,293.000000,30.000000,34.000000,0.000000,0.000000,0.000000,0.000000,0.000000,0.381598,0.555326,0.248098,0.281178,0.033080,323.000000,293.000000,30.000000,34.000000,0.000000,0.000000,0.000000,0.000000,0.000000;
#CREDIT:;
#NOTES:
0000
0000
0000
0000
,
0000
0000
0000
0000
,
0000
0000
0000
0000
,
0000
0000
0000
0000
,
0000
0000
0000
0000
,
1001
0000
1000
0100
0001
0000
0100
0000
,
0001
0100
1000
0000
0001
0000
1000
0000
,
1001
0000
0110
0000
,
0010
0100
1001
0010
,
1001
0000
0001
0100
1000
0000
0100
0000
,
1000
0100
0001
0000
0010
0000
0001
0000
,
0010
0100
1000
0000
1010
0000
0110
0000
,
0101
0000
0000
0000
,
0000
0000
0000
0000
0001
0010
0100
1000
,
0001
0010
0100
1000
0001
0010
0001
0010
,
0100
1000
0100
1000
0010
0000
0110
0000
,
0001
0100
0010
0000
1000
0000
0100
0000
,
0001
0010
0001
0000
0100
0000
1000
0000
,
0010
0001
0010
0000
0001
0000
0010
0000
,
1000
0100
1000
0000
0010
0000
0001
0000
,
0100
1000
0100
0000
1000
0000
0100
0000
,
0001
0010
0001
0000
0100
0000
1000
0000
,
0010
0001
0010
0000
1000
1000
0100
0000
,
0001
0001
0100
0000
0010
0100
0010
0000
,
0110
0000
0002
0000
,
0000
0023
0000
0230
,
2300
0000
3010
0000
0001
0100
0001
0100
,
0010
0100
0010
0100
0001
0001
1000
0001
,
0000
1000
0001
0000
0001
0000
1001
0000
,
1000
1001
0010
0110
,
0100
0000
0110
0000
0001
0010
0001
0000
,
0100
1000
0000
0001
0000
0100
0100
0010
,
0010
0000
0002
0000
,
0003
0101
2000
0000
,
3000
1100
0002
0000
,
0003
0011
2000
0000
,
3000
1010
0002
0000
,
0003
0110
2000
0000
,
0000
3000
0110
0000
0002
0000
0000
0000
,
0003
0110
2000
3200
,
0320
0000
0032
0000
1003
0001
0000
0000
,
1000
0001
0000
0000
0100
0001
0010
0100
,
0200
0300
1000
0100
,
0001
0100
1000
0010
,
0100
0001
0010
0000
0001
0000
1000
0000
,
1001
0000
0110
1001
,
0120
0030
0020
0030
0001
0000
0010
0000
,
1000
0010
0001
0100
,
1000
0100
0010
0000
0001
0000
0000
0000
,
1000
0000
0100
0110
,
1001
0110
0002
0000
,
2003
0000
3002
0000
,
0203
0000
0010
0000
0301
0010
0001
0000
,
1000
0100
1000
0000
0001
0000
0100
0000
,
0020
0030
0020
0030
1000
0001
0010
0100
,
0000
0000
0000
1000
0000
0000
0010
0000
0000
0100
0000
0000
0001
0000
0000
0000
0001
0000
0000
0000
1000
0000
0000
0000
,
1000
0000
0001
0000
0001
0000
2000
0000
0000
0000
0000
0000
,
0000
0000
3010
0000
,
0001
0100
0010
0000
1000
0000
0100
0000
,
0001
0010
0001
0000
0100
0000
1000
0000
,
0010
0001
0010
0000
0001
0000
0010
0000
,
1000
0100
1000
0000
0010
0000
0001
0000
,
0100
1000
0100
0000
1000
0000
0100
0000
,
0001
0010
0001
0000
0100
0000
1000
0000
,
0010
0001
0010
0000
1000
1000
0100
0000
,
0001
0001
0100
0000
0010
0100
0010
0000
,
0110
0000
0002
0000
,
0000
0000
2003
3100
,
0002
0103
2000
3010
,
0002
0013
0002
0010
,
0100
1000
2003
0100
,
0010
3001
0002
0100
,
0010
0000
0000
0100
0000
0000
0013
0000
0100
0000
1000
0000
,
0100
0000
0010
0000
0002
0000
0000
0000
0000
0000
0000
0000
,
0000
0000
0000
0000
,
0000
0000
0003
0000
,
0000
0000
0000
0000
,
0000
0000
0000
0001
,
1000
0001
1000
0000
,
0110
0000
0000
0000
;

//---------------dance-single - ----------------
#NOTEDATA:;
#CHARTNAME:;
#STEPSTYPE:dance-single;
#DESCRIPTION:;
#CHARTSTYLE:;
#DIFFICULTY:Hard;
#METER:15;
#RADARVALUES:0.641510,1.045319,0.760834,0.562355,0.272908,543.000000,451.000000,92.000000,68.000000,0.000000,0.000000,0.000000,0.000000,0.000000,0.641510,1.045319,0.760834,0.562355,0.272908,543.000000,451.000000,92.000000,68.000000,0.000000,0.000000,0.000000,0.000000,0.000000;
#CREDIT:;
#NOTES:
0000
0000
0000
0000
,
0000
0000
0000
0000
,
0000
0000
0000
0000
,
0000
0000
0000
0000
,
0000
0000
0000
0000
,
1001
0000
0001
0100
1000
0000
0100
0000
0010
0000
1000
0100
0001
0000
0100
0000
,
0110
0000
1000
0010
0001
0000
0100
0000
0010
0000
0001
0010
1000
0000
0100
0000
,
2002
0000
3003
0000
,
0101
0000
1100
0000
1001
0000
0101
0100
,
1001
0000
0001
0100
1000
0000
0100
0000
0010
0000
1000
0100
0001
0000
0100
0000
,
0110
0000
0001
0100
1000
0000
0100
0000
0010
0000
1000
0100
0001
0000
0100
0000
,
2002
0000
3003
0011
0110
1100
1001
0011
,
0220
0000
0330
0000
,
0000
0000
0000
0000
0000
0000
0000
0000
0001
0010
0001
0010
0100
0010
0100
0010
,
0100
1000
0100
1000
0010
1000
0010
1000
0001
0000
0001
0000
1000
0000
1000
0000
,
0001
0001
1000
1000
0010
0100
0010
0000
,
0100
0010
1001
0000
1100
0000
0102
0000
,
0013
0001
0100
0000
1010
0000
0021
0000
,
0130
1000
0010
0000
0101
0000
1200
0000
,
0310
0001
0100
0000
1100
0000
0201
0000
,
0310
1000
0100
0000
0011
0000
0210
0000
,
0301
0100
1000
0000
1010
0000
0120
0000
,
1030
0010
0001
0000
1000
2000
0002
3000
,
2000
0003
0002
3000
0103
0100
0010
0000
,
0110
0000
0200
0300
0001
0010
0000
0000
,
0000
0001
0010
0001
0000
1000
0100
0010
,
0001
0001
0010
0010
0100
0100
1000
1000
,
0001
0001
0001
0001
1010
1000
0001
0101
,
0000
0000
0110
0000
0100
0010
0100
0000
0002
0000
0000
0000
0013
0000
0000
0000
,
0001
0010
0001
0000
2000
0000
3100
0000
,
1000
0100
1000
0000
0010
1000
0100
0001
,
0100
1000
0000
1001
0000
0110
0110
1001
,
1001
0000
0200
0300
0102
0000
0000
0100
,
0020
0033
0011
0000
2100
0000
0000
0100
,
0020
3030
1010
0000
0012
0000
0000
0010
,
0200
0303
0101
0000
2010
0000
0000
0010
,
0200
3300
1100
0000
0102
0000
0000
0100
,
0020
0033
0101
0000
2100
0000
0000
0100
,
0020
3030
1100
0000
2002
0000
3000
1000
,
0200
0303
1001
0010
1020
1030
2000
3000
,
2000
0000
3000
0000
2000
0000
3000
0000
0100
1000
0100
1000
0100
0000
0000
0000
,
0010
0001
0010
0001
0010
0000
0000
0000
1002
0000
0103
0000
0010
0000
0001
0000
,
0020
0000
0130
0000
0010
0000
0000
0000
1001
0000
0000
0001
0100
0000
0100
0000
,
1000
0000
0000
1000
0100
0000
0001
0000
0100
0000
0000
0100
0001
0000
0010
0000
,
0010
0000
0000
0010
1000
0000
0100
0000
1000
0000
0001
0000
0200
0000
0000
0000
,
0310
0000
1001
0110
,
1002
0000
0003
1000
0200
0000
0301
0000
0001
0000
0000
1000
0010
0000
0100
0000
,
0001
0000
0000
0010
0100
0000
0100
0000
0010
0000
0000
1000
0100
0000
0100
0000
,
0001
0000
0000
0001
0010
0000
0100
0000
1000
0000
0000
0000
0000
0000
1000
0000
,
0100
0010
0100
1000
0001
0100
1010
0000
,
0101
0000
0000
0000
0011
0000
0000
0000
2001
0000
0000
0000
3100
0000
0100
0010
,
0002
0000
0000
0000
0013
0000
0010
0100
2000
0000
0000
0000
3100
0000
0000
0000
,
1002
0000
0013
0000
1000
0000
0100
0010
,
0000
0010
0100
1000
0001
0100
0010
0100
,
0020
0000
0030
0001
0000
0000
0020
0000
0030
0100
0000
0000
0010
0000
0000
1000
0000
0000
0010
0000
0000
1000
0000
0000
,
0100
0000
0000
0010
0000
0000
0100
0000
0000
0010
0000
0000
1100
0000
0000
0000
0101
0000
0000
0000
0011
0000
0000
0000
,
1001
0000
1100
0000
1010
0000
0002
0000
0000
0000
0000
0000
,
0000
0000
0103
0101
,
0100
0010
1001
0000
1100
0000
0102
0000
,
0013
0001
0100
0000
1010
0000
0021
0000
,
0130
1000
0010
0000
0101
0000
1200
0000
,
0310
0001
0100
0000
1100
0000
0201
0000
,
0310
1000
0100
0000
0011
0000
0210
0000
,
0301
0100
1000
0000
1010
0000
0120
0000
,
1030
0010
0001
0000
1000
2000
0002
3000
,
2000
0003
0002
3000
0103
0100
0010
0000
,
0110
0000
0200
0300
0002
0000
0000
0000
,
0000
0000
0000
0000
0000
0000
0000
0000
2003
0000
0000
0000
0100
0000
3100
0010
,
0002
0000
0000
0000
0010
0000
0013
0100
2000
0000
0000
0000
3100
0000
0000
0000
,
0100
0000
0000
0010
0000
0000
0100
0000
0001
0010
0100
0010
0001
0010
0100
0010
,
0001
0010
0100
0010
0001
0000
0010
0100
1000
0100
0010
0100
1000
0100
0010
0100
,
1000
0100
0010
0100
1000
0000
0000
0000
0001
0100
0010
1000
0001
0100
0010
1000
,
0001
0000
0000
0100
0000
0000
0010
0000
0000
1000
0000
0000
0001
0000
0010
0000
0100
0000
1000
0000
0001
0000
0010
0000
0001
0000
0000
0000
0000
0000
0000
0000
0011
0000
0000
0000
0000
0000
0000
0000
1000
0000
0000
0000
0000
0000
0000
0000
,
1100
0000
0110
0000
2002
0000
0000
0000
0000
0000
0000
0000
,
0000
0000
0000
0000
,
3003
0000
0000
0000
1000
0010
1000
0010
,
0100
0010
0100
0010
0100
0001
0100
0001
,
0010
0001
0010
0001
0000
0000
0011
0000
,
0011
1001
1001
0100
,
0010
0000
0000
0000
;

//---------------dance-double - ----------------
#NOTEDATA:;
#CHARTNAME:;
#STEPSTYPE:dance-double;
#DESCRIPTION:;
#CHARTSTYLE:;
#DIFFICULTY:Easy;
#METER:7;
#RADARVALUES:0.262275,0.326662,0.165399,0.198478,0.012405,222.000000,202.000000,20.000000,24.000000,0.000000,0.000000,0.000000,0.000000,0.000000,0.262275,0.326662,0.165399,0.198478,0.012405,222.000000,202.000000,20.000000,24.000000,0.000000,0.000000,0.000000,0.000000,0.000000;
#CREDIT:;
#NOTES:
00000000
00000000
00000000
00000000
,
00000000
00000000
00000000
00000000
,
00000000
00000000
00000000
00000000
,
00000000
00000000
00000000
00000000
,
00000000
00000000
00000000
00000000
,
00001000
00010000
00100000
01000000
,
00100000
01000000
00010000
01000000
,
00100000
01000000
00001000
00010000
,
00011000
00000000
00011000
00000000
,
00010000
00001000
00000100
00000010
,
00000100
00000010
00001000
00000010
,
00010000
00000100
00010000
00001000
,
00011000
00000000
00000000
00000000
,
00000000
00000000
00000000
00000000
,
00000000
00000000
00002000
00000000
,
00000000
00000000
00013000
00001000
,
00011000
00000000
00001000
00100000
,
01000000
01000000
10000000
00010000
,
01000000
01000000
00001000
00010000
,
00001000
00001000
00010000
00000100
,
00000010
00000010
00000001
00000100
,
00001000
00001000
00000100
00000010
,
00001000
00001000
00001100
00000000
,
00011000
00000000
00000100
00010000
,
00011000
00000000
00020000
00000000
,
00000000
00000000
20030000
00000000
,
00000000
00000000
30200000
00000000
,
02300000
00000000
03010000
01000000
,
00000000
00010000
01000000
00000000
00100000
00000000
00100000
00000000
,
10000000
10000000
01000000
01000000
,
00010000
00010000
00001000
00010000
,
00000100
00000000
00000000
00001000
00000000
00000000
00001001
00000000
,
00001001
00000010
00002000
00000000
,
00000000
00003100
00020000
00000000
,
00000000
01030000
20000000
00000000
,
00000000
30010000
00200000
00000000
,
00000000
01300000
00002000
00000000
,
00000000
00013000
00000020
00000000
,
00000000
00000130
00020000
00000000
,
00000000
00031000
00010000
00010000
,
00010000
00000000
00010000
00000000
00001000
00010000
00000000
00000000
,
00001000
00100000
00000000
00000000
00010000
00000000
10000000
00000000
,
10010000
00000000
10000000
01000000
,
00010000
01000000
10000000
00010000
,
01000000
00100000
01100000
00000000
,
10010000
00000000
10000000
00010000
,
10010000
00000000
01000000
01000000
,
00001000
00001000
00010000
00010000
,
00000010
00000010
00001000
00000000
,
00000001
00000000
00001000
00000010
,
00000110
00001001
00000001
00000000
,
00000010
00000000
00010000
00000000
,
01000000
00000000
00100000
10000000
,
00100000
01000000
00010000
00100000
,
00010000
00100000
00001000
00010000
,
00001000
00010000
00000020
00000000
,
00000230
00000000
00002300
00000000
,
00000000
00000000
00013000
00001000
,
00011000
00000000
00001000
00100000
,
01000000
01000000
10000000
00010000
,
01000000
01000000
00001000
00010000
,
00001000
00001000
00010000
00000100
,
00000010
00000010
00000001
00000100
,
00001000
00001000
00000100
00000010
,
00001000
00001000
00001100
00000000
,
00011000
00000000
00000100
00010000
,
00011000
00001000
00000000
00000000
,
00000000
00000000
00200000
00000000
,
02300000
00000000
03200000
00000000
,
00302000
00000000
00023000
00000000
,
00001000
00000000
00030020
00000000
,
00000100
00000030
00020000
00000000
,
00001000
00000000
00000000
00000000
00000000
00000000
00031000
00000000
00000000
00000000
00010000
00000000
,
00000000
00000000
00002000
00000000
00020000
00000000
00000000
00000000
00000000
00000000
00000000
00000000
,
00000000
00000000
00000000
00000000
,
00000000
00000000
00033000
00000000
,
00000000
00000000
00000000
00000000
,
00000000
00000000
00000000
00000000
,
00000000
00000000
00000000
00000000
,
00011000
00000000
00000000
00000000
;

//---------------dance-double - ----------------
#NOTEDATA:;
#CHARTNAME:;
#STEPSTYPE:dance-double;
#DESCRIPTION:;
#CHARTSTYLE:;
#DIFFICULTY:Medium;
#METER:11;
#RADARVALUES:0.378054,0.555326,0.215018,0.264638,0.033080,320.000000,294.000000,26.000000,32.000000,0.000000,0.000000,0.000000,0.000000,0.000000,0.378054,0.555326,0.215018,0.264638,0.033080,320.000000,294.000000,26.000000,32.000000,0.000000,0.000000,0.000000,0.000000,0.000000;
#CREDIT:;
#NOTES:
00000000
00000000
00000000
00000000
,
00000000
00000000
00000000
00000000
,
00000000
00000000
00000000
00000000
,
00000000
00000000
00000000
00000000
,
00000000
00000000
00000000
00000000
,
00002000
00010000
00203000
00010000
,
00302000
00010000
00203000
00010000
,
00302000
00013000
00001000
00000000
,
00001000
00010000
00011000
00001000
,
00020000
00001000
00030020
00001000
,
00020030
00001000
00030020
00001000
,
00010030
00001000
00010000
00001000
,
00011000
00000000
00000000
00000000
,
00000000
00000000
00000000
00000000
,
00000000
00000000
00000000
00000000
00001000
00001000
00010000
00010000
,
00001000
00001000
00010000
00010000
00001000
00000000
00000000
00000000
,
00010000
00001000
00010000
00000000
00100000
00000000
00100000
00000000
,
10000000
01000000
10000000
00000000
00010000
00000000
00010000
00000000
,
00100000
00001000
00100000
00000000
00000100
00000000
00000100
00000000
,
00000010
00001000
00000010
00000000
00010000
00000000
00010000
00000000
,
01000000
00001000
01000000
00000000
00100000
00000000
00100000
00000000
,
00001000
00000100
00000010
00000000
00000100
00000000
00000100
00000000
,
00010000
00100000
01000000
00000000
00100000
00100000
10000000
00000000
,
01000000
01000000
00010000
00000000
10000000
00010000
10000000
00000000
,
10010000
00000000
00020000
00030000
02000000
00000000
00000000
00000000
,
00000000
00000000
00000000
00000000
03000000
00001000
00010000
00001000
,
00010000
00000100
00010000
00000100
00001000
00001000
00000010
00000010
,
00000100
00000001
00000100
00000001
00000010
00000010
00000100
00000100
,
00000000
00001000
00000001
00000000
00000100
00000000
00000101
00000000
,
00000100
00001100
00010000
00011000
,
00010000
00000000
01010000
00000000
01000000
00100000
10000000
00100000
,
10000000
01000000
00000000
00100000
00000000
00001000
00001000
00010000
,
00010000
00011000
00000002
00000000
,
00000003
00001001
00200000
00000000
,
00300000
00110000
00000200
00000000
,
00000300
00000110
00020000
00000000
,
00030000
10010000
00002000
00000000
,
00003000
00001100
02000000
00000000
,
03000000
01010000
00000002
00000000
,
00000003
00001001
00010010
00101000
,
01001000
00000000
10100000
00000000
01000000
00010000
00000000
00000000
,
00000100
00010000
00000000
00000000
01000000
00010000
00001000
00000100
,
00010000
00000000
00002000
00000010
,
00023000
00100000
00031000
00010000
,
00011000
00000000
00100000
01000000
00100000
00000000
00000000
00000000
,
01000000
00000000
10000000
00010000
,
10010000
00000000
10000000
01000000
00010000
00000000
00001000
00000000
,
00010000
00000000
00001000
00000100
00000010
00000000
00000100
00000000
,
00000010
00000000
00001000
00010000
00100000
00000000
00000000
00000000
,
00100000
00000000
01000000
01100000
,
00110000
00011000
00000020
00000030
,
00200000
00300000
00000020
00000030
,
00200000
00000000
00300000
00000000
00010000
00000000
10000000
01000000
,
00000000
10000000
00010000
00000000
01000000
00000000
00100000
00000000
,
00010000
00001000
00010000
00000000
00000100
00000000
00000010
00000100
,
00000000
00000000
00000000
00010000
00000000
00000000
00000100
00000000
00000000
00000000
00000000
00000000
00001000
00000000
00000000
00000000
00001000
00000000
00000000
00000000
00010000
00000000
00000000
00000000
,
00010000
00000000
00100000
00000000
00100000
00000000
00002000
00000000
00000000
00000000
00000000
00000000
,
00000000
00000000
00013000
00000000
,
00010000
00001000
00010000
00000000
00100000
00000000
00100000
00000000
,
10000000
01000000
10000000
00000000
00010000
00000000
00010000
00000000
,
00100000
00001000
00100000
00000000
00000100
00000000
00000100
00000000
,
00000010
00001000
00000010
00000000
00010000
00000000
00010000
00000000
,
01000000
00001000
01000000
00000000
00100000
00000000
00100000
00000000
,
00001000
00000100
00000010
00000000
00000100
00000000
00000100
00000000
,
00010000
00100000
01000000
00000000
00100000
00100000
10000000
00000000
,
01000000
01000000
00010000
00000000
10000000
00010000
10000000
00000000
,
10010000
00000000
00020000
00030000
02000000
00000000
00000000
00000000
,
00000000
00000000
03200000
10000000
,
02300000
00010000
03200000
10000000
,
00320000
00000000
00001000
00000000
00030100
00000010
00000001
00000010
,
00000100
00001000
00010000
00000000
00100000
01000000
10000000
01000000
,
00100000
00010000
00001000
00000000
00000100
00010000
00001000
00010000
,
00000100
00000000
00000000
00010000
00000000
00000000
00001000
00000000
00000000
00000000
00000000
00000000
00010000
00000000
00000000
00000000
00000100
00000000
00000000
00000000
00000010
00000000
00000000
00000000
,
00000001
00000000
00000100
00000000
00002000
00000000
00000000
00000000
00000000
00000000
00000000
00000000
,
00000000
00000000
00000000
00000000
,
00000000
00000000
00003000
00000000
,
00000000
00000000
00000000
00000000
,
00000000
00000000
00000000
00010000
,
00001000
00010000
00001000
00000000
,
00011000
00000000
00000000
00000000
;

//---------------dance-double - ----------------
#NOTEDATA:;
#CHARTNAME:;
#STEPSTYPE:dance-double;
#DESCRIPTION:;
#CHARTSTYLE:;
#DIFFICULTY:Hard;
#METER:15;
#RADARVALUES:0.568262,1.110652,0.512736,0.413497,0.215018,481.000000,419.000000,62.000000,50.000000,0.000000,0.000000,0.000000,0.000000,0.000000,0.568262,1.110652,0.512736,0.413497,0.215018,481.000000,419.000000,62.000000,50.000000,0.000000,0.000000,0.000000,0.000000,0.000000;
#CREDIT:;
#NOTES:
// measure 0
00000000
00000000
00000000
00000000
,  // measure 1
00000000
00000000
00000000
00000000
,  // measure 2
00000000
00000000
00000000
00000000
,  // measure 3
00000000
00000000
00000000
00000000
,  // measure 4
00000000
00000000
00000000
00000000
,  // measure 5
00000001
00000000
00000010
00000000
00001000
00000000
00010000
00001000
00010000
00000000
01000000
00000000
10000000
00000000
00100000
00000000
,  // measure 6
01000000
00000000
00010000
00000000
10000000
00000000
01000000
00100000
01000000
00000000
00010000
00000000
00001000
00000000
00010000
00000000
,  // measure 7
00000020
00000130
00001000
00000000
,  // measure 8
00011000
00000000
00110000
00000000
00011000
00000000
01000000
00100000
,  // measure 9
10000000
00000000
01000000
00000000
00010000
00000000
00001000
00010000
00001000
00000000
00000010
00000000
00000001
00000000
00000100
00000000
,  // measure 10
00000010
00000000
00001000
00000000
00000001
00000000
00000100
00000010
00000100
00000000
00001000
00000000
00010000
00000000
00001000
00000000
,  // measure 11
00000020
00000000
00000000
00000000
00000030
00000000
00000100
00000001
00000010
00000000
00001000
00000000
00010000
00000000
00100000
00000000
,  // measure 12
01000000
00000000
00000000
00000000
,  // measure 13
00000000
00000000
00000000
00000000
00000000
00000000
00000000
00000000
01000000
00001000
01000000
00001000
00010000
00001000
00010000
00001000
,  // measure 14
01000000
00010000
01000000
00010000
10000000
00010000
10000000
00010000
00100000
00000000
00100000
00000000
01000000
00000000
01000000
00000000
,  // measure 15
00010000
00010000
00001000
00001000
00000200
00000000
00000310
00000000
,  // measure 16
00000100
00000010
00001001
00000000
00000011
00000000
00000100
00000000
,  // measure 17
00100000
00010000
00100000
00000000
10100000
00000000
01000000
00000000
,  // measure 18
00000010
00001000
00000010
00000000
00000110
00000000
00000001
00000000
,  // measure 19
00001000
00010000
01000000
00000000
01100000
00000000
10000000
00000000
,  // measure 20
00010000
00001000
00000100
00000000
00000011
00000000
00001000
00000000
,  // measure 21
01000000
00100000
01000000
00000000
10100000
00000000
00010000
00000000
,  // measure 22
00000100
00000010
00000100
00000000
00100000
00100000
00010000
00000000
,  // measure 23
00000010
00000010
00001000
00000000
00010000
00001000
00010000
00000000
,  // measure 24
00011000
00000000
00002000
00003000
00100000
01000000
00000000
00000000
,  // measure 25
00000000
10000000
01000000
00100000
00000000
00001000
00010000
00001000
,  // measure 26
00000100
00000100
00000010
00000010
00001000
00001000
00000001
00000001
,  // measure 27
00001000
00001000
00010000
00010000
00100000
01000000
10000000
00010000
,  // measure 28
00000000
00000000
01100000
00000000
00100000
01000000
00100000
00000000
20000000
00000000
00000000
00000000
31000000
00000000
00000000
00000000
,  // measure 29
10000000
01000000
10000000
00000000
00002000
00000000
00013000
00000000
,  // measure 30
00001000
00010000
00001000
00000000
00000100
00000010
00000100
00000010
,  // measure 31
00001000
00000001
00000000
00001001
00000000
00000110
00000110
00001001
,  // measure 32
00001001
00000000
00000200
00000300
00002020
00000000
00003000
00001000
,  // measure 33
00020000
00030030
00010010
00000000
00220000
00000000
00030000
00010000
,  // measure 34
00002000
00303000
00101000
00000000
00002002
00000000
00000003
00000001
,  // measure 35
00000200
00003300
00010010
00000000
20020000
00000000
30000000
10000000
,  // measure 36
02000000
03030000
00101000
00000000
00020020
00000000
00030000
00010000
,  // measure 37
00000200
00000330
00000101
00000000
00202000
00000000
00003000
00001000
,  // measure 38
02000000
03300000
11000000
00000000
00022000
00000000
00030000
00100000
,  // measure 39
00020000
00033000
00011000
00000000
00001001
00000000
00011000
00000000
,  // measure 40
10010000
00000000
00011000
00000000
00000001
00000100
00000000
00000000
,  // measure 41
00100000
00001000
00000000
00000000
00000001
00000010
00010000
01000000
,  // measure 42
20000000
31000000
00012000
00000010
,  // measure 43
00023000
00100000
00031000
00010000
,  // measure 44
00011000
00000000
00000100
00000010
00001000
00000000
00010000
00000000
,  // measure 45
00011000
00000000
00110000
00011000
,  // measure 46
00002100
00003000
00000020
00001030
00000200
00000000
00000010
00000000
,  // measure 47
00001000
00010300
02010000
00100000
,  // measure 48
00010000
03001000
00000110
00000000
,  // measure 49
01100000
00000000
00000000
00000000
00000100
00000010
00000110
00000000
,  // measure 50
00001001
00000000
00000000
00000000
00000110
00000000
00000000
00000000
00000102
00000000
00000000
00000000
00000103
00000000
00000001
00000100
,  // measure 51
00002000
00000000
00000000
00000000
00013000
00000000
00001000
00010000
02000000
00000000
00000000
00000000
13000000
00000000
01000000
10000000
,  // measure 52
00200000
00000000
01300000
00000000
01100000
00000000
01000000
00001000
,  // measure 53
00000000
00001000
00010000
00000100
00000010
00000100
00010000
00001000
,  // measure 54
00020000
00031000
00200000
00310000
01000000
00001000
00000100
00000010
,  // measure 55
00000000
00000000
00000000
00000010
00000000
00000000
00001000
00000000
00000000
00000100
00000000
00000000
00010000
00000000
00000000
00000000
00100000
00000000
00000000
00000000
10100000
00000000
00000000
00000000
,  // measure 56
00010000
00000000
00001000
00000000
00001100
00000000
00000200
00000000
00000000
00000000
00000000
00000000
,  // measure 57
00000000
00000000
00000300
00000000
,  // measure 58
00000100
00000010
00001001
00000000
00000011
00000000
00000100
00000000
,  // measure 59
00100000
00010000
00100000
00000000
10100000
00000000
01000000
00000000
,  // measure 60
00000010
00001000
00000010
00000000
00000110
00000000
00000001
00000000
,  // measure 61
00001000
00010000
01000000
00000000
01100000
00000000
10000000
00000000
,  // measure 62
00010000
00001000
00000100
00000000
00000011
00000000
00001000
00000000
,  // measure 63
01000000
00100000
01000000
00000000
10100000
00000000
00010000
00000000
,  // measure 64
00000100
00000010
00000100
00000000
00100000
00100000
00010000
00000000
,  // measure 65
00000010
00000010
00001000
00000000
00010000
00001000
00010000
00000000
,  // measure 66
00011000
00000000
00002000
00003000
00200000
00000000
00000000
00000000
,  // measure 67
00000000
00000000
00000000
00000000
00000000
00000000
00000000
00000000
00320000
00000000
00000000
00000000
00000000
00000000
10030000
01000000
,  // measure 68
00020000
00000000
00000000
00000000
00000000
00000000
00031000
00000100
00000002
00000000
00000000
00000000
00000000
00000000
00000000
00000000
,  // measure 69
00000013
00000000
00000000
00000100
00000000
00000000
00001000
00000000
00010000
00100000
01000000
00100000
00010000
00100000
01000000
00100000
,  // measure 70
00010000
00100000
01000000
00100000
00010000
00100000
01000000
00000000
00001000
00000100
00000010
00000100
00001000
00000100
00000010
00000100
,  // measure 71
00001000
00000100
00000010
00000100
00001000
00000100
00000010
00000000
00010000
00001000
00100000
00001000
00010000
00000100
00010000
00001000
,  // measure 72
00100000
00000000
00000000
00001000
00000000
00000000
00010000
00000000
00000000
00000100
00000000
00000000
00010000
00000000
00001000
00000000
00100000
00000000
00001000
00000000
00010000
00000000
00000100
00000000
00010000
00000000
00000000
00000000
00000000
00000000
00000000
00000000
01010000
00000000
00000000
00000000
00000000
00000000
00000000
00000000
00001000
00000000
00000000
00000000
00000000
00000000
00000000
00000000
,  // measure 73
00001100
00000000
00010000
00000000
00022000
00000000
00000000
00000000
00000000
00000000
00000000
00000000
,  // measure 74
00000000
00000000
00000000
00000000
,  // measure 75
00033000
00000000
00000000
00000000
00000100
00010000
00000100
00010000
,  // measure 76
00001000
00010000
00001000
00010000
00000100
00001000
00000100
00001000
,  // measure 77
00000010
00001000
00000010
00001000
00000000
00000000
00010000
00000000
,  // measure 78
00010000
00001000
00001000
00020000
,  // measure 79
00031000
00000000
00000000
00000000
;
