#TITLE:Satisfiction;
#SUBTITLE:;
#ARTIST:t+pazolite;
#TITLETRANSLIT:;
#SUBTITLETRANSLIT:;
#ARTISTTRANSLIT:;
#GENRE:;
#CREDIT:;
#BANNER:;
#BACKGROUND:;
#LYRICSPATH:;
#CDTITLE:;
#MUSIC:Satisfiction.mp3;
#OFFSET:0.560000;
#SAMPLESTART:84.343002;
#SAMPLELENGTH:15.000000;
#SELECTABLE:YES;
#BPMS:0.000000=195.000000
;
#STOPS:
;
#BGCHANGES:;
#KEYSOUNDS:;
#ATTACKS:;

//---------------dance-single - ----------------
#NOTES:
     dance-single:
     :
     Beginner:
     3:
     0.141723,0.201785,0.026107,0.078321,0.000000,114.000000,111.000000,3.000000,9.000000,0.000000,0.000000,0.141723,0.201785,0.026107,0.078321,0.000000,114.000000,111.000000,3.000000,9.000000,0.000000,0.000000:
0000
0000
0000
0000
,
0000
0000
0000
0000
,
0000
0000
0000
0000
,
0000
0000
0000
0000
,
0000
0000
0000
0000
,
1000
0000
0000
0000
,
1000
0000
0001
0000
,
1000
0000
0000
0000
,
1000
0000
0001
0000
,
1000
0000
0000
0000
,
0001
0000
1000
0000
,
0001
0000
0000
0000
,
0001
0000
1000
0000
,
0001
0000
0000
0000
,
0010
0000
0001
0000
,
0010
0000
0000
0000
,
0010
0000
0001
0000
,
0010
0000
0000
0000
,
0001
0000
0100
0000
,
0001
0000
0000
0000
,
0001
0000
1000
0000
,
0002
0000
0000
0000
,
0000
0000
0000
0000
,
2003
0000
0000
0000
,
0000
0000
0000
0000
,
3100
0000
0000
0000
,
0100
0000
0000
0000
,
1000
0000
0000
0000
,
0001
0000
0000
0000
,
2000
0000
0000
0000
,
3002
0000
0000
0000
,
2003
0000
0000
0000
,
3020
0000
0000
0000
,
0130
0000
0000
0000
,
0100
0000
0000
0000
,
0002
0000
0000
0000
,
1003
0000
0000
0000
,
0001
0000
0000
0000
,
0001
0000
0001
0000
,
1000
0000
0000
0000
,
1000
0000
2000
0000
,
3010
0000
0000
0000
,
0010
0000
0010
0000
,
1000
0000
0000
0000
,
1000
0000
0001
0000
,
1000
0000
0000
0000
,
1000
0000
0000
0000
,
1000
0000
0001
0000
,
0100
0000
0000
0000
,
0010
0000
0000
0000
,
0010
0000
0000
0000
,
0010
0000
0010
0000
,
1000
0000
1000
0000
,
0001
0000
0000
0000
,
0001
0000
0000
0000
,
1001
0000
0000
0000
,
1000
0000
0000
0000
,
0110
0000
0000
0000
,
0001
0000
0000
0000
,
1010
0000
0000
0000
,
0001
0000
0000
0000
,
1000
0000
0000
0000
,
1000
0000
0000
0000
,
1000
0000
0000
0000
,
1000
0000
0000
0000
,
0001
0000
0000
0000
,
0001
0000
0000
0000
,
0100
0000
0000
0000
,
0010
0000
0000
0000
,
1000
0000
1000
0000
,
1000
0000
0000
0000
,
0001
0000
0100
0000
,
0001
0000
0000
0000
,
1000
0000
1000
0000
,
1000
0000
0000
0000
,
0010
0000
1000
0000
,
0010
0000
0000
0000
,
1000
0000
0000
0000
,
1000
0000
0000
0000
,
0001
0000
0001
0000
,
1000
0000
0000
0000
,
0010
0000
0000
0000
,
0010
0000
0000
0000
,
0100
0000
0100
0000
,
0001
0000
0000
0000
,
1000
0000
0000
0000
,
0001
0000
0001
0000
,
0100
0000
0000
0000
,
0001
0000
1000
0000
,
0001
0000
0000
0000
,
1000
0000
1000
0000
,
0010
0000
0000
0000
,
0100
0000
0020
0030
;

//---------------dance-single - ----------------
#NOTES:
     dance-single:
     :
     Easy:
     7:
     0.320742,0.403570,0.139237,0.261069,0.000000,258.000000,242.000000,16.000000,30.000000,0.000000,0.000000,0.320742,0.403570,0.139237,0.261069,0.000000,258.000000,242.000000,16.000000,30.000000,0.000000,0.000000:
0000
0000
0000
0000
,
0000
0000
0000
0000
,
0000
0000
0000
0000
,
0000
0000
0000
0000
,
0000
0000
0000
0000
,
1000
0000
0000
1000
0000
1000
0000
1000
,
0000
0000
0010
0000
,
0100
0000
0100
0000
,
1002
0000
1003
0000
,
0001
0000
0000
0001
0000
0001
0000
0001
,
0000
0000
1000
0000
,
0010
0000
0010
0000
,
1002
0000
0000
0103
,
0010
0000
0000
0010
0000
0010
0000
0010
,
0000
0000
1000
0000
,
0001
0000
0001
0000
,
1020
0000
0130
0000
,
0001
0000
0000
1000
0000
1000
0000
0100
,
0000
0000
0010
0000
,
0001
1000
0001
0010
,
0200
0000
0310
0000
,
1002
0000
0000
0000
,
0203
0000
0000
0000
,
2300
0000
0000
0000
,
3200
0000
0000
0000
,
0301
1000
0000
1000
,
0001
0100
0000
0100
,
1000
0100
0000
0100
,
0001
0010
0100
0000
,
2002
3000
0000
0000
,
2003
0000
0000
0000
,
3200
0000
0000
0000
,
0320
0000
0000
0000
,
0032
0000
0000
0100
0000
0000
0000
0000
,
2003
0000
0000
0100
0000
0000
0000
0000
,
3002
0000
0000
0000
,
0203
0000
0000
0310
,
1000
1000
1000
1000
,
0001
0100
0001
0010
,
0001
0001
0001
0001
,
1000
0010
0200
0000
,
0310
0010
0010
0010
,
1000
0001
0100
0100
,
0010
0010
1000
1000
,
0001
0000
0001
0000
,
1000
0100
0010
0010
,
0001
0100
0010
0010
,
1000
0000
1000
0001
,
0100
0000
0100
0001
,
1000
1000
0010
0100
,
0001
0001
0100
0010
,
1000
0000
1000
0000
,
0002
0000
2003
0000
,
3001
0001
1000
0000
,
0100
0010
0001
0000
,
1000
0000
1001
0000
,
0001
1000
0100
0000
,
1000
0001
0100
0000
,
0001
0000
1100
0000
,
1000
0010
0100
0001
,
0010
0010
0010
0000
,
1002
0000
0013
0000
,
0100
0100
0100
0000
,
2100
0000
3001
0000
,
0100
0100
0100
0000
,
0000
1001
0000
0110
,
0000
1001
0000
0110
,
0010
1000
0001
0200
,
0000
0320
0000
0130
,
0001
0001
0001
0010
,
0100
0100
1000
0010
,
0100
0100
0100
1000
,
0001
0010
2000
0000
,
3001
0010
0001
1000
,
0001
0010
0100
1000
,
0010
1000
0001
1000
,
0200
0000
0320
0000
,
0031
1000
0001
0001
,
0100
0010
0100
0100
,
0001
0010
0100
1000
,
0010
0100
0002
0000
,
1003
0100
1000
1000
,
0001
0010
0100
0100
,
1000
0001
0010
0100
,
1000
0001
0100
0010
,
1000
0000
0000
1000
0000
1000
0000
1000
,
0000
0000
0001
0000
,
0100
0000
0100
0000
,
1002
0000
0013
0000
,
0100
0000
0000
0010
0000
0010
0000
0001
,
0000
0000
1000
0000
,
0001
0000
0001
0000
,
0210
0000
0301
1001
;

//---------------dance-single - ----------------
#NOTES:
     dance-single:
     :
     Medium:
     9:
     0.426413,0.484284,0.217558,0.139237,0.000000,343.000000,318.000000,25.000000,16.000000,0.000000,0.000000,0.426413,0.484284,0.217558,0.139237,0.000000,343.000000,318.000000,25.000000,16.000000,0.000000,0.000000:
0000
0000
0000
0000
,
0000
0000
0000
0000
,
0000
0000
0000
0000
,
0000
0000
0000
0000
,
0000
0000
0000
0000
,
1000
0000
0000
0010
0000
0010
0000
1000
,
0001
0010
0100
1000
,
0100
1000
0001
0010
,
0100
0000
0000
1001
0000
0000
0110
0000
,
0001
0000
0000
0100
0000
0001
0000
0001
,
1000
0100
0010
0001
,
1000
0010
0100
0001
,
0010
0000
0100
0000
1000
0001
1000
0000
,
0010
0000
0000
0010
0000
0010
0000
1000
,
0001
0100
1000
0100
,
0001
0010
0100
1000
,
0001
0000
0000
0110
0000
0000
1001
0000
,
0010
0000
0000
0001
0000
0001
0000
0001
,
1000
0000
0000
1000
0000
1000
0000
1000
,
0001
0010
0100
0000
1000
0100
0010
0000
,
0001
0100
0010
1000
,
0012
0000
1000
0000
,
2003
0000
0001
0000
,
3200
0000
0010
0000
,
2300
0000
0010
0000
,
3001
0101
0000
1000
,
0100
1100
0000
1000
,
0010
0101
0000
0001
,
1000
1000
0001
0000
,
0120
0000
0000
0000
,
2030
0000
0000
0000
,
3002
0000
0000
0000
,
0203
0000
0000
0000
,
0301
0000
0000
0001
0000
0000
0000
0000
,
1000
0000
0000
1000
0000
0000
0000
0000
,
0010
0000
0000
0010
0000
0000
0000
0000
,
0200
0000
0010
0000
,
0310
0000
1000
0000
0100
0000
0010
0001
,
0000
0010
0001
0000
1000
0000
1000
0000
,
0001
0000
0010
0000
0100
0000
1000
0010
,
0000
1000
0001
0000
0102
0000
0000
0000
,
1003
0000
0010
0000
0100
0000
0001
0100
,
0000
1000
0100
0000
0001
0000
0010
0000
,
0100
0000
1000
0000
0100
0000
0010
0001
,
0000
0010
1000
0000
0012
0000
0000
0000
,
0103
0000
0010
1000
0000
1000
0000
0000
,
0001
0000
0010
0100
0000
0100
0000
0000
,
1000
0000
0001
0010
0000
0100
1000
0000
,
0001
0010
1001
0100
,
1000
0010
0000
0100
0000
0100
0000
0000
,
0001
0010
0000
0100
0000
0100
0000
1000
,
0001
0000
0100
0000
0001
1000
0001
0000
,
1000
0100
0010
0001
,
0000
0001
1000
0100
,
1000
0100
0110
0000
,
0001
0100
1000
0001
,
0100
1000
1001
0000
,
1000
0100
0001
0010
,
1000
0010
1001
0000
,
0001
0100
1000
0001
,
0100
0010
1001
0000
,
0001
0100
0100
0001
,
0100
1000
0100
0000
,
0010
1000
1000
0100
,
0001
0001
0100
0000
,
1000
1010
0001
0100
,
0010
0100
0110
0000
,
0001
0000
0001
0000
1000
0001
1000
0001
,
0000
0120
0000
0130
,
0001
0000
0001
0000
1000
0000
0010
0100
,
0000
0100
0010
0000
1000
0000
0100
0000
,
0010
0000
0001
0000
1000
0000
0100
0001
,
0000
0100
1000
0000
0102
0000
0000
0000
,
1003
0000
0010
0000
1000
0000
0001
0010
,
0000
0100
1000
0000
0001
0000
0100
0000
,
1000
0000
0100
0000
0001
0000
0010
0100
,
0000
1000
0001
0000
0120
0000
0000
0000
,
0130
0001
0000
1000
0000
1000
0000
0000
,
0001
0010
0000
0100
0000
0100
0000
0000
,
1000
0001
0100
0010
,
1000
0100
0012
0000
,
1003
0100
0000
0010
0000
0010
0000
0000
,
0001
0100
0000
0010
0000
0010
0000
1000
,
0001
0010
0100
1000
,
1002
0000
0103
0000
,
0001
0000
0000
0001
0000
0001
0000
0001
,
0010
0100
1000
0001
,
1000
0100
0001
0100
,
0001
0000
0000
1010
0000
0000
0101
0000
,
1000
0000
0000
1000
0000
0010
0000
0010
,
0100
0001
0010
0100
,
1000
0001
0100
0010
,
1000
0000
0100
0000
0010
0001
0100
0000
;

//---------------dance-single - ----------------
#NOTES:
     dance-single:
     :
     Hard:
     13:
     0.708617,0.728383,0.591757,0.121832,0.017405,570.000000,502.000000,68.000000,14.000000,0.000000,0.000000,0.708617,0.728383,0.591757,0.121832,0.017405,570.000000,502.000000,68.000000,14.000000,0.000000,0.000000:
0000
0000
0000
0000
,
0000
0000
0000
0000
,
0000
0000
0000
0000
,
0000
0000
0000
0000
,
0000
0000
0000
0000
,
0101
0000
0000
1100
0000
1010
0000
1001
,
1000
0000
0100
0010
0000
0001
0100
0000
,
0010
0001
0010
1000
0100
0010
0001
0000
,
0100
1000
0100
0010
1000
0001
0010
0000
,
0011
0000
0000
1100
0000
1001
0000
1010
,
0010
0000
0100
0001
0000
0010
1000
0000
,
0010
0001
0100
0010
1000
0100
0010
0000
,
0001
0100
0010
0100
0001
1000
0001
0000
,
1001
0000
0000
1100
0000
1010
0000
0101
,
0010
0000
0100
0001
0000
0100
1000
0000
,
0010
0001
0100
0010
1000
0100
0010
0000
,
1000
0010
0001
0100
0010
1000
0100
0000
,
0101
0000
0000
0101
0000
1100
0000
0001
,
0101
0000
0000
1001
0000
0000
1100
0000
,
0010
0100
1000
0100
0001
0010
1000
0010
,
0100
0000
1000
0000
0001
0000
0100
0000
0010
0000
1000
0000
0100
1000
0001
0000
,
1000
0100
0010
0001
0000
0200
0000
0000
,
1300
0100
0001
0010
0000
0200
0000
0000
,
0301
0100
1000
0010
0000
0200
0000
0301
,
0000
0010
0100
1000
0020
0000
0000
0000
,
1030
0100
0010
0001
0000
1100
0000
0000
,
0001
0100
0010
1000
0000
0011
0000
0000
,
0100
0010
0001
0100
0000
1001
0000
1100
,
0000
0010
1000
0010
0100
0000
0001
0000
,
0012
0000
0000
1000
0000
1003
0000
0000
,
2100
0000
0000
0001
0000
3001
0000
0000
,
0210
0000
0000
0001
0000
0301
0000
0001
,
0000
0001
0010
0100
1000
0000
1010
0000
,
2000
0000
0000
0100
0000
3100
0000
0000
,
0002
0000
0000
0100
0000
0103
0000
0000
,
0020
0000
0000
1000
0000
0100
0130
0000
,
0001
1000
0100
0010
0001
1000
0010
0000
,
1000
0100
1000
0100
0001
0100
0001
0100
,
1000
0010
0100
0001
0010
0100
1000
0000
,
0001
0010
0001
0010
1000
0010
1000
0010
,
0001
0100
0010
1000
0100
0010
0001
0000
,
0100
0010
0100
0010
0100
1000
0100
1000
,
0001
0010
1000
0001
0010
0100
1000
0000
,
0001
0010
0001
0010
1000
0010
1000
0010
,
0001
0100
0010
1000
0100
0010
0001
0000
,
1000
0100
0001
0100
0000
1100
0000
0000
,
0001
0100
1000
0100
0000
0101
0000
0000
,
1000
0100
0010
0000
0001
0100
0010
0000
,
0100
0001
0010
1000
0010
0001
0100
0000
,
0001
1000
0100
1000
0000
1100
0000
0000
,
1000
0001
0100
0001
0000
0011
0000
1100
,
1000
0010
0100
0001
0100
1000
0100
0001
,
0010
1000
0010
0100
1000
0001
0100
0000
,
1010
0000
0001
0000
1000
0000
0100
0010
,
0001
1100
0101
1100
,
0001
0000
0010
0100
1000
0000
0001
0000
,
0012
1000
0103
1100
,
0102
0000
0010
0000
1003
0000
0100
1000
,
0010
0100
0001
0000
1020
0000
0130
0000
,
0011
0100
1001
0010
,
0100
0001
0010
0100
1000
0000
0001
0000
,
0101
1000
0100
0010
,
0001
1100
0101
0000
,
0010
0100
0001
0010
,
0100
1010
0101
0000
,
0001
0101
1000
1100
,
0001
0011
1000
1010
,
1000
0000
0100
0000
0010
0000
0001
0000
0100
0010
0100
0010
0100
0010
1000
0000
,
0000
1000
1000
0004
0000
0000
1003
0000
,
1000
0100
1000
0100
0001
0100
0001
0100
,
1000
0010
0001
0001
0010
0100
1000
0000
,
0001
0010
0001
0010
1000
0010
1000
0010
,
0001
0100
1000
1000
0100
0010
0001
0000
,
1000
0100
0010
0001
0100
1000
0001
0010
,
1000
0100
0010
0001
0010
1000
0010
0000
,
0001
0100
1000
0100
0010
1000
0001
0010
,
0100
1000
0100
0010
0001
0000
1001
0000
,
0001
1000
0010
0100
0000
0101
0000
0000
,
0100
0010
1000
0100
0000
1010
0000
0000
,
0001
0100
0010
0000
1000
0001
0010
0000
,
0100
0010
0001
0100
0010
0000
1001
0000
,
0010
1000
0010
0100
0000
1001
0000
0000
,
1000
0001
0100
0010
0000
1001
0000
0110
,
1001
0100
0011
0100
,
1000
1000
0001
0010
0100
0000
0001
0000
,
0011
0000
0000
1100
0000
0101
0000
1100
,
0001
0010
0100
1000
0010
0100
0001
0000
,
0100
1000
0001
0010
1000
0100
0010
0000
,
1000
0010
0001
0100
0010
1000
1010
0000
,
0101
0000
0000
1100
0000
0011
0000
1100
,
0001
0010
1000
0010
0001
0010
1000
0000
,
0100
0010
0100
0001
0010
0100
1000
0000
,
0010
0100
0001
0010
0001
1000
0002
0000
,
0003
0000
0000
0000
;

//---------------dance-double - ----------------
#NOTES:
     dance-double:
     :
     Easy:
     7:
     0.295879,0.322856,0.095725,0.121832,0.000000,238.000000,227.000000,11.000000,14.000000,0.000000,0.000000,0.295879,0.322856,0.095725,0.121832,0.000000,238.000000,227.000000,11.000000,14.000000,0.000000,0.000000:
00000000
00000000
00000000
00000000
,
00000000
00000000
00000000
00000000
,
00000000
00000000
00000000
00000000
,
00000000
00000000
00000000
00000000
,
00000000
00000000
00000000
00000000
,
00000001
00000000
00000000
00001000
00000000
00001000
00000000
00001000
,
00000000
00000000
00000010
00000000
,
00000100
00000000
00001000
00000000
,
00012000
00000000
00013000
00000000
,
00001000
00000000
00000000
01000000
00000000
01000000
00000000
01000000
,
00000000
00000000
00010000
00000000
,
10000000
00000000
00100000
00000000
,
01200000
00000000
00000000
01300000
,
00010000
00000000
00000000
00100000
00000000
00100000
00000000
00100000
,
00000000
00000000
00001000
00000000
,
00010000
00000000
00000010
00000000
,
00000210
00000000
00000000
00000310
,
00000001
00000000
00000000
00000001
,
00001000
00000000
00000000
00001000
,
00000100
00010000
00001000
00010000
,
00100000
01000000
00010000
00000000
,
20000000
00000000
00000000
00000000
,
30020000
00000000
00000000
00000000
,
02030000
00000000
00000000
00000000
,
03200000
00000000
00000000
00000000
,
10300000
00010000
00000000
00010000
,
01000000
00001000
00000000
00001000
,
00010000
00000010
00000000
00000010
,
00000100
00000001
00001000
00000000
,
00001002
00000000
00000000
00000000
,
00002003
00000000
00000000
00000000
,
00003200
00000000
00000000
00000000
,
00000320
00000000
00000000
00000000
,
00001030
00000000
00000000
00000000
,
00010000
00000000
00000000
00000000
,
00001000
00000000
00000000
00000000
,
00010000
00000000
00000000
00000000
,
00001000
00010000
00001000
00010000
,
00100000
01000000
00100000
00000000
,
10000000
00010000
10000000
00100000
,
10000000
00010000
00100000
00000000
,
00001000
00010000
00000100
00010000
,
00001000
00010000
00001000
00000000
,
00010000
00000100
00000010
00000001
,
00000010
00000100
00001000
00000000
,
00000001
00000100
00000001
00000100
,
00000010
00001000
00000100
00000000
,
00010000
00000100
00010000
00001000
,
00010000
00100000
01000000
00000000
,
00010000
10000000
01000000
10000000
,
00100000
01000000
00010000
00000000
,
00100000
01000000
00100000
00010000
,
00100000
00001000
00010000
00000000
,
00000100
00000000
00001100
00000000
,
00000001
00000001
00001000
00000000
,
00000010
00000000
00010100
00000000
,
00001000
00001000
00000001
00000000
,
00001000
00000000
00011000
00000000
,
01000000
01000000
00010000
00000000
,
10000000
00000000
10010000
00000000
,
00100000
00100000
00100000
00000000
,
10000000
00000000
00010000
00000000
,
01000000
01000000
01000000
00000000
,
00001000
00000000
00010000
00000000
,
01000000
01000000
01000000
00000000
,
10000000
00010000
00000000
00010000
,
00000000
00010000
00000000
00010000
,
01000000
00001000
00020000
00000000
,
00030100
00000000
00000000
00000000
,
00001000
00001000
00000001
00000001
,
00000010
00000100
00010000
00000000
,
00001000
00001000
01000000
01000000
,
00100000
01000000
00001000
00000000
,
00010000
00010000
00001000
00001000
,
00010000
00000100
00001000
00000000
,
00000001
00000010
00000100
00001000
,
00000010
00000000
00000010
00000000
,
00000100
00000001
00000100
00000000
,
00000100
00000010
00000100
00000000
,
00001000
00010000
00000100
00000000
,
00010000
00001000
01000000
00000000
,
00100000
10000000
00100000
00000000
,
00100000
01000000
00100000
00000000
,
10000000
01000000
00100000
00000000
,
00001000
00010000
00100000
00000000
,
10000000
00000000
00000000
10000000
00000000
10000000
00000000
10000000
,
00000000
00000000
00010000
00000000
,
01000000
00000000
00001000
00000000
,
00012000
00000000
00013000
00000000
,
00000100
00000000
00000000
00000010
00000000
00000010
00000000
00000010
,
00000000
00000000
00000001
00000000
,
00000100
00000000
00001000
00000000
,
00012000
00000000
00013000
00011000
;

//---------------dance-double - ----------------
#NOTES:
     dance-double:
     :
     Medium:
     9:
     0.405279,0.443927,0.191451,0.130535,0.000000,326.000000,304.000000,22.000000,15.000000,0.000000,0.000000,0.405279,0.443927,0.191451,0.130535,0.000000,326.000000,304.000000,22.000000,15.000000,0.000000,0.000000:
00000000
00000000
00000000
00000000
,
00000000
00000000
00000000
00000000
,
00000000
00000000
00000000
00000000
,
00000000
00000000
00000000
00000000
,
00000000
00000000
00000000
00000000
,
00000010
00000000
00000000
00000100
00000000
00000100
00000000
00000100
,
00000001
00000100
00001000
00010000
,
00000100
00001000
00010000
00100000
,
01020000
00000000
10030000
00000000
,
00100000
00000000
00000000
01000000
00000000
01000000
00000000
01000000
,
00010000
01000000
10000000
01000000
,
00010000
00100000
00001000
00010000
,
00001200
00000000
00001300
00000000
,
00000001
00000000
00000000
00000100
00000000
00000100
00000000
00000100
,
00000001
00000010
00000100
00001000
,
00000001
00000010
00000100
00010000
,
00012000
00000000
00013000
00000000
,
00011000
00000000
00010000
00000000
,
01010000
00000000
10000000
00000000
,
00100000
10000000
01000000
00100000
,
00001000
00000000
00010000
00000000
00001000
00010000
00001000
00000000
,
00010200
00000000
00000000
00001000
00000000
00000000
00000000
00000000
,
00002300
00000000
00000000
00000010
00000000
00000000
00000000
00000000
,
00003002
00000000
00000000
00000100
00000000
00000000
00000000
00000000
,
00001003
00001000
00001000
00000000
,
00000100
00010100
00000000
00010000
,
00001000
01001000
00000000
01000000
,
00100000
10010000
00000000
10000000
,
01000000
00100000
00010000
00000000
,
02000000
00000000
00000000
00010000
00000000
00000000
00000000
00000000
,
03020000
00000000
00000000
00100000
00000000
00000000
00000000
00000000
,
00230000
00000000
00000000
00001000
00000000
00000000
00000000
00000000
,
00302000
00000000
00010000
00000000
,
00023000
00000000
00000000
00030100
00000000
00000000
00000000
00000000
,
00000200
00000000
00000000
00001300
00000000
00000000
00000000
00000000
,
00000200
00000000
00000000
00000310
00000000
00000000
00000000
00000000
,
00000001
00001000
00001001
00000000
,
00000001
00000000
00000100
00000000
00000001
00000000
00001000
00000100
,
00000000
00000100
00010000
00000000
00001000
00000000
00010000
00000000
,
01000000
00000000
10000000
00000000
00010000
00000000
10000000
00100000
,
00000000
00100000
01000000
00000000
00010000
00000000
01000000
00000000
,
00100000
00000000
10000000
00000000
01000000
00000000
00100000
00010000
,
00000000
00010000
00100000
00000000
00010000
00000000
00001000
00000000
,
00000100
00000000
00001000
00000000
00000010
00000000
00010000
00000100
,
00000000
00000100
00010000
00000000
00001000
00000000
00000000
00000000
,
00010000
00100000
10000000
01000000
,
00100000
00010000
00001000
00000010
,
00000100
00000001
00001000
00000100
,
00000010
00000100
00000010
00000000
,
00000001
00000010
00000100
00001000
,
00000100
00010000
00001000
01000000
,
00100000
10000000
01000000
00100000
,
00010000
01000000
00100000
00000000
,
10000000
00000000
10010000
00000000
,
00010000
00010000
01001000
00000000
,
00001000
00000000
00010100
00000000
,
00001000
00000010
00000101
00000000
,
00000001
00000000
00001100
00000000
,
00000010
00001000
00001100
00000000
,
00000100
00000000
00011000
00000000
,
00010000
00001000
00011000
00000000
,
00001000
00010000
01000000
10000000
,
00010000
00100000
00010000
00000000
,
01000000
00100000
00010000
00001000
,
00010000
00000100
00001000
00000000
,
00000010
00001010
00000000
00000001
,
00000100
00001001
00000000
00000100
,
00010000
00000000
00001000
00000000
00010000
00001000
00010000
00100000
,
02000000
00000000
00000000
03010000
,
10000000
00000000
00100000
00000000
01000000
00000000
00010000
01000000
,
00000000
01000000
00100000
00000000
00010000
00000000
00001000
00000000
,
00000100
00000000
00000010
00000000
00001000
00000000
00000100
00000010
,
00000000
00000010
00000100
00000000
00001000
00000000
00000001
00000000
,
00000010
00000000
00000100
00000000
00010000
00000000
00001000
00010000
,
00000000
00010000
00100000
00000000
01000000
00000000
00010000
00000000
,
10000000
00000000
00010000
00000000
00100000
00000000
00010000
01000000
,
00000000
01000000
00100000
00000000
10000000
00000000
00000000
00000000
,
01000000
00100000
00010000
00001000
,
00001000
00010000
01000000
00100000
,
10000000
00000000
01000000
00000000
00100000
00010000
00100000
00000000
,
00001000
00010000
00000100
00000000
,
00000010
00000001
00000001
00000100
,
00001000
00010000
00010000
00000100
,
00000010
00000001
00001000
00000010
,
00000100
00000000
00000010
00000000
00001000
00000001
00001000
00000000
,
00000001
00000000
00000000
00000010
00000000
00000010
00000000
00000010
,
00000100
00001000
00010000
01000000
,
00100000
00010000
00000100
00001000
,
00001200
00000000
00000310
00000000
,
00000001
00000000
00000000
00000100
00000000
00000100
00000000
00000100
,
00000010
00000100
00001000
00010000
,
01000000
10000000
00100000
00010000
,
00001000
00010000
00001000
00011000
;

//---------------dance-double - ----------------
#NOTES:
     dance-double:
     :
     Hard:
     13:
     0.645214,0.687918,0.643971,0.043512,0.008702,519.000000,445.000000,74.000000,5.000000,0.000000,0.000000,0.645214,0.687918,0.643971,0.043512,0.008702,519.000000,445.000000,74.000000,5.000000,0.000000,0.000000:
// measure 0
00000000
00000000
00000000
00000000
,  // measure 1
00000000
00000000
00000000
00000000
,  // measure 2
00000000
00000000
00000000
00000000
,  // measure 3
00000000
00000000
00000000
00000000
,  // measure 4
00000000
00000000
00000000
00000000
,  // measure 5
00000001
00000000
00000000
00001100
00000000
00000101
00000000
00001100
,  // measure 6
00000100
00000000
00000010
00001000
00000000
00010000
00001000
00000000
,  // measure 7
00010000
00100000
01000000
00010000
00100000
01000000
10000000
00000000
,  // measure 8
01000000
10000000
00100000
01000000
00010000
01000000
00100000
00000000
,  // measure 9
10000000
00000000
00000000
11000000
00000000
01010000
00000000
10100000
,  // measure 10
00010000
00000000
00100000
00010000
00000000
00001000
00000100
00000000
,  // measure 11
00010000
00001000
00100000
00010000
00100000
00001000
00010000
00000000
,  // measure 12
00001000
00010000
00000100
00001000
00000100
00010000
00000010
00000000
,  // measure 13
00000100
00000000
00000000
00000101
00000000
00000011
00000000
00001100
,  // measure 14
00000100
00000000
00000010
00000100
00000000
00001000
00010000
00000000
,  // measure 15
00100000
01000000
10000000
00100000
01000000
00010000
01000000
00000000
,  // measure 16
00100000
00010000
00001000
00010000
00100000
01000000
00010000
00000000
,  // measure 17
11000000
00000000
00000000
00010000
00000000
01000000
00000000
00100000
,  // measure 18
01100000
00000000
00010000
00001000
00000000
00000100
00001000
00000000
,  // measure 19
00000010
00001000
00000100
00010000
00001000
00100000
00010000
01000000
,  // measure 20
00100000
00000000
00100000
00000000
10000000
01000000
00100000
00000000
,  // measure 21
01020000
00000000
00000000
10000000
00000000
10030000
00000000
00000000
,  // measure 22
02010000
00000000
00000000
00010000
00000000
03010000
00000000
00000000
,  // measure 23
00021000
00000000
00000000
00000100
00000000
00030100
00000000
00000010
,  // measure 24
00000000
00000010
00001000
00000100
00000010
00000000
00000000
00000000
,  // measure 25
00000001
00001001
00001000
00000100
,  // measure 26
00010000
00011000
00001000
00010000
,  // measure 27
00100000
01100000
01000000
00010000
,  // measure 28
10000000
01000000
00100000
00010000
01000000
00000000
00100000
00000000
,  // measure 29
10000000
00010000
01000000
00010000
00000000
00010000
00000000
00000000
,  // measure 30
01000000
00010000
00001000
00000100
00000000
00000100
00000000
00000000
,  // measure 31
00001000
00000010
00000100
00000001
00000000
00000001
00000000
00001000
,  // measure 32
00000000
00001000
00000100
00010000
00000100
00000000
00001000
00000000
,  // measure 33
00000100
00010000
00001000
00010000
00000000
00010000
00000000
00000000
,  // measure 34
00001000
01000000
00010000
00100000
00000000
00100000
00000000
00000000
,  // measure 35
00010000
10000000
00100000
10000000
00000000
10000000
00000000
01000000
,  // measure 36
00000000
01000000
00100000
00010000
00001000
00000100
00001000
00000000
,  // measure 37
00001010
00000000
00001001
00000000
00000100
00000000
00000010
00000001
,  // measure 38
00000000
00000001
00000010
00000000
00001100
00000000
00011000
00000000
,  // measure 39
00110000
00000000
01000000
00000000
00100000
00000000
01000000
00001000
,  // measure 40
00000000
00010000
00001000
00000000
00011000
00000000
00000100
00000000
,  // measure 41
00000011
00000000
00001100
00000000
00011000
00000000
00100000
00010000
,  // measure 42
00000000
00100000
01000000
00000000
11000000
00000000
00010000
00000000
,  // measure 43
00011000
00000000
00010100
00000000
00010010
00000000
00000100
00000010
,  // measure 44
00000000
00000010
00000001
00001000
00000010
00000000
00000100
00000000
,  // measure 45
00000001
00000010
00000100
00001000
00000000
00000010
00000000
00000000
,  // measure 46
00000100
00001000
00010000
00000100
00000000
00010000
00000000
00000000
,  // measure 47
00001000
00010000
00100000
00000000
01000000
00010000
00100000
00000000
,  // measure 48
00001000
00010000
00100000
00000000
10000000
01000000
00100000
00000000
,  // measure 49
00010000
01000000
00100000
01000000
00000000
00010000
00000000
00000000
,  // measure 50
10000000
01000000
00100000
00010000
00000000
01001000
00000000
00010100
,  // measure 51
00001000
00000010
00001000
00000010
,  // measure 52
00001000
00000100
00000010
00000001
00000100
00000010
00001000
00000000
,  // measure 53
00000001
00000000
00000011
00000000
00001000
00000000
00000100
00010000
,  // measure 54
00001000
00101000
00110000
01000000
,  // measure 55
10000000
10010000
00100000
01010000
,  // measure 56
00001000
00010100
00001010
00000101
,  // measure 57
00000010
00000100
00001000
00000000
00010000
00000000
00001000
00000000
,  // measure 58
00000100
00010000
00000100
00010000
00001000
00000000
00010000
00000000
,  // measure 59
01100000
10000000
00010000
10000000
,  // measure 60
01000000
00110000
00101000
00001000
,  // measure 61
00010000
00000100
00000010
00001000
,  // measure 62
00010000
00000100
00010100
00000000
,  // measure 63
00010000
00100000
01000000
00010000
,  // measure 64
00001000
00000100
00010100
00000000
,  // measure 65
00000010
00001001
00000010
00001100
,  // measure 66
00010000
00011000
01000000
01010000
,  // measure 67
10000000
00000000
00100000
00000000
00010000
00000000
00001000
00000000
00010000
00001000
00000100
00000000
00000010
00001000
00000001
00000000
,  // measure 68
00002000
00000000
00000000
00003001
,  // measure 69
00000101
00000000
00001001
00000000
00000010
00000000
00001000
00000100
,  // measure 70
00000000
00000100
00000010
00000000
00011000
00000000
00010000
00000000
,  // measure 71
01100000
00000000
11000000
00000000
00110000
00000000
00010000
01000000
,  // measure 72
00000000
01000000
00001000
00000000
00011000
00000000
00000100
00000000
,  // measure 73
00001010
00000000
00000101
00000000
00001010
00000000
00001000
00000100
,  // measure 74
00000000
00000010
00000100
00000000
00011000
00000000
00100000
00000000
,  // measure 75
01100000
00000000
10100000
00000000
00110000
00000000
01000000
00010000
,  // measure 76
00000000
10000000
01000000
00100000
00010000
00000000
00001000
00000000
,  // measure 77
00010000
01000000
00100000
10000000
00000000
01000000
00000000
01000000
,  // measure 78
10000000
00100000
00010000
00001000
00000000
00001000
00000000
00010000
,  // measure 79
00000100
00000000
00001010
00000000
00000001
00000010
00000100
00000000
,  // measure 80
00001000
00000001
00000100
00000010
00001000
00000000
00000100
00000000
,  // measure 81
00000010
00000001
00000100
00000010
00000000
00000010
00000000
00000100
,  // measure 82
00001000
00010000
00000100
00001000
00000000
00001100
00000000
00011000
,  // measure 83
00001000
00010000
01000000
10000000
,  // measure 84
00010000
10000000
01000000
00100000
00010000
00000000
01000000
00000000
,  // measure 85
10100000
00000000
00000000
01010000
00000000
10010000
00000000
00110000
,  // measure 86
00010000
00000000
00100000
00010000
00000000
00001000
00010000
00000000
,  // measure 87
01000000
00010000
01000000
00001000
00010000
00000100
00001000
00000000
,  // measure 88
00000010
00000100
00000001
00000010
00001000
00010000
00001000
00000000
,  // measure 89
00011000
00000000
00000000
01010000
00000000
00011000
00000000
00010100
,  // measure 90
00001000
00000000
00010000
00000010
00000000
00001000
00000100
00000000
,  // measure 91
00000010
00000100
00001000
00010000
00100000
01000000
10000000
00000000
,  // measure 92
00100000
00010000
00001000
00010000
00000100
00001000
00020000
00000000
,  // measure 93
00030000
00000000
00000000
00000000
;
