#VERSION:0.83;
#TITLE:Satisfiction;
#SUBTITLE:(Massive New Krew Remix);
#ARTIST:t+pazolite;
#TITLETRANSLIT:;
#SUBTITLETRANSLIT:;
#ARTISTTRANSLIT:;
#GENRE:;
#ORIGIN:;
#CREDIT:;
#BANNER:Satisfiction (Massive New Krew Remix)-bn.png;
#BACKGROUND:;
#PREVIEWVID:;
#JACKET:Satisfiction (Massive New Krew Remix)-jacket.png;
#CDIMAGE:;
#DISCIMAGE:;
#LYRICSPATH:;
#CDTITLE:cdtitle.png;
#MUSIC:Satisfiction (Massive New Krew Remix).mp3;
#OFFSET:0.697000;
#SAMPLESTART:77.255013;
#SAMPLELENGTH:15.000000;
#SELECTABLE:YES;
#BPMS:0.000=200.000;
#STOPS:;
#DELAYS:;
#WARPS:;
#TIMESIGNATURES:0.000=4=4;
#TICKCOUNTS:0.000=4;
#COMBOS:0.000=1;
#SPEEDS:0.000=1.000=0.000=0;
#SCROLLS:0.000=1.000;
#FAKES:;
#LABELS:0.000=Song Start;
#BGCHANGES:;
#KEYSOUNDS:;
#ATTACKS:
;

//---------------dance-single - ----------------
#NOTEDATA:;
#CHARTNAME:;
#STEPSTYPE:dance-single;
#DESCRIPTION:;
#CHARTSTYLE:;
#DIFFICULTY:Challenge;
#METER:15;
#RADARVALUES:0.796305,1.016337,0.888509,0.092204,0.125732,665.000000,559.000000,106.000000,11.000000,0.000000,0.000000,0.000000,0.000000,0.000000,0.796305,1.016337,0.888509,0.092204,0.125732,665.000000,559.000000,106.000000,11.000000,0.000000,0.000000,0.000000,0.000000,0.000000;
#CREDIT:;
#NOTES:
0000
0000
0000
0000
,
0000
0000
0000
0000
,
0000
0000
0000
0000
,
0000
0000
0000
0000
,
0000
0000
0000
0000
,
1001
0000
0100
0010
0000
0100
0001
0000
,
0100
0001
0010
1000
0010
0001
1000
0000
,
0001
0000
0010
0000
1000
0000
0010
0000
0001
0010
0100
0010
0001
1000
0001
1000
,
0200
0000
0000
0310
,
1001
0000
0000
0011
0000
1100
0000
0101
,
1100
0000
0001
0010
0100
1000
0001
0000
,
0100
1000
0100
0001
0010
1000
0010
0000
,
0001
0010
1000
0010
0100
1000
0001
0000
,
0101
0000
0000
1100
0000
0101
0000
1010
,
1001
0000
0001
0010
0000
1000
0010
0000
,
0100
0010
0001
1000
0010
0100
1000
0000
,
0100
0001
0010
0100
1000
0001
0100
0000
,
0010
1000
0010
1000
0100
0010
0001
0100
,
0000
1000
0000
1000
0100
0001
0010
0100
,
1000
1000
0010
0010
0100
0100
0001
0010
,
0000
0001
0000
0001
0010
0100
1000
0001
,
0101
1001
1010
1001
,
0011
1100
1010
0101
,
0001
0100
0001
0100
0010
1000
0010
1000
0100
0010
0100
0010
0001
0100
0010
1000
,
0200
0000
0000
0310
,
0001
1000
0010
1000
0001
0100
1000
0010
,
0001
0100
1000
0100
0001
0010
1000
0100
,
0001
0010
1000
0010
0001
0100
1000
0010
,
0001
0100
1000
0100
0001
0010
0100
1000
,
0001
0010
0100
0010
0001
0100
1000
0010
,
0001
0100
1000
0100
0001
0010
1000
0100
,
0001
0001
0100
0100
1000
1000
0010
0010
,
1002
0000
0000
1003
,
1001
0000
0001
0010
0000
0001
0010
0100
,
0010
0001
0010
0100
0000
1000
0001
0100
,
1010
0000
0001
0010
0000
0010
1000
0010
,
0001
1000
0010
0100
0001
1000
0010
1000
,
1001
0000
0001
0010
0000
0010
0100
0010
,
0001
1000
0010
0100
0000
0100
0001
1000
,
1001
0000
0011
0000
1100
0000
1000
0100
,
0000
0100
0010
0000
1100
0000
0100
0100
,
0100
0011
0010
1100
,
0001
0110
0010
1100
,
0100
0011
0100
1100
,
0001
0011
0100
1010
,
0001
0101
1000
1100
,
0001
1000
0001
1000
0010
0100
0010
1000
,
0011
0000
0000
0000
0010
0000
0001
0000
1000
0001
1000
0001
0100
0000
0010
0000
,
0000
0001
0100
0010
2000
0000
0000
0000
,
3010
0001
1000
0100
0000
0002
0000
0000
,
0013
0100
0001
0100
0000
2000
0000
0000
,
3100
0010
0100
0001
0000
0010
0000
0010
,
0000
0001
1000
0010
0100
0000
0000
0000
,
0001
0100
0010
1010
0000
0100
0000
0000
,
0010
1000
0100
0110
0000
0001
0000
0000
,
1000
0010
0100
0101
0000
1000
0000
1000
,
0000
0001
0010
0100
1000
0000
0001
0000
,
0011
0011
1100
1100
,
0101
0101
1010
1010
,
0011
1100
0101
0011
,
1010
1100
0102
1003
,
0100
1000
0001
0010
0100
1000
0001
0100
,
1000
0100
0001
0010
1000
0010
0001
1000
,
0010
1000
0010
1000
0001
0100
0001
0100
0010
1000
0100
0010
0001
1000
0010
0100
,
0002
0000
0000
1003
,
1001
0000
0100
0010
0000
0011
0000
1100
,
0000
0101
0000
0001
0010
0001
0010
0000
,
1100
0000
0001
0100
0000
1010
0000
0011
,
0000
1010
0000
0001
0010
0001
1000
0000
,
1100
0000
0001
0100
0000
1100
0000
0011
,
0000
1100
0000
0001
0010
1000
0010
0000
,
1002
0000
0100
0000
1003
0000
0010
0200
,
0000
0301
1000
0000
0110
0010
1000
0100
,
0010
0001
1001
0011
,
1100
0101
1100
0011
,
1010
1010
1100
1100
,
0101
0000
0101
0000
0011
0000
0001
1000
,
1001
0110
1001
0110
,
1001
0011
1100
1001
,
0001
0100
0001
0100
0010
1000
0010
1000
0010
0100
0001
1000
0001
0010
0100
1000
,
0020
0000
0000
0130
,
0001
0100
0001
0100
1000
0100
0001
0010
,
0100
1000
0100
0001
0100
1000
0010
0100
,
0001
0000
1001
0000
0100
0000
0010
0001
,
0000
0001
1000
0000
0010
0100
0010
1000
,
0001
0010
0001
0010
1000
0010
0001
0010
,
0100
1000
0001
1000
0100
0001
0100
1000
,
0010
0000
0110
0000
0001
0000
0100
0110
,
0000
0001
1001
0000
0110
0000
1001
0000
,
0001
0010
0001
1000
0100
0010
0001
1000
,
1000
0100
0001
0010
1000
0010
0001
0100
,
0001
0001
1000
0100
0001
0010
1000
0010
,
0100
0001
0010
1000
0010
0001
0100
0001
,
0101
0000
0010
1000
1100
0000
0001
0010
,
0011
0000
1100
0000
0001
0100
0010
0100
,
0110
0000
1001
0000
0110
0000
1001
1100
,
0000
0001
0010
0000
1000
0010
0001
0100
,
0010
0000
0000
0000
;

//---------------dance-double - ----------------
#NOTEDATA:;
#CHARTNAME:;
#STEPSTYPE:dance-double;
#DESCRIPTION:;
#CHARTSTYLE:;
#DIFFICULTY:Challenge;
#METER:15;
#RADARVALUES:0.774751,1.015027,0.779541,0.067057,0.155070,647.000000,554.000000,93.000000,8.000000,0.000000,0.000000,0.000000,0.000000,0.000000,0.774751,1.015027,0.779541,0.067057,0.155070,647.000000,554.000000,93.000000,8.000000,0.000000,0.000000,0.000000,0.000000,0.000000;
#CREDIT:;
#NOTES:
// measure 0
00000000
00000000
00000000
00000000
,  // measure 1
00000000
00000000
00000000
00000000
,  // measure 2
00000000
00000000
00000000
00000000
,  // measure 3
00000000
00000000
00000000
00000000
,  // measure 4
00000000
00000000
00000000
00000000
,  // measure 5
00000001
00000100
00000001
00000100
00000000
00000100
00000010
00000000
,  // measure 6
00000010
00001000
00000100
00000010
00001000
00000010
00000001
00000000
,  // measure 7
00000100
00000000
00001000
00000000
00010000
00000000
00100000
00000000
10000000
00010000
10000000
00010000
00100000
00010000
10000000
00100000
,  // measure 8
02000000
00000000
00000000
03100000
,  // measure 9
10010000
00000000
00000000
11000000
00000000
01010000
00000000
11000000
,  // measure 10
01000000
00000000
00100000
00010000
00000000
01000000
10000000
00000000
,  // measure 11
01000000
00010000
00100000
00001000
00010000
00000100
00000010
00000000
,  // measure 12
00001000
00010000
00100000
00010000
00001000
00000100
00000010
00000000
,  // measure 13
00001001
00000000
00000000
00000011
00000000
00001100
00000000
00000101
,  // measure 14
00000001
00000000
00000010
00001000
00000000
00000010
00000001
00000000
,  // measure 15
00000100
00001000
00010000
00100000
10000000
01000000
00100000
00000000
,  // measure 16
00001000
00010000
01000000
10000000
00010000
00100000
00010000
00000000
,  // measure 17
10000000
00100000
10000000
00100000
01000000
00010000
01000000
00010000
,  // measure 18
00000000
00001000
00000000
00001000
00000010
00001000
00000010
00001000
,  // measure 19
00000100
00000010
00000100
00000010
00001000
00010000
00001000
00010000
,  // measure 20
00000000
01000000
00000000
01000000
10000000
00100000
01000000
00010000
,  // measure 21
01000000
00011000
00000100
00011000
,  // measure 22
00100000
00110000
00001000
00001100
,  // measure 23
00000010
00000100
00000010
00000100
00000001
00001000
00000001
00001000
00000010
00000100
00000001
00001000
00000100
00000010
00000001
00000100
,  // measure 24
00000020
00000000
00000000
00000130
,  // measure 25
00000001
00000010
00000100
00001000
00010000
00100000
10000000
01000000
,  // measure 26
00010000
00100000
01000000
10000000
00100000
00010000
00001000
00000100
,  // measure 27
00000001
00001000
00000010
00000100
00010000
00100000
10000000
01000000
,  // measure 28
00010000
00100000
01000000
10000000
00100000
00010000
00001000
00000100
,  // measure 29
00000001
00000010
00000100
00001000
00010000
01000000
10000000
00100000
,  // measure 30
00010000
01000000
00100000
10000000
01000000
00010000
00001000
00000010
,  // measure 31
00000001
00000100
00000010
00001000
00000100
00010000
00001000
00100000
,  // measure 32
02000000
00000000
00000000
03100000
,  // measure 33
10010000
00000000
01000000
00010000
00000000
00010000
01000000
10000000
,  // measure 34
01000000
00010000
00100000
00010000
00000000
00100000
00001000
00010000
,  // measure 35
00011000
00000000
00000100
00000010
00000000
00000010
00000100
00001000
,  // measure 36
00010000
00100000
01000000
10000000
00100000
00010000
00000100
00001000
,  // measure 37
00001010
00000000
00000001
00000010
00000000
00000010
00000100
00000010
,  // measure 38
00001000
00010000
00001000
00010000
00000000
00100000
10000000
01000000
,  // measure 39
00110000
00000000
11000000
00000000
01010000
00000000
00100000
01000000
,  // measure 40
00000000
01000000
00010000
00000000
10000000
00000000
00110000
00010000
,  // measure 41
10000000
11000000
00100000
00011000
,  // measure 42
00000100
00000011
00000100
00011000
,  // measure 43
00100000
11000000
00100000
00011000
,  // measure 44
00000100
00000011
00000100
00011000
,  // measure 45
00100000
11000000
00100000
01010000
,  // measure 46
00001000
00010000
00001000
00010000
00000010
00000100
00000010
00001000
,  // measure 47
00000001
00000000
00000000
00000000
00000010
00000000
00000000
00000000
00000001
00000100
00000001
00000100
00000010
00000000
00001000
00000000
,  // measure 48
00000000
00000010
00000001
00000000
00001001
00000000
00000000
00000000
,  // measure 49
00000001
00000010
00000100
00002000
00000000
00003010
00000000
00000000
,  // measure 50
00000100
00001000
00010000
00200000
00000000
01300000
00000000
00000000
,  // measure 51
10000000
00100000
01000000
00020000
00000000
00031000
00000000
00000100
,  // measure 52
00000000
00010000
00001000
00010000
00001000
00000000
00000000
00000000
,  // measure 53
00100000
00010000
00100000
00010000
00000000
10000000
00000000
00000000
,  // measure 54
01000000
00100000
01000000
00100000
00000000
00001000
00000000
00000000
,  // measure 55
00010000
00000100
00010000
00000100
00000000
00000010
00000000
00000001
,  // measure 56
00000000
00000010
00000001
00000100
00001000
00000000
00000100
00000000
,  // measure 57
00000011
00000011
00001100
00001100
,  // measure 58
00011000
00011000
01100000
01100000
,  // measure 59
11000000
10010000
01001000
00010100
,  // measure 60
00001010
00000101
00000011
00000001
,  // measure 61
00001000
00000001
00000010
00000100
00001000
00000010
00010000
00001000
,  // measure 62
00100000
01000000
00100000
00010000
10000000
00100000
00010000
00001000
,  // measure 63
00010000
00001000
00010000
00001000
00100000
00010000
00100000
00010000
10000000
01000000
00100000
00010000
01000000
00100000
01000000
00010000
,  // measure 64
20000000
00000000
00000000
30010000
,  // measure 65
11000000
00000000
00010000
01000000
00000000
10010000
00000000
11000000
,  // measure 66
00000000
01010000
00000000
00010000
00100000
00010000
00100000
00000000
,  // measure 67
00011000
00000000
00000100
00000010
00000000
00001001
00000000
00000011
,  // measure 68
00000000
00001100
00000000
00000001
00000100
00000010
00000100
00000000
,  // measure 69
00001001
00000000
00000100
00010000
00000000
00101000
00000000
00110000
,  // measure 70
00000000
11000000
00000000
00100000
01000000
00010000
10000000
00000000
,  // measure 71
00110000
00000000
00001000
00000000
00010000
00000000
00000010
00000100
,  // measure 72
00000000
00000010
00001000
00000000
00001001
00000000
00000001
00000001
,  // measure 73
00000001
00000110
00001100
00011000
,  // measure 74
00110000
11000000
01010000
00011000
,  // measure 75
00001100
00001100
00000011
00000011
,  // measure 76
00011000
00000000
00011000
00000000
00110000
00000000
00010000
10000000
,  // measure 77
10010000
11000000
01010000
00011000
,  // measure 78
00001100
00000110
00011000
01100000
,  // measure 79
00010000
10000000
00010000
10000000
00100000
01000000
00100000
01000000
00010000
00100000
00010000
00100000
00001000
00010000
00001000
00010000
,  // measure 80
00000200
00000000
00000000
00010300
,  // measure 81
00001000
00010000
00001000
00010000
10000000
01000000
00010000
00100000
,  // measure 82
00001000
00010000
00001000
00010000
00000001
00000010
00001000
00000100
,  // measure 83
00001010
00000000
00010000
00000000
00100000
00000000
10000000
00010000
,  // measure 84
00000000
00100000
01000000
00000000
10000000
00010000
10000000
00010000
,  // measure 85
00101000
00000000
00010100
00000000
00000010
00000000
00000100
00000001
,  // measure 86
00001001
00000000
00011000
00000000
00100000
01000000
10000000
00100000
,  // measure 87
01000000
00000000
01010000
00000000
10000000
00000000
01000000
00100000
,  // measure 88
00000000
01000000
00100000
00000000
10010000
00000000
01100000
00000000
,  // measure 89
00001000
00010000
00001000
00010000
00000010
00000001
00000100
00001000
,  // measure 90
00010000
00100000
00010000
00100000
00001000
00000100
00000001
00000010
,  // measure 91
00001000
00000100
00000001
00000100
00001000
00010000
00100000
10000000
,  // measure 92
00000000
01000000
00010000
00000000
10000000
00010000
01000000
00010000
,  // measure 93
00100000
00001010
00010000
01100000
,  // measure 94
00001000
00000011
00000100
00011000
,  // measure 95
00010000
00001000
00010000
00001000
00100000
00010000
00100000
00010000
10000000
01000000
00100000
00010000
00100000
00001000
00010000
00000000
,  // measure 96
00000000
00001000
00000100
00000000
00001000
00010000
00001000
00010000
;
