#TITLE:S.O.S.;
#SUBTITLE:(The Tiger Took My Family);
#ARTIST:Dr.bombay;
#TITLETRANSLIT:;
#SUBTITLETRANSLIT:;
#ARTISTTRANSLIT:;
#GENRE:;
#CREDIT:;
#BANNER:S.O.S. (The Tiger Took My Family)-bn.jpg;
#BACKGROUND:S.O.S. (The Tiger Took My Family)-bg.jpg;
#LYRICSPATH:;
#CDTITLE:;
#MUSIC:S.O.S. (The Tiger Took My Family).mp3;
#OFFSET:0.168000;
#SAMPLESTART:43.270000;
#SAMPLELENGTH:15.000000;
#SELECTABLE:YES;
#BPMS:0.000000=138.000000
;
#STOPS:
;
#BGCHANGES:;
#KEYSOUNDS:;
#ATTACKS:;

//---------------dance-single - ----------------
#NOTES:
     dance-single:
     :
     Beginner:
     3:
     0.165268,0.224948,0.224948,0.024102,0.000000,144.000000,116.000000,28.000000,3.000000,0.000000,0.000000,0.165268,0.224948,0.224948,0.024102,0.000000,144.000000,116.000000,28.000000,3.000000,0.000000,0.000000:
0000
0000
0000
0000
,
0000
0000
0000
0000
,
0000
0000
0000
0000
,
0000
0000
0000
0000
,
0000
0000
0000
0000
,
0000
0000
0000
0000
,
0000
0000
0000
0000
,
0000
0000
0000
0000
,
0000
0000
0000
0000
,
1000
0000
1000
0000
,
1000
0000
1000
0000
,
0001
0000
0001
0000
,
0001
0000
0001
0000
,
1000
0000
1000
0000
,
0001
0000
0001
0000
,
0100
0000
0100
0000
,
0010
0000
0100
0000
,
0001
0000
0001
0000
,
1000
0000
1000
0000
,
0001
0000
0001
0000
,
0100
0000
0010
0000
,
1000
0000
1000
0000
,
0010
0000
0010
0000
,
0100
0000
0100
0000
,
0001
0001
0001
0000
,
1001
0000
1001
0000
,
1000
0000
1000
0000
,
1001
0000
1001
0000
,
0001
0000
0001
0000
,
0110
0000
0110
0000
,
0010
0000
0010
0000
,
0110
0000
0110
0000
,
0100
0000
0100
0000
,
1000
0000
1000
0000
,
0001
0000
0001
0000
,
1000
0000
1000
0000
,
0001
0000
1000
0000
,
0010
0000
0010
0000
,
0100
0000
0100
0000
,
0010
0000
0010
0000
,
0100
0000
0010
0000
,
2000
0000
0000
0000
,
3000
0000
0000
0000
,
0200
0000
0000
0000
,
0300
0000
0000
0000
,
0010
0000
0010
0000
,
0010
0000
0010
0000
,
0001
0000
0001
0000
,
1000
0000
0001
0000
,
1001
0000
1001
0000
,
1000
0000
1000
0000
,
1001
0000
1001
0000
,
0001
0000
0001
0000
,
0110
0000
0110
0000
,
0100
0000
0100
0000
,
0110
0000
0110
0000
,
0010
0000
0010
0000
,
1100
0000
1100
0000
,
0100
0000
0100
0000
,
0011
0000
0011
0000
,
0001
0000
0001
0000
,
1010
0000
1010
0000
,
1000
0000
1000
0000
,
0101
0000
0101
0000
,
0001
0000
0001
0000
,
0110
0000
0110
0000
,
0100
0000
0100
0000
,
1001
0000
1001
0000
,
0001
0000
0001
0000
,
0200
0000
0000
0000
,
0300
0000
0000
0000
;

//---------------dance-single - ----------------
#NOTES:
     dance-single:
     :
     Easy:
     6:
     0.280038,0.337423,0.361524,0.064271,0.000000,244.000000,199.000000,45.000000,8.000000,0.000000,0.000000,0.280038,0.337423,0.361524,0.064271,0.000000,244.000000,199.000000,45.000000,8.000000,0.000000,0.000000:
0000
0000
0000
0000
,
0000
0000
0000
0000
,
0000
0000
0000
0000
,
0000
0000
0000
0000
,
0000
0000
0000
0000
,
0000
0000
0000
0000
,
0000
0000
0000
0000
,
0000
0000
0000
0000
,
0000
0000
0000
0000
,
1000
1000
0001
0001
,
1000
0001
1000
0000
,
0010
0010
0100
0100
,
0010
0100
0010
0000
,
0001
0001
1000
1000
,
0100
0100
1000
0100
,
0010
0010
0100
0100
,
0001
1000
0001
1000
,
0100
0100
0010
0010
,
0001
0001
1000
1000
,
1000
1000
0001
0001
,
1000
0001
1000
0000
,
0010
0010
0100
0100
,
0010
0010
0100
0100
,
0001
0001
1000
1000
,
0001
1000
0001
0000
,
1001
1001
1001
0000
,
1000
0100
0010
0000
,
0011
0011
0011
0000
,
0010
0100
1000
0000
,
1001
1001
1001
0000
,
0001
0100
0010
0000
,
0110
0110
0110
0000
,
0010
1000
1001
0000
,
1000
1000
0001
0001
,
1000
0001
1000
0000
,
0010
0010
0100
0100
,
0010
0100
0010
0000
,
0001
0001
1000
1000
,
0100
0100
1000
0100
,
0010
0010
0100
0100
,
0001
1000
0001
1000
,
0020
0000
0230
0000
,
2300
0000
3020
0000
,
0032
0000
2003
0000
,
3200
0000
1300
0000
,
1000
0100
0010
0001
,
0001
0010
0100
1000
,
1000
0001
1000
0010
,
0100
0010
0100
0000
,
1001
1001
1001
0000
,
1000
0100
0010
0000
,
0110
0110
0110
0000
,
0010
0100
1000
0000
,
1001
1001
1001
0000
,
0001
0100
0010
0000
,
0110
0110
0110
0000
,
0010
1000
1001
0000
,
0101
0101
0101
0000
,
0001
1000
0100
0000
,
1100
1100
1100
0000
,
1000
0001
0010
0000
,
0011
0011
0011
0000
,
0010
0001
1000
0000
,
1001
1001
1001
0000
,
0001
0100
0110
0000
,
1100
1001
1001
0000
,
0001
0100
0001
0000
,
0101
1001
1001
0000
,
1000
0010
1000
0001
,
0200
0000
0000
0000
,
0300
0000
0000
0000
;

//---------------dance-single - ----------------
#NOTES:
     dance-single:
     :
     Medium:
     10:
     0.416614,0.478015,0.409727,0.112474,0.004017,363.000000,312.000000,51.000000,14.000000,0.000000,0.000000,0.416614,0.478015,0.409727,0.112474,0.004017,363.000000,312.000000,51.000000,14.000000,0.000000,0.000000:
0000
0000
0000
0000
,
0000
0000
0000
0000
,
0000
0000
0000
0000
,
0000
0000
0000
0000
,
0000
0000
0000
0000
,
0000
0000
0000
0000
,
0000
0000
0000
0000
,
0000
0000
0000
0000
,
0000
0000
0000
0000
,
1000
0000
1000
0000
0001
0001
0001
0000
,
1000
0000
1000
0000
0001
0001
0100
0000
,
0100
0000
0010
0000
0010
0010
0010
0000
,
0100
0000
0010
0000
0100
0100
0010
0000
,
1001
0000
0010
0000
0100
0100
0010
0000
,
1000
0000
0100
0100
1000
0100
0100
0000
,
1001
0000
0010
0000
0001
0001
0010
0000
,
0100
0100
1000
1000
0001
0001
1000
1000
,
0001
0100
0001
0100
,
0001
0100
1000
0100
0001
0000
0001
0000
,
1000
0100
1000
0100
,
0001
0100
1000
0000
1100
0000
0010
0000
,
0010
1000
0100
0010
0001
0000
0100
0000
,
0001
0010
0100
1000
0010
0000
1010
0000
,
1000
0100
1000
0001
1000
0000
0001
0000
,
0101
1001
1001
0000
,
0110
1001
0110
1000
,
0100
0010
0001
0010
0100
0000
1000
0000
,
1001
0110
1001
0001
,
0010
0100
1000
0100
0010
0000
0001
0000
,
1001
1010
1001
1000
,
0001
1000
0100
0010
0001
0000
1000
0000
,
1001
0101
1001
1000
,
0001
0010
0100
1000
0001
0001
1000
1000
,
0010
0000
0100
0000
1000
0100
0001
0100
,
0001
0000
0010
0000
0001
0001
0100
0000
,
0010
0000
1000
0000
0010
1000
0100
0010
,
0100
0000
0010
0000
0100
0100
0010
0000
,
1001
0000
1000
0000
0001
0001
0100
0000
,
0010
1000
0010
1000
0100
0100
0010
0000
,
0101
0001
1000
1000
,
0001
0001
1000
1000
0010
0010
0100
0100
,
0002
2003
3200
0000
,
2300
0000
3020
0000
,
0032
2003
3200
0000
,
0302
0023
0230
0000
,
1300
0100
1000
0010
1000
0000
1000
0010
,
1000
0000
0000
0000
1000
0000
0001
0000
1000
0000
0000
0000
1000
0000
0000
0001
,
0010
0000
0001
1000
0001
0000
0001
0100
,
0001
0010
0100
1000
2000
0000
3000
0000
,
0110
1001
0110
1000
,
0100
0010
0001
0010
0100
0000
1000
0000
,
1001
0110
1001
0001
,
0010
0100
1000
0100
0010
0000
0001
0000
,
1001
1010
1001
1000
,
0001
1000
0100
0010
0001
0000
1000
0000
,
1001
0101
1001
1000
,
0001
0010
0100
1000
0001
0001
1000
1000
,
0110
1001
0110
1000
,
0001
0100
1000
0100
0001
0000
1000
0000
,
1001
0110
1001
0001
,
1000
0100
0001
0100
1000
0000
0001
0000
,
1010
1001
1100
1000
,
0001
0010
1000
0010
0001
0000
1000
0000
,
0011
1001
0101
0001
,
1000
0100
0010
0001
0100
0100
0010
0000
,
1001
0110
1001
1000
,
0001
0100
1000
0100
0001
0000
1000
0000
,
1001
0110
1001
1000
,
0100
0001
0100
1000
0001
0100
0200
0020
,
0000
0000
0000
0000
,
0330
0000
0000
0000
;

//---------------dance-single - ----------------
#NOTES:
     dance-single:
     :
     Hard:
     12:
     0.568109,0.674845,0.570405,0.345456,0.232982,495.000000,424.000000,71.000000,43.000000,0.000000,0.000000,0.568109,0.674845,0.570405,0.345456,0.232982,495.000000,424.000000,71.000000,43.000000,0.000000,0.000000:
0000
0000
0000
0000
,
0000
0000
0000
0000
,
0000
0000
0000
0000
,
0000
0000
0000
0000
,
0000
0000
0000
0000
,
0000
0000
0000
0000
,
0000
0000
0000
0000
,
0000
0000
0000
0000
,
0000
0000
0000
0000
,
1000
0000
0100
1000
0000
0100
1000
0000
0010
1000
0010
0000
1000
0000
0100
0000
,
0010
0000
0001
0100
0000
0100
0001
0000
0001
0100
0001
0000
0101
0000
0010
0000
,
0010
0000
1000
0010
0000
1000
0010
0000
1000
0100
0010
0000
0100
0000
1000
0000
,
1010
0000
0010
1000
0000
1000
0100
0000
0100
1000
0001
0000
1001
0000
1001
0000
,
1000
0000
1000
0100
0000
0100
0010
0000
0001
0010
0100
0000
1000
0000
0001
1000
,
0000
1000
0001
0000
0100
0000
0010
0000
1000
0100
0010
0001
0010
0100
0010
0000
,
0001
0000
0100
0001
0000
0100
0001
0000
0010
0100
1000
0000
0010
0000
1000
0000
,
0100
0000
0100
0010
0100
0010
0100
0000
1000
0000
1000
0001
1000
0001
1000
0000
,
0001
0001
1000
1000
0100
0100
0001
0001
,
1000
1000
0010
0010
0100
0100
0001
0001
,
1001
1000
0010
0010
0001
0001
1000
1000
,
0001
0000
0001
0000
0010
0000
0010
0000
0100
0000
1000
0100
0010
0000
0000
0000
,
0101
0001
0101
0100
0101
0000
0101
0000
,
1001
1000
1100
0100
0110
0000
1001
0000
,
0110
0010
0110
0100
0110
0000
0101
0001
,
1001
0000
1100
0000
1001
0000
0200
0300
,
1001
0110
1001
1000
,
0001
0100
1000
0100
0001
0000
1000
0000
,
0011
1100
0011
1000
,
0001
0010
1000
0010
0001
0000
0001
1001
,
1010
1001
0101
0010
,
1000
0100
0001
0100
1000
0000
0010
0000
,
0101
1100
0101
0010
,
0001
0100
1000
0100
0001
0001
1000
1000
,
1001
0000
0100
1000
0000
0100
1000
0000
0010
1000
0010
0000
1000
0000
0100
0000
,
0010
0000
0001
0100
0000
0100
0001
0000
0001
0100
0001
0000
0101
0000
0010
0000
,
0010
0000
1000
0010
0000
1000
0010
0000
1000
0100
0010
0000
0100
0000
1000
0000
,
1010
0000
0010
1000
0000
1000
0100
0000
0100
1000
0001
0000
1001
0000
1001
0000
,
1000
0000
1000
0100
0000
0100
0010
0000
0001
0010
0100
0000
1000
0000
0001
1000
,
0000
1000
0001
0000
0100
0000
0010
0000
1000
0100
0010
0001
0010
0100
0010
0000
,
0001
0000
0100
0001
0000
0100
0001
0000
0010
0100
1000
0000
0010
0000
1000
0000
,
0100
0000
0100
0010
0100
0010
0100
0000
1000
0000
1000
0001
1000
0001
1000
0000
,
0002
0203
2300
3020
,
0032
0203
2300
3020
,
2030
3200
0302
0023
,
2030
3200
0302
0003
,
1010
0000
1000
0000
0100
0000
0010
0000
0100
0000
1000
0000
0010
0000
1000
0100
,
0010
0000
0001
0000
0100
0000
0010
0000
0100
0000
0001
0000
0010
0000
0001
0010
,
0100
0000
1000
0000
0010
0000
1000
0000
0100
0000
0010
0000
0100
0000
1000
0010
,
0001
0001
1000
1000
0010
0000
0200
0300
,
1001
0110
1001
1000
,
0001
0100
1000
0100
0001
0000
1000
0000
,
0011
1100
0011
1000
,
0001
0010
1000
0010
0001
0000
0001
1001
,
1010
1001
0101
0010
,
1000
0100
0001
0100
1000
0000
0010
0000
,
0101
1100
0101
0010
,
0001
0100
1000
0100
0001
0001
1000
1000
,
2002
3003
0220
0330
2002
3003
1000
0000
,
0001
0100
1000
0100
0001
0000
1000
0000
,
2020
3030
0202
0303
2020
3030
0001
0000
,
0010
1000
0010
0001
1000
0000
0010
0110
,
2002
3003
0220
0330
2002
3003
0010
0000
,
0001
0010
0100
1000
0100
0000
0010
0000
,
2200
3300
0022
0033
2200
3300
0001
0000
,
1000
0100
0001
0100
0010
0010
0100
0100
,
1001
1010
0101
0010
,
0001
0010
0100
0010
0001
0001
1000
0000
,
1001
1010
0101
0010
,
0001
0010
0100
0010
0001
0001
1000
2000
,
0020
0000
0000
0000
,
3030
0000
0000
0000
;

//---------------dance-double - ----------------
#NOTES:
     dance-double:
     :
     Easy:
     6:
     0.278890,0.337423,0.369558,0.072305,0.000000,243.000000,197.000000,46.000000,9.000000,0.000000,0.000000,0.278890,0.337423,0.369558,0.072305,0.000000,243.000000,197.000000,46.000000,9.000000,0.000000,0.000000:
00000000
00000000
00000000
00000000
,
00000000
00000000
00000000
00000000
,
00000000
00000000
00000000
00000000
,
00000000
00000000
00000000
00000000
,
00000000
00000000
00000000
00000000
,
00000000
00000000
00000000
00000000
,
00000000
00000000
00000000
00000000
,
00000000
00000000
00000000
00000000
,
00000000
00000000
00000000
00000000
,
00000001
00001000
00000001
00001000
,
00000010
00000100
00000010
00000000
,
00001000
00000100
00001000
00000100
,
00010000
00000100
00010000
00000000
,
00001000
00100000
00001000
00100000
,
00010000
01000000
00010000
00000000
,
10000000
00010000
10000000
00010000
,
10000000
10000000
00010000
00010000
,
01000000
01000000
00100000
00100000
,
01000000
01000000
00100000
00100000
,
00010000
00010000
00001000
00001000
,
00010000
00010000
00001000
00000000
,
00010000
00000100
00010000
00000100
,
00001000
00000100
00001000
00000100
,
00000010
00000010
00000100
00000100
,
00001000
00000001
00001001
00000000
,
00000110
00000110
00000110
00000000
,
00000001
00001000
00000100
00000000
,
00001010
00001010
00001010
00000000
,
00000100
00010000
00001000
00000000
,
00011000
00011000
00011000
00000000
,
00001000
00100000
00010000
00000000
,
01010000
01010000
01010000
00000000
,
10000000
00010000
10010000
00000000
,
10000000
10000000
00100000
01000000
,
00010000
00100000
00010000
00000000
,
01000000
01000000
00010000
00100000
,
00001000
00010000
00001000
00000000
,
00010000
00010000
00000100
00000010
,
00000001
00000001
00000100
00000010
,
00001000
00000001
00001000
00001000
,
00000001
00000001
00000100
00000100
,
00000002
00000000
00000203
00000000
,
00000320
00000000
00002030
00000000
,
00003200
00000000
00000320
00000000
,
00000230
00000000
00020300
00000000
,
00031000
00010000
00001000
00100000
,
00010000
00100000
00010000
00100000
,
00001000
00010000
00000100
00010000
,
00001000
00010000
00000100
00000000
,
00000110
00000110
00000110
00000000
,
00000001
00001000
00000100
00000000
,
00001010
00001010
00001010
00000000
,
00000100
00010000
00001000
00000000
,
00011000
00011000
00011000
00000000
,
00001000
00100000
00010000
00000000
,
01010000
01010000
01010000
00000000
,
10000000
00010000
10010000
00000000
,
10100000
10100000
10100000
00000000
,
01000000
00100000
01000000
00000000
,
00110000
00110000
00110000
00000000
,
00001000
01000000
00001000
00000000
,
00011000
00011000
00011000
00000000
,
00000100
00001000
00000100
00000000
,
00000110
00000110
00000110
00000000
,
00000001
00001000
00001001
00000000
,
00000110
00000110
00000110
00000000
,
00000001
00000100
00001000
00000000
,
00010100
00010100
00010100
00000000
,
00001000
00010000
00100000
00000000
,
02000000
00000000
00000000
00000000
,
03000000
00000000
00000000
00000000
;

//---------------dance-double - ----------------
#NOTES:
     dance-double:
     :
     Medium:
     9:
     0.360377,0.449897,0.425795,0.088373,0.000000,314.000000,261.000000,53.000000,11.000000,0.000000,0.000000,0.360377,0.449897,0.425795,0.088373,0.000000,314.000000,261.000000,53.000000,11.000000,0.000000,0.000000:
// measure 0
00000000
00000000
00000000
00000000
,  // measure 1
00000000
00000000
00000000
00000000
,  // measure 2
00000000
00000000
00000000
00000000
,  // measure 3
00000000
00000000
00000000
00000000
,  // measure 4
00000000
00000000
00000000
00000000
,  // measure 5
00000000
00000000
00000000
00000000
,  // measure 6
00000000
00000000
00000000
00000000
,  // measure 7
00000000
00000000
00000000
00000000
,  // measure 8
00000000
00000000
00000000
00000000
,  // measure 9
00000001
00000100
00000001
00000100
,  // measure 10
00000010
00000000
00000100
00000000
00000010
00001000
00000100
00000000
,  // measure 11
00010000
00001000
00010000
00001000
,  // measure 12
00100000
00000000
00010000
00000000
00100000
01000000
10000000
00000000
,  // measure 13
00100000
01000000
00100000
01000000
,  // measure 14
00001000
00000000
00010000
00000000
00100000
01000000
00010000
00000000
,  // measure 15
00100000
00010000
00100000
00001000
,  // measure 16
00010000
00010000
00000100
00000000
00000010
00000010
00000001
00000000
,  // measure 17
00000001
00000100
00001000
00010000
,  // measure 18
01000000
10000000
01000000
00010000
,  // measure 19
00001000
00000010
00000001
00000010
,  // measure 20
00001000
00010000
00011000
00000000
,  // measure 21
00011000
00001000
00011000
00010000
,  // measure 22
00110000
00100000
10100000
10000000
,  // measure 23
11000000
01000000
01010000
00010000
,  // measure 24
00011000
00010100
00011000
00000000
,  // measure 25
00001001
00000110
00001001
00000010
,  // measure 26
00000001
00000010
00000100
00000000
00001000
00000000
00000000
00000000
,  // measure 27
00010010
00001100
00010010
00000100
,  // measure 28
00001000
00000100
00010000
00000000
00001000
00000000
00000000
00000000
,  // measure 29
00101000
01010000
00101000
01000000
,  // measure 30
00010000
10000000
00100000
00000000
01000000
00000000
00000000
00000000
,  // measure 31
11000000
00110000
11000000
10000000
,  // measure 32
00100000
01000000
00010000
10000000
00100000
01000000
00010000
00000000
,  // measure 33
10000000
00000000
10000000
00000000
10000000
01000000
00100000
00000000
,  // measure 34
00010000
00000000
00010000
00000000
01000000
00100000
10000000
00000000
,  // measure 35
00010000
00000000
00010000
00000000
00100000
00001000
00010000
00000000
,  // measure 36
00001000
00000000
00001000
00000000
00010000
00000100
00000010
00000000
,  // measure 37
00000001
00000000
00000001
00000000
00001000
00000100
00000010
00000000
,  // measure 38
00000001
00000100
00000010
00000000
00001000
00000100
00000010
00000000
,  // measure 39
00000001
00000000
00000001
00000000
00000100
00001000
00010000
00000000
,  // measure 40
00000100
00000100
00001000
00000000
00010000
00010000
00100000
00000000
,  // measure 41
02000000
00000000
23000000
00000000
,  // measure 42
30200000
00000000
00320000
00000000
,  // measure 43
00030200
00000000
00002300
00000000
,  // measure 44
00003002
00000000
00000023
00000000
,  // measure 45
00000031
00000000
00000010
00000000
00000001
00000010
00001000
00000000
,  // measure 46
00010000
00000000
00001000
00000000
00010000
00100000
10000000
00000000
,  // measure 47
01000000
00000000
00100000
00000000
01000000
10000000
00100000
00000000
,  // measure 48
00010000
00001000
00021000
00030000
,  // measure 49
00001001
00000110
00001001
00000010
,  // measure 50
00000001
00000010
00000100
00000000
00001000
00000000
00000000
00000000
,  // measure 51
00010010
00001100
00010010
00000100
,  // measure 52
00001000
00000100
00010000
00000000
00001000
00000000
00000000
00000000
,  // measure 53
00101000
01010000
00101000
01000000
,  // measure 54
00010000
10000000
00100000
00000000
01000000
00000000
00000000
00000000
,  // measure 55
11000000
00110000
11000000
10000000
,  // measure 56
00100000
01000000
00010000
10000000
00100000
01000000
00010000
00000000
,  // measure 57
10100000
01010000
10100000
10000000
,  // measure 58
00100000
01000000
00010000
00000000
00100000
00000000
00000000
00000000
,  // measure 59
00011000
00110000
00011000
00010000
,  // measure 60
00001000
00000100
00000010
00000000
00001000
00000000
00000000
00000000
,  // measure 61
00000011
00000101
00001001
00000100
,  // measure 62
00000001
00000010
00001000
00000000
00010000
00000000
00000000
00000000
,  // measure 63
00010100
00011000
00101000
00100000
,  // measure 64
01000000
10000000
00100000
01000000
00010000
00100000
01000000
00000000
,  // measure 65
10010000
10010000
01100000
00010000
,  // measure 66
10000000
00100000
00010000
00000000
00001000
00000000
00100000
00000000
,  // measure 67
00101000
00101000
00011000
00010000
,  // measure 68
00001000
00000100
00000001
00000010
00000100
00010000
00002000
00020000
,  // measure 69
00000000
00000000
00000000
00000000
,  // measure 70
00033000
00000000
00000000
00000000
;

//---------------dance-double - ----------------
#NOTES:
     dance-double:
     :
     Hard:
     12:
     0.538269,0.674845,0.514168,0.160677,0.188796,469.000000,405.000000,64.000000,20.000000,0.000000,0.000000,0.538269,0.674845,0.514168,0.160677,0.188796,469.000000,405.000000,64.000000,20.000000,0.000000,0.000000:
// measure 0
00000000
00000000
00000000
00000000
,  // measure 1
00000000
00000000
00000000
00000000
,  // measure 2
00000000
00000000
00000000
00000000
,  // measure 3
00000000
00000000
00000000
00000000
,  // measure 4
00000000
00000000
00000000
00000000
,  // measure 5
00000000
00000000
00000000
00000000
,  // measure 6
00000000
00000000
00000000
00000000
,  // measure 7
00000000
00000000
00000000
00000000
,  // measure 8
00000000
00000000
00000000
00000000
,  // measure 9
00001000
00000000
00000001
00000100
00000000
00000100
00000001
00000000
00000010
00000100
00001000
00000000
00000001
00000000
00000100
00000000
,  // measure 10
00000010
00000000
00001000
00000100
00000000
00000100
00010000
00000000
00001000
00010000
00001000
00000000
00011000
00000000
00000000
00000000
,  // measure 11
00100000
00000000
00100000
00010000
00000000
00010000
10000000
00000000
01000000
10000000
00100000
00000000
10000000
00000000
00010000
00000000
,  // measure 12
00100000
00000000
00100000
01000000
00000000
01000000
10000000
00000000
00010000
10000000
00010000
00000000
01010000
00000000
01100000
00000000
,  // measure 13
00010000
00000000
10000000
01000000
00000000
01000000
00100000
00000000
00010000
01000000
00100000
00000000
01000000
00000000
00010000
00001000
,  // measure 14
00000000
00001000
00000100
00000000
00010000
00000000
00000010
00000000
00001000
00000100
00000010
00000001
00000010
00000100
00001000
00000000
,  // measure 15
00000010
00000000
00000100
00000010
00000000
00000010
00000100
00000000
00000001
00000000
00000010
00000000
00000100
00000000
00001000
00000000
,  // measure 16
00010000
00010000
10000000
10000000
00010000
00010000
00001000
00001000
,  // measure 17
00011000
00010000
00000100
00000100
00000010
00000010
00000001
00000001
,  // measure 18
00000100
00000100
00010000
00010000
01000000
01000000
10000000
10000000
,  // measure 19
00100000
00100000
01000000
01000000
00010000
00010000
00001000
00001000
,  // measure 20
00010000
00000000
00010000
00000000
00000100
00000000
00000100
00000000
00000010
00000000
00000010
00000100
00000010
00000000
00000000
00000000
,  // measure 21
00000011
00000001
00000011
00000001
00000011
00000000
00001001
00000000
,  // measure 22
00001100
00001000
00001100
00001000
00001100
00000000
00010100
00000000
,  // measure 23
00011000
00001000
00011000
00001000
00101000
00000000
00110000
01000000
,  // measure 24
11000000
10010000
02200000
03300000
,  // measure 25
10010000
01100000
10010000
10000000
,  // measure 26
10000000
00100000
00010000
00001000
00000100
00000000
00000001
00000000
,  // measure 27
00000011
00001100
00000011
00000001
,  // measure 28
00000001
00000010
00001000
00010000
00100000
00000000
10000000
00000000
,  // measure 29
10010000
01100000
10010000
10000000
,  // measure 30
10000000
00100000
00010000
00001000
00000100
00000000
00000001
00000000
,  // measure 31
00000011
00001100
00001001
00000100
,  // measure 32
00000001
00000010
00001000
00010000
00100000
00010000
00001000
00010000
,  // measure 33
00001000
00000000
00001000
00100000
00000000
00100000
00010000
00000000
10000000
01000000
00100000
00000000
00010000
00000000
10000000
00000000
,  // measure 34
00100000
00000000
01000000
00100000
00000000
00100000
01000000
00000000
00010000
01000000
00100000
00000000
01100000
00000000
00000000
00000000
,  // measure 35
10000000
00000000
00010000
10000000
00000000
10000000
00010000
00000000
10000000
00100000
10000000
00000000
01000000
00000000
00100000
00000000
,  // measure 36
00010000
00000000
00001000
00010000
00000000
00010000
00100000
00000000
00001000
00010000
00001000
00000000
00011000
00000000
00000000
00000000
,  // measure 37
00001000
00000000
00001000
00000100
00000000
00000100
00000010
00000000
00000001
00000100
00000010
00000000
00001000
00000000
00000100
00000010
,  // measure 38
00000000
00000010
00000001
00000000
00000100
00000000
00001000
00000000
00010000
00000100
00010000
00001000
00010000
00000100
00010000
00000000
,  // measure 39
00001000
00000000
00001000
00100000
00000000
00100000
00010000
00000000
01000000
00001000
00010000
00000000
00001000
00000000
00010000
00000000
,  // measure 40
00100000
00100000
00010000
00010000
00000100
00000100
00001000
00001000
,  // measure 41
00001020
00000230
00002300
00023000
,  // measure 42
00230000
00000000
00000000
00000000
20300000
00000000
00000000
00000000
32000000
00000000
00000000
00000000
03200000
00000000
00000000
00001000
,  // measure 43
00302000
00023000
00032000
00003200
,  // measure 44
00000302
00000023
00002030
00000000
,  // measure 45
00013000
00001000
00010000
00100000
00010000
00001000
00010000
00001000
,  // measure 46
00000100
00001000
00010000
00100000
00010000
00001000
00010000
00001000
,  // measure 47
00000010
00001000
00010000
00001000
00010000
00100000
00010000
00001000
,  // measure 48
00000100
00010000
00100000
01000000
20000000
00000000
30000000
00000000
,  // measure 49
10010000
01100000
10010000
10000000
,  // measure 50
10000000
00100000
00010000
00001000
00000100
00000000
00000001
00000000
,  // measure 51
00000011
00001100
00000011
00000001
,  // measure 52
00000001
00000010
00001000
00010000
00100000
00000000
10000000
00000000
,  // measure 53
10010000
01100000
10010000
10000000
,  // measure 54
10000000
00100000
00010000
00001000
00000100
00000000
00000001
00000000
,  // measure 55
00000011
00001100
00001001
00000100
,  // measure 56
00000001
00000010
00001000
00010000
00100000
00010000
00001000
00010000
,  // measure 57
00011000
10010000
00011000
00010000
,  // measure 58
00001000
00000100
00000001
00000100
00001000
00000000
00010000
00000000
,  // measure 59
00011000
00001001
00011000
00001000
,  // measure 60
00010000
00100000
10000000
00100000
00010000
00000000
00001000
00000000
,  // measure 61
00011000
10010000
00011000
00010000
,  // measure 62
00001000
00000100
00000001
00000100
00001000
00000000
00010000
00000000
,  // measure 63
00011000
00001001
00011000
00010000
,  // measure 64
00001000
00000100
00000001
00000010
00001000
00010000
00100000
10000000
,  // measure 65
10010000
01100000
10010000
10000000
,  // measure 66
10000000
00100000
00010000
00001000
00000100
00000001
00000010
00000100
,  // measure 67
00001100
00000101
00001100
00000010
,  // measure 68
00000001
00000010
00001000
00010000
00100000
10000000
02000000
00200000
,  // measure 69
00000000
00000000
00000000
00000000
,  // measure 70
03300000
00000000
00000000
00000000
;
