#VERSION:0.83;
#TITLE:PARANOiA Escape;
#SUBTITLE:;
#ARTIST:EBB;
#TITLETRANSLIT:;
#SUBTITLETRANSLIT:;
#ARTISTTRANSLIT:;
#GENRE:;
#ORIGIN:;
#CREDIT:;
#BANNER:PARANOiA Escape-bn.png;
#BACKGROUND:PARANOiA Escape-bg.png;
#PREVIEWVID:;
#JACKET:PARANOiA Escape-jacket.png;
#CDIMAGE:;
#DISCIMAGE:;
#LYRICSPATH:;
#CDTITLE:;
#MUSIC:paraescape.mp3;
#OFFSET:-0.091000;
#SAMPLESTART:13.328994;
#SAMPLELENGTH:15.000000;
#SELECTABLE:YES;
#DISPLAYBPM:90.000000:240.000000;
#BPMS:0.000=90.000,
16.000=180.000,
163.500=95.000,
165.500=240.000,
261.500=60.000;
#STOPS:56.000=0.083,
56.500=0.083,
57.000=0.166,
59.000=0.083,
59.500=0.083,
60.000=0.166,
62.000=0.083,
62.500=0.083,
63.000=0.166,
65.000=0.083,
65.500=0.083,
66.000=0.166,
67.000=0.166;
#DELAYS:;
#WARPS:;
#TIMESIGNATURES:0.000=4=4;
#TICKCOUNTS:0.000=4;
#COMBOS:0.000=1;
#SPEEDS:0.000=1.000=0.000=0;
#SCROLLS:0.000=1.000;
#FAKES:;
#LABELS:0.000=Song Start;
#BGCHANGES:;
#KEYSOUNDS:;
#ATTACKS:
;

//---------------dance-single - ----------------
#NOTEDATA:;
#CHARTNAME:;
#STEPSTYPE:dance-single;
#DESCRIPTION:;
#CHARTSTYLE:;
#DIFFICULTY:Beginner;
#METER:2;
#RADARVALUES:0.185687,0.241461,0.192940,0.010155,0.000000,128.000000,109.000000,19.000000,1.000000,0.000000,0.000000,0.000000,0.000000,0.000000,0.185687,0.241461,0.192940,0.010155,0.000000,128.000000,109.000000,19.000000,1.000000,0.000000,0.000000,0.000000,0.000000,0.000000;
#CREDIT:;
#DISPLAYBPM:90.000000:240.000000;
#NOTES:
0000
0000
0000
0000
,
0000
0000
0000
0000
,
0000
0000
0000
0000
,
0000
0000
0000
0000
,
1001
0000
0000
0000
,
0000
0000
0000
0010
,
1000
0000
1000
0000
,
0001
0000
0001
0000
,
1000
0000
1000
0000
,
0001
0000
1000
0000
,
0010
0000
0010
0000
,
0100
0000
0010
0000
,
0100
0000
0100
0000
,
0010
0000
0100
0000
,
1001
0000
0000
0110
,
0000
0000
0101
0000
,
0000
1010
0000
0000
,
0000
0000
0000
0100
0000
0000
0000
0001
,
0000
0000
0000
0100
0000
0000
0000
0000
,
0000
0000
0000
0010
0000
0000
0000
1000
,
0000
0000
0000
0010
0000
0000
0000
0000
,
0000
0000
0000
1000
0000
0000
0000
0001
,
0000
0000
0000
0010
0000
0000
0000
0000
,
0000
0000
0000
0001
0000
0000
0000
1000
,
0000
0000
0000
0100
0000
0000
0000
1001
,
0000
0000
0000
0000
0000
0000
0000
0110
,
0000
0000
0000
0000
0000
0000
0000
0101
,
0000
0000
0000
0000
0000
0000
0000
1000
,
0000
0000
0000
0001
0000
0000
0000
1001
,
0000
0000
0000
0000
0000
0000
0000
1010
,
0000
0000
0000
0000
0000
0000
0000
0101
,
0000
0000
0000
0000
0000
0000
0000
1000
,
0000
0000
0000
0001
0000
0000
0000
0011
,
0000
0000
0000
0000
0000
0000
0000
0101
,
0000
0000
0000
0000
0000
0000
0000
1010
,
0000
0000
0000
0000
0000
0000
0000
0001
,
0000
0000
0000
0100
0000
0000
0000
0110
,
0000
0000
0000
0000
0000
0000
0000
1001
,
0000
0000
0000
0000
0000
0000
0000
1010
,
0000
0000
0000
0000
0000
0000
0000
0001
,
0000
0000
0000
0100
0000
0000
0000
1001
,
0000
0000
0000
0001
0000
0000
0000
1000
,
0000
0000
0000
0001
0000
0000
0000
0100
,
0000
0000
0000
0001
0000
0000
0000
1000
,
0000
0000
0000
0001
0000
0000
0000
1000
,
0000
0000
0000
0100
0000
0000
0000
1000
,
0000
0000
0000
0001
0000
0000
0000
1000
,
0000
0000
0000
0010
0000
0000
0000
0010
,
0000
0000
0000
0100
0000
0000
0000
0100
,
0000
0000
0000
0001
0000
0000
0000
1000
,
0000
0000
0000
0001
0000
0000
0000
1000
,
0000
0000
0000
0100
0000
0000
0000
1000
,
0000
0000
0000
0001
0000
0000
0000
1000
,
0000
0000
0000
0010
0000
0000
0000
0100
,
0000
0000
0000
0010
0000
0000
0000
1000
,
0000
0000
0000
0001
0000
0000
0000
0001
,
0000
0000
0000
0001
0000
0000
0000
0001
,
0000
0000
0000
1000
0000
0000
0000
0010
,
0000
0000
0000
1000
0000
0000
0000
0001
,
0000
0000
0000
0100
0000
0000
0000
0001
,
0000
0000
0000
1000
0000
0000
0000
0001
,
0000
0000
0000
0010
0000
0000
0000
0010
,
0000
0000
0000
0100
0000
0000
0000
0100
,
0000
0000
0000
1000
0000
0000
0000
0001
,
0000
0000
0000
0100
0000
0010
0000
0100
,
0000
0000
0000
1001
0000
0000
0000
0010
,
0000
0000
0000
1000
0000
0000
0000
0001
,
0000
0000
0200
0000
0000
0000
0000
0000
0000
0000
0000
0000
0000
0000
0000
0300
;

//---------------dance-single - ----------------
#NOTEDATA:;
#CHARTNAME:;
#STEPSTYPE:dance-single;
#DESCRIPTION:;
#CHARTSTYLE:;
#DIFFICULTY:Easy;
#METER:7;
#RADARVALUES:0.329304,0.448428,0.223405,0.060929,0.005077,227.000000,205.000000,22.000000,6.000000,0.000000,0.000000,0.000000,0.000000,0.000000,0.329304,0.448428,0.223405,0.060929,0.005077,227.000000,205.000000,22.000000,6.000000,0.000000,0.000000,0.000000,0.000000,0.000000;
#CREDIT:;
#DISPLAYBPM:90.000000:240.000000;
#NOTES:
2000
0000
0001
0000
,
3002
0000
1000
0000
,
0023
0000
1000
0000
,
0230
0000
0001
0000
,
1300
0000
0001
1000
,
0001
0000
1000
0001
0010
0000
0000
0000
,
0100
0010
0100
0001
,
1000
0100
0100
0010
,
1001
0000
0010
0100
,
0001
0010
0100
0100
,
1001
0000
0100
0010
,
1000
0001
0001
0100
,
1001
0000
0010
0100
,
0001
1000
0100
0100
,
1001
1001
0000
0110
,
0110
0000
0101
0101
,
0000
0000
1001
0000
1001
0000
0000
0001
,
0000
1000
0000
0010
0000
1000
0000
0010
,
0000
1000
0000
0010
0000
0100
0000
0011
,
0000
0000
0000
0001
0000
0010
0000
0100
,
0000
1000
0000
0001
0000
0100
0000
1001
,
0000
0000
0000
1000
0000
0010
0000
0100
,
0000
0001
0000
1000
0000
0001
0000
0110
,
0000
1000
0000
0010
0000
0100
0000
0001
,
0000
0100
0000
1000
0000
0100
0000
1001
,
0000
0000
0001
0000
0000
1000
0000
0000
,
0100
0000
0000
0010
0000
0010
0000
0100
,
0000
0000
1000
0000
0000
0001
0000
0000
,
0100
0000
0000
0010
0000
0010
0000
0001
,
0000
0000
1000
0000
0000
0001
0000
0000
,
0010
0000
0000
0100
0000
0100
0000
1000
,
0000
0000
0001
0000
0000
0100
0000
0000
,
0010
0000
0000
1000
0000
1000
0000
0001
,
0000
0000
0100
0000
0000
1000
0000
0000
,
0010
0000
0000
0100
0000
0100
0000
1000
,
0000
0000
0010
0000
0000
0100
0000
0000
,
0001
0000
0000
0010
0000
0010
0000
0100
,
0000
0000
1000
0000
0000
0001
0000
0000
,
0010
0000
0000
0001
0000
0001
0000
1000
,
0000
0000
0001
0000
0000
1000
0000
0000
,
0001
0000
0000
0100
0000
0100
0000
1001
,
0000
0000
0000
0010
0000
1000
0000
0010
,
0000
0000
0000
0100
0000
0001
0000
0100
,
0000
0000
0000
0010
0000
1000
0000
0100
,
0000
0000
0000
1000
0000
0001
0000
0100
,
0000
0000
0000
0001
0000
0000
0000
0010
,
0000
0000
0000
0001
0000
0100
0000
0001
,
0000
0000
0000
1000
0000
0100
0000
1000
,
0000
0001
0000
0100
0000
0000
0000
0010
,
0000
0000
0000
1001
0000
0000
0000
0010
,
0000
0000
0000
0100
0000
1000
0000
0100
,
0000
0000
0000
0001
0000
1000
0000
0010
,
0000
0000
0000
0100
0000
0000
0000
0001
,
0000
0000
0000
0010
0000
0001
0000
0010
,
0000
0000
0000
0100
0000
0000
0000
1000
,
0000
0000
0000
0001
0000
1000
0000
0001
,
0000
1000
0000
0010
0000
1000
0000
0010
,
0000
1000
0000
0001
0000
0000
0000
0010
,
0000
0000
0000
0001
0000
1000
0000
0100
,
0000
0000
0000
1000
0000
0000
0000
0010
,
0000
0000
0000
0100
0000
0001
0000
0010
,
0000
0000
0000
1100
0000
0000
0000
0101
,
0000
0000
0000
0011
0000
0000
0000
1001
,
0000
0000
0000
1000
0000
0001
0000
1000
,
0000
0001
0000
0100
0000
0010
0000
0100
,
0000
0010
0000
1000
0000
0000
0000
0001
,
0000
0000
0000
0000
0000
0000
0000
0000
0000
0000
0000
0000
1000
0000
0000
0000
0000
0000
0000
0000
0000
0000
0000
0010
0000
0000
0000
0000
0010
0000
0000
0000
,
0000
0000
0220
0000
0000
0000
0000
0000
0000
0000
0000
0000
0000
0000
0000
0330
;

//---------------dance-single - ----------------
#NOTEDATA:;
#CHARTNAME:;
#STEPSTYPE:dance-single;
#DESCRIPTION:;
#CHARTSTYLE:;
#DIFFICULTY:Medium;
#METER:12;
#RADARVALUES:0.510639,0.689889,0.406190,0.101548,0.045696,352.000000,312.000000,40.000000,10.000000,0.000000,0.000000,0.000000,0.000000,0.000000,0.510639,0.689889,0.406190,0.101548,0.045696,352.000000,312.000000,40.000000,10.000000,0.000000,0.000000,0.000000,0.000000,0.000000;
#CREDIT:;
#DISPLAYBPM:90.000000:240.000000;
#NOTES:
2000
0000
0000
3020
0000
0000
0000
0000
0001
0000
0000
0000
0100
0000
0000
0000
,
2030
0000
0000
3002
0000
0000
0000
0000
0010
0000
0000
0000
0100
0000
0003
0000
,
2000
0000
0000
3020
0000
0000
0000
0000
0100
0000
0000
0000
1000
0000
0000
0000
,
0230
0000
0000
0302
0000
0000
0000
0000
0010
0000
0000
0000
1000
0000
0003
0000
,
1001
0000
0000
0000
0001
0100
0010
1000
,
0100
0000
0010
0000
0001
0000
1000
0001
1000
0000
0000
0000
0101
0000
0000
0000
,
1000
0100
1000
0001
,
0100
0010
0100
0000
1000
0100
1000
0000
,
0101
0010
0100
1000
,
0010
0001
0010
0000
0100
0010
0100
0000
,
1001
0010
0001
0100
,
0010
1000
0010
0000
0001
0010
0001
0000
,
1100
0010
0100
1000
,
0100
0001
0100
0000
1000
0100
1000
0000
,
0001
0100
1010
0000
0000
0000
1000
0100
,
0011
0000
0000
0000
0001
0100
1010
0000
,
0000
0000
1000
0001
0110
0000
1001
0010
,
0000
1000
0000
0010
0000
0100
0000
0001
,
0010
0001
0100
0001
1000
0100
0000
0110
,
0000
0010
0000
0001
0000
0100
0000
0010
,
0001
0010
0000
1000
0100
1000
0000
0011
,
0000
0100
0000
0010
0000
0100
0000
0001
,
0010
0100
1000
0001
0100
0010
0000
1001
,
0010
0001
0010
0001
0010
0100
1000
0001
,
0100
0010
0100
0010
1000
0100
0010
0001
,
0000
0000
0100
0000
0000
1000
0000
0000
,
0010
0000
0000
0001
0001
0001
0000
0100
,
0000
0000
0001
0000
0000
0010
0000
0000
,
0100
0000
0000
1000
1000
1000
0000
0010
,
0000
0000
0100
0000
0000
1000
0000
0000
,
0001
0000
0000
0010
0010
0010
0000
0001
,
0000
0000
0010
0000
0000
0100
0000
0000
,
1000
0000
0000
0010
0010
0010
0000
1001
,
0000
0000
0100
0000
0000
1000
0000
0000
,
0010
0000
0000
0001
0001
0001
0000
0100
,
0000
0000
0001
0000
0000
0010
0000
0000
,
0100
0000
0000
1000
1000
1000
0000
0010
,
0000
0000
0100
0000
0000
0001
0000
0000
,
1000
0000
0000
0010
0010
0010
0000
1000
,
0000
0000
0100
0000
0000
0001
0000
0000
,
0010
0000
0000
1000
1000
1000
0000
1001
,
0000
0000
0000
0001
0100
0010
0000
0100
,
0000
0010
0000
1000
0000
0100
0010
0000
,
0010
0100
0000
0001
0100
0010
0000
1000
,
0000
0010
0000
0100
0000
0001
0000
0010
,
0000
0100
0000
1000
0001
0010
0000
0100
,
0000
0010
0000
0100
0000
1000
0001
0000
,
0001
1000
0000
0010
0100
1000
0000
0001
,
0000
0100
0000
1000
0010
1000
0010
1000
,
0000
0001
0000
1001
0000
0100
0000
0010
,
0000
0001
0000
0100
0000
1000
0100
0000
,
0100
0010
0000
0001
0100
0010
0000
1000
,
0000
0001
0000
0010
0000
0100
0000
1000
,
0000
0001
0000
1001
0000
1000
0000
1010
,
0000
0100
0000
0101
0000
0001
0000
0011
,
0000
0010
0000
1100
0000
0001
0000
0100
,
0000
0010
0000
0110
0000
1001
0000
1001
,
0000
0000
0000
0001
0100
0010
0000
1000
,
0100
0010
0000
0001
0100
0010
0000
1000
,
0100
0010
0000
0001
0100
0010
0000
0100
,
0001
0100
0000
0010
1000
0010
0000
0100
,
0001
1000
0000
1100
0000
0001
0000
0101
,
0000
1000
0000
1100
0000
0001
0000
0101
,
0000
0001
0000
0011
0000
0011
0000
1100
,
0000
1100
0000
0101
0000
1010
0000
0101
,
0000
0000
1010
0000
0000
0000
1001
0000
0000
0000
0010
0100
0001
0000
1001
0000
,
0000
0000
0000
0000
1000
0000
0100
0000
0010
0000
0000
0000
1001
0000
0000
0000
0000
0000
0000
0000
0000
0000
0000
0010
0000
0000
0100
0000
0001
0000
0000
0000
,
0000
0000
2002
0000
0000
0000
0000
0000
0000
0000
0000
0000
0000
0000
0000
3003
;

//---------------dance-single - ----------------
#NOTEDATA:;
#CHARTNAME:;
#STEPSTYPE:dance-single;
#DESCRIPTION:;
#CHARTSTYLE:;
#DIFFICULTY:Hard;
#METER:15;
#RADARVALUES:0.652806,0.827867,0.507738,0.091393,0.152321,450.000000,400.000000,50.000000,9.000000,0.000000,0.000000,0.000000,0.000000,0.000000,0.652806,0.827867,0.507738,0.091393,0.152321,450.000000,400.000000,50.000000,9.000000,0.000000,0.000000,0.000000,0.000000,0.000000;
#CREDIT:;
#DISPLAYBPM:90.000000:240.000000;
#NOTES:
0002
0000
0000
2003
0000
0000
0000
0000
0010
0000
0001
0000
0100
0000
0001
0000
,
3002
0000
0000
0023
0000
0000
0000
0000
0100
0000
0001
0000
0100
0000
0000
0030
,
0002
0000
0000
0203
0000
0000
0000
0000
1000
0000
0010
0000
0001
0000
0010
0000
,
0320
0000
0000
2030
0000
0000
0000
0000
0100
0000
0001
0000
0010
0000
0100
3000
,
0001
1000
0001
1000
0000
0000
0000
0000
1000
0100
1000
0100
0010
0001
0010
0001
,
0010
0100
1000
0100
0010
0001
0100
0010
0000
0000
0000
0000
1001
0000
0000
0000
,
0001
0100
0010
1000
0100
0010
0001
1000
,
0010
0001
0010
1000
0010
0001
0010
1000
,
1010
0010
0100
0001
1000
0010
0100
0001
,
0010
1000
0010
0001
0010
1000
0010
0001
,
0101
0010
1000
0100
1000
0010
1000
0001
,
0100
1000
0100
0001
0100
1000
0100
0001
,
1001
1000
0100
0010
0001
0100
0010
1000
,
0100
0001
0100
1000
0100
0001
0100
1000
,
1010
1001
0101
0000
0000
0000
1001
1010
,
1100
0000
0000
0000
1010
0101
0011
0000
,
0000
0000
0101
1001
1010
0000
1001
0110
,
1000
0100
0001
0010
1000
0100
0010
0001
,
0010
1000
0010
0001
0010
0100
1000
1010
,
0010
0001
0010
1000
0100
1000
0001
0010
,
0001
1000
0010
1000
0001
0100
0010
1001
,
0010
0100
0010
0001
0100
1000
0001
0010
,
1000
0100
0010
0001
0100
0001
1000
0110
,
0001
0000
1000
0000
0100
0000
0010
0000
0001
0000
0100
0000
0010
0000
1000
0001
,
1000
0000
0100
0010
0100
0000
0010
0001
0010
0000
0100
1000
0010
1000
0001
0000
,
0000
0000
0010
0000
0000
0100
0000
0000
,
1000
0000
0100
0001
0001
0100
0000
1000
,
0000
0000
0010
0000
0000
0100
0000
0000
,
0001
0000
0100
1000
1000
0100
0000
0001
,
0000
0000
0010
0000
0000
0100
0000
0000
,
1000
0000
0100
0001
0001
0100
0000
1000
,
0000
0000
0010
0000
0000
0100
0000
0000
,
0001
0000
0100
1000
1000
0100
0000
1000
,
0000
0000
0001
0000
0000
0110
0000
0000
,
1001
0000
0010
0100
0100
0100
0000
0001
,
0000
0000
1000
0000
0000
0110
0000
0000
,
1001
0000
0010
0100
0100
0100
0000
1000
,
0000
0000
0001
0000
0000
0110
0000
0000
,
1001
0000
0010
0100
0100
0100
0000
0001
,
0000
0000
1000
0000
0000
0110
0000
0000
,
1001
0000
0010
0100
0100
0100
0000
0110
,
0000
0000
0000
0001
1000
0100
0000
1000
,
0000
0001
0000
0100
0000
0010
0001
0000
,
0001
0010
0000
1000
0100
0010
0000
0001
,
0000
0100
0000
1000
0100
0010
0100
0001
,
0000
1000
0000
0011
0001
1000
0000
0001
,
0000
0100
0000
0010
0000
0001
0010
0000
,
1000
0100
0000
1000
0001
0010
0000
0100
,
0000
1000
0000
0001
0010
0001
0010
1000
,
0010
1000
0000
0011
0000
0100
0000
1000
,
0000
0010
0000
0001
0000
0100
1000
0000
,
1000
0100
0000
0001
0010
0100
0000
1000
,
0000
0001
0000
0100
0010
0100
0010
0001
,
0000
1000
0000
1100
0000
0001
0000
0011
,
0000
0100
0000
0010
0000
1000
0001
0000
,
0001
0010
0000
0100
1000
0100
1000
0010
,
1000
0010
1000
0100
0001
0100
1000
0010
,
1000
0010
0000
0101
0000
0001
0000
0011
,
0000
1000
0000
1100
0000
0001
0100
0000
,
0100
0010
0000
0001
1000
1100
0000
0001
,
0000
0101
0000
0010
0000
1010
0000
1000
,
0000
1100
0000
0011
0000
1100
0000
0101
,
0000
1010
0000
0101
0000
0011
0000
1100
,
0000
1001
0000
0010
0100
0010
1000
0001
,
1000
0001
1000
0010
0100
0010
0001
0010
,
1000
0000
0000
0000
0100
0000
0000
0000
0010
0000
0000
0000
1001
0000
0000
0000
0000
0000
0000
0000
0000
0000
0000
0001
0000
0100
0001
0000
1000
0001
0000
0000
,
0000
0000
0000
0000
0000
0000
0000
0000
0000
0000
0000
0000
0100
0010
0000
0000
0000
0000
0000
0000
0000
0000
0000
0001
0000
0100
0001
0000
1000
0001
0000
0000
,
0000
0000
0000
0000
0000
0000
0000
0000
1000
0000
0000
0100
0000
0000
0020
0000
0000
0000
0000
0000
0000
0000
0000
0000
0000
0000
0000
0000
0000
0000
0000
0000
0000
0000
0000
0000
0000
0000
0000
0000
0000
0000
0000
0000
0000
0000
0000
0000
0000
0000
0000
0000
0000
0000
0000
0000
0000
0000
0000
0000
0030
0000
0000
0000
;

//---------------dance-double - ----------------
#NOTEDATA:;
#CHARTNAME:;
#STEPSTYPE:dance-double;
#DESCRIPTION:;
#CHARTSTYLE:;
#DIFFICULTY:Easy;
#METER:7;
#RADARVALUES:0.294488,0.344944,0.091393,0.060929,0.000000,203.000000,194.000000,9.000000,6.000000,0.000000,0.000000,0.000000,0.000000,0.000000,0.294488,0.344944,0.091393,0.060929,0.000000,203.000000,194.000000,9.000000,6.000000,0.000000,0.000000,0.000000,0.000000,0.000000;
#CREDIT:;
#DISPLAYBPM:90.000000:240.000000;
#NOTES:
// measure 0
00000020
00000000
00000100
00000000
,  // measure 1
00000230
00000000
00000000
00000000
00000010
00000000
00000000
00000300
,  // measure 2
00002000
00000000
00010000
00000000
,  // measure 3
00023000
00000000
00001000
00030000
,  // measure 4
00011000
00000000
00000000
00000000
,  // measure 5
00000000
00000000
00000000
00001000
,  // measure 6
00010000
00100000
10000000
00100000
,  // measure 7
10000000
01000000
10000000
00100000
,  // measure 8
00000000
00010000
00001000
00010000
,  // measure 9
00000100
00010000
00001000
00010000
,  // measure 10
00000000
00000000
00000100
00000010
,  // measure 11
00000100
00001000
00000100
00000010
,  // measure 12
00000000
00000000
00000001
00000100
,  // measure 13
00000001
00001000
00000100
00001000
,  // measure 14
00000101
00000100
00000000
00011000
,  // measure 15
00010000
00000000
11000000
01000000
,  // measure 16
00000000
00000000
00011000
00000000
00001000
00000000
00000000
00000001
,  // measure 17
00000000
00000100
00000000
00000001
00000000
00000100
00000000
00000010
,  // measure 18
00000000
00001000
00000000
00000010
00000000
00000000
00000000
00010000
,  // measure 19
00000000
00000100
00000000
00010000
00000000
00000100
00000000
00001000
,  // measure 20
00000000
00000100
00000000
00010000
00000000
00001000
00000000
00000000
,  // measure 21
00000000
00100000
00000000
00010000
00000000
00100000
00000000
01000000
,  // measure 22
00000000
10000000
00000000
01000000
00000000
00100000
00000000
00000000
,  // measure 23
00000000
00001000
00000000
00010000
00000000
00001000
00000000
00100000
,  // measure 24
00000000
00001000
00000000
00010000
00000000
00000100
00000000
00001100
,  // measure 25
00000000
00000000
00000010
00000000
00000000
00000001
00000000
00000000
,  // measure 26
00000100
00000000
00000000
00001000
00000000
00010000
00000000
00100000
,  // measure 27
00000000
00000000
10000000
00000000
00000000
01000000
00000000
00000000
,  // measure 28
00010000
00000000
00000000
00001000
00000000
00010000
00000000
00001000
,  // measure 29
00000000
00000000
00000010
00000000
00000000
00000001
00000000
00000000
,  // measure 30
00000100
00000000
00000000
00001000
00000000
00010000
00000000
00100000
,  // measure 31
00000000
00000000
10000000
00000000
00000000
01000000
00000000
00000000
,  // measure 32
00010000
00000000
00000000
00001000
00000000
00001000
00000000
00010000
,  // measure 33
00000000
00000000
01000000
00000000
00000000
10000000
00000000
00000000
,  // measure 34
00100000
00000000
00000000
00010000
00000000
00001000
00000000
00000100
,  // measure 35
00000000
00000000
00000001
00000000
00000000
00000010
00000000
00000000
,  // measure 36
00001000
00000000
00000000
00010000
00000000
01000000
00000000
10000000
,  // measure 37
00000000
00000000
00100000
00000000
00000000
00010000
00000000
00000000
,  // measure 38
00001000
00000000
00000000
00000100
00000000
00000001
00000000
00000010
,  // measure 39
00000000
00000001
00000000
00000100
00000000
00001000
00000000
00010000
,  // measure 40
00000000
00001000
00000000
00100000
00000000
01000000
00000000
10010000
,  // measure 41
00000000
00000000
00000000
01000000
00000000
01000000
00000000
01000000
,  // measure 42
00000000
00000000
00000000
00100000
00000000
00000000
00000000
01000000
,  // measure 43
00000000
00000000
00000000
00010000
00000000
00010000
00000000
00010000
,  // measure 44
00000000
00000000
00000000
10000000
00000000
00010000
00000000
10000000
,  // measure 45
00000000
00000000
00000000
00001000
00000000
00001000
00000000
00010000
,  // measure 46
00000000
00000000
00000000
00001000
00000000
00000000
00000000
00010000
,  // measure 47
00000000
00000000
00000000
00000100
00000000
00000000
00000000
00000100
,  // measure 48
00000000
00000000
00000000
00000010
00000000
00000010
00000000
00000010
,  // measure 49
00000000
00000000
00000000
00000001
00000000
00000100
00000000
00000001
,  // measure 50
00000000
00000000
00000000
00001000
00000000
00000000
00000000
00000100
,  // measure 51
00000000
00000000
00000000
00000010
00000000
00000010
00000000
00000100
,  // measure 52
00000000
00000000
00000000
00001000
00000000
00000000
00000000
00000100
,  // measure 53
00000000
00000000
00000000
00010000
00000000
00000000
00000000
00010100
,  // measure 54
00000000
00000000
00000000
00001000
00000000
00000000
00000000
00101000
,  // measure 55
00000000
00000000
00000000
00010000
00000000
00000000
00000000
01000000
,  // measure 56
00000000
00000000
00000000
00100000
00000000
00100000
00000000
00100000
,  // measure 57
00000000
00000000
00000000
10000000
00000000
01000000
00000000
10000000
,  // measure 58
00000000
00000000
00000000
00100000
00000000
00000000
00000000
00010000
,  // measure 59
00000000
00000000
00000000
00001000
00000000
00010000
00000000
00001000
,  // measure 60
00000000
00000000
00000000
00000100
00000000
00000000
00000000
00000001
,  // measure 61
00000000
00000000
00000000
00000010
00000000
00000010
00000000
00000100
,  // measure 62
00000000
00000000
00000000
00001000
00000000
00001000
00000000
00010000
,  // measure 63
00000000
00000000
00000000
01000000
00000000
01000000
00000000
00100000
,  // measure 64
00000000
00100000
00000000
00010000
00000000
00010000
00000000
00001000
,  // measure 65
00000000
00001000
00000000
00000100
00000000
00000000
00000000
00000001
,  // measure 66
00000000
00000000
00000000
00000100
00000000
00000000
00000000
00020000
,  // measure 67
00000000
00000000
00002000
00000000
00000000
00000000
00000000
00000000
00000000
00000000
00000000
00000000
00000000
00000000
00000000
00033000
;

//---------------dance-double - ----------------
#NOTEDATA:;
#CHARTNAME:;
#STEPSTYPE:dance-double;
#DESCRIPTION:;
#CHARTSTYLE:;
#DIFFICULTY:Medium;
#METER:12;
#RADARVALUES:0.516442,0.689889,0.253869,0.162476,0.045696,356.000000,331.000000,25.000000,16.000000,0.000000,0.000000,0.000000,0.000000,0.000000,0.516442,0.689889,0.253869,0.162476,0.045696,356.000000,331.000000,25.000000,16.000000,0.000000,0.000000,0.000000,0.000000,0.000000;
#CREDIT:;
#DISPLAYBPM:90.000000:240.000000;
#NOTES:
// measure 0
00000020
00000000
00000000
00000230
00000000
00000000
00000000
00000000
00000010
00000000
00000000
00000000
00000010
00000000
00000000
00000000
,  // measure 1
00000320
00000000
00000000
00002030
00000000
00000000
00000000
00000000
00000100
00000000
00000000
00000000
00000100
00000000
00000000
00003000
,  // measure 2
00200000
00000000
00000000
00320000
00000000
00000000
00000000
00000000
01000000
00000000
00000000
00000000
00100000
00000000
00000000
00000000
,  // measure 3
20030000
00000000
00000000
30200000
00000000
00000000
00000000
00000000
01000000
00000000
00000000
00000000
10000000
00000000
00000000
00000000
,  // measure 4
01300000
00100000
01000000
00000000
00100000
00010000
00001000
00010000
,  // measure 5
00000100
00000000
00001000
00000000
00010000
00000000
01000000
00100000
01000000
00000000
00000000
00000000
00000000
00000000
00000000
00000000
,  // measure 6
20000000
00000000
30100000
10000000
00000000
10000000
01000000
00100000
,  // measure 7
00000000
00100000
00010000
10000000
00100000
10000000
00010000
00000000
,  // measure 8
00002000
00000000
00013000
00100000
00000000
10000000
01000000
00100000
,  // measure 9
00000000
00001000
00000000
00010000
00000000
00001000
00001000
00000000
,  // measure 10
00000020
00000000
00000000
00000130
00000000
00001000
00000100
00000010
,  // measure 11
00000000
00000001
00000100
00000010
00000100
00000001
00000010
00000000
,  // measure 12
00000200
00000000
00000000
00000310
00000000
00000100
00001000
00010000
,  // measure 13
00000000
00100000
00001000
00100000
00001000
01000000
00100000
00000000
,  // measure 14
10000000
00100000
01010000
00000000
00000000
00000000
00001000
00000010
,  // measure 15
00000101
00000000
00000000
00000000
00000001
00000100
00001010
00000000
,  // measure 16
00000000
00000000
00010000
01000000
10100000
00000000
10010000
10000000
,  // measure 17
00000000
00100000
00000000
10000000
00000000
01000000
00000000
00100000
,  // measure 18
00010000
01000000
00100000
10000000
01000000
00100000
00000000
00011000
,  // measure 19
00000000
00010000
00000000
00001000
00000000
00010000
00000100
00000000
,  // measure 20
00000010
00000000
00000001
00000000
00000100
00000100
00000000
00001001
,  // measure 21
00000000
00000010
00000100
00000000
00000001
00000010
00000100
00000000
,  // measure 22
00001000
00000100
00000010
00000100
00001000
00000100
00000000
00011000
,  // measure 23
00010000
00001000
00010000
00001000
00010000
00100000
10000000
01000000
,  // measure 24
10000000
01000000
00010000
00001000
00000100
00000010
00001000
00001100
,  // measure 25
00000000
00000000
00000010
00000000
00000000
00000001
00000000
00000000
,  // measure 26
00000100
00000000
00000000
00001000
00010000
00100000
00000000
10000000
,  // measure 27
00000000
00000000
01000000
00000000
00000000
00010000
00000000
00000000
,  // measure 28
00001000
00000000
00000000
00000010
00000001
00000100
00000000
00001000
,  // measure 29
00000000
00000000
00010000
00000000
00000000
00100000
00000000
00000000
,  // measure 30
10000000
00000000
00000000
01000000
00010000
00001000
00000000
00000100
,  // measure 31
00000000
00000000
00000001
00000000
00000000
00000010
00000000
00000000
,  // measure 32
00001000
00000000
00000000
00010000
01000000
10000000
00000000
00100000
,  // measure 33
10000000
00000000
00100000
01000000
00000000
00100000
00010000
00000000
,  // measure 34
00100000
01000000
00000000
00100000
00100000
00100000
00000000
00010000
,  // measure 35
00001000
00000000
00010000
00000100
00000000
00010000
00001000
00000000
,  // measure 36
00010000
00100000
00000000
00010000
00010000
00010000
00000000
00000100
,  // measure 37
00001000
00000000
00000100
00000010
00000000
00000100
00000001
00000000
,  // measure 38
00000100
00001000
00000000
00000010
00000010
00000010
00000000
00000100
,  // measure 39
00001000
00000000
00010000
00100000
00000000
00010000
00001000
00000000
,  // measure 40
01000000
00100000
00000000
01000000
01000000
01000000
00000000
20020000
,  // measure 41
00000000
30030000
00000000
10000000
00010000
00100000
00000000
01000000
,  // measure 42
00000000
00100000
00000000
00010000
00000000
00100000
01000000
00000000
,  // measure 43
01000000
00100000
00000000
00001000
00010000
00001000
00000000
00000100
,  // measure 44
00000000
00000010
00000000
00000100
00000000
00000001
00000000
00000010
,  // measure 45
00000000
00000100
00000000
00001000
00000010
00001000
00000000
00010000
,  // measure 46
00000000
00001000
00000000
00000010
00000000
00000100
00001000
00000000
,  // measure 47
00001000
00010000
00000000
00001000
00100000
00010000
00000000
00100000
,  // measure 48
01000000
00100000
00000000
11000000
00000000
10010000
00000000
10100000
,  // measure 49
00000000
00000000
00000000
10000000
01000000
10000000
00000000
00100000
,  // measure 50
00000000
00010000
00000000
00001000
00000000
00100000
00010000
00000000
,  // measure 51
00010000
00001000
00000000
00000100
00001000
00000001
00000000
00000100
,  // measure 52
00000000
00000001
00000000
00000010
00000000
00000001
00000000
00000100
,  // measure 53
00000000
00001000
00000000
00010000
00001000
00010000
00000000
00000100
,  // measure 54
00000000
00001000
00000000
00000100
00000000
00010000
00001000
00000000
,  // measure 55
00001000
00010000
00000000
00100000
01000000
00100000
00000000
10000000
,  // measure 56
01000000
10000000
00000000
10010000
00000000
00010000
00000000
00100000
,  // measure 57
00000000
01000000
00000000
10000000
00000000
00100000
00000000
00010000
,  // measure 58
00000000
00001000
00000000
00000100
00000000
00000001
00000010
00000000
,  // measure 59
00000010
00000001
00000000
00000100
00001000
00010000
00000000
00001000
,  // measure 60
00000000
00100000
00000000
00001000
00000000
01000000
00000000
00100000
,  // measure 61
00000000
10000000
00000000
01000000
00000000
01000000
00000000
00010000
,  // measure 62
00000000
00010000
00000000
00001000
00000000
00001000
00000000
00000100
,  // measure 63
00000000
00000100
00000000
00000011
00000000
00000100
00000000
00001100
,  // measure 64
00000000
00010000
00000000
00011000
00000000
00010100
00000000
00011000
,  // measure 65
00000000
00000000
01001000
00000000
00000000
00000000
00011000
00000000
00000000
00000000
00010000
00001000
00000100
00000000
00000011
00000000
,  // measure 66
00000000
00000000
00000000
00000000
00000001
00000000
00000100
00000000
00001000
00000000
00000000
00000000
00011000
00000000
00000000
00000000
00000000
00000000
00000000
00000000
00000000
00000000
00000000
00100000
00000000
00000000
01000000
00000000
10010000
00000000
00000000
00000000
,  // measure 67
00000000
00000000
00022000
00000000
00000000
00000000
00000000
00000000
00000000
00000000
00000000
00000000
00000000
00000000
00000000
00033000
;

//---------------dance-double - ----------------
#NOTEDATA:;
#CHARTNAME:;
#STEPSTYPE:dance-double;
#DESCRIPTION:;
#CHARTSTYLE:;
#DIFFICULTY:Hard;
#METER:16;
#RADARVALUES:0.694876,1.138317,0.396036,0.132012,0.203095,479.000000,440.000000,39.000000,13.000000,0.000000,0.000000,0.000000,0.000000,0.000000,0.694876,1.138317,0.396036,0.132012,0.203095,479.000000,440.000000,39.000000,13.000000,0.000000,0.000000,0.000000,0.000000,0.000000;
#CREDIT:;
#DISPLAYBPM:90.000000:240.000000;
#NOTES:
// measure 0
00000200
00000000
00000000
00000320
00000000
00000000
00000000
00000000
00001000
00000000
00000001
00000000
00001000
00000000
00000000
00000000
,  // measure 1
00002030
00000000
00000000
00000100
00000000
00000000
00000000
00000000
00010000
00000000
00000100
00000000
00010000
00000000
00000000
00003000
,  // measure 2
00020000
00000000
00000000
00230000
00000000
00000000
00000000
00000000
00001000
00000000
01000000
00000000
00001000
00000000
00000000
00000000
,  // measure 3
02300000
00000000
00000000
00100000
00000000
00000000
00000000
00000000
00010000
00000000
10000000
00000000
00010000
00000000
00000000
03000000
,  // measure 4
10000000
00010000
10000000
00010000
00000000
00000000
00000000
00000000
10000000
01000000
10000000
01000000
00100000
00010000
00100000
00010000
,  // measure 5
00001000
00000100
00001000
00000001
00000010
00000100
00001000
00000010
00000200
00000000
00000000
00000000
00000310
00000000
00000000
00000000
,  // measure 6
00000101
00000100
00000010
00000001
00000010
00001000
00010000
10000000
,  // measure 7
00100000
00010000
00100000
10000000
00100000
01000000
10000000
10000000
,  // measure 8
01010000
00010000
00100000
10000000
00100000
00010000
00001000
00000001
,  // measure 9
00000100
00001000
00000100
00000001
00000100
00001000
00000100
00000100
,  // measure 10
00001001
00000100
00000010
00000001
00000010
00001000
00010000
01000000
,  // measure 11
10000000
01000000
00010000
00100000
10000000
00100000
00010000
00010000
,  // measure 12
01100000
00010000
00100000
10000000
00100000
00010000
00000100
00000001
,  // measure 13
00000100
00001000
00000100
00000001
00000100
00001000
00000100
00000100
,  // measure 14
00000011
00000110
00001100
00000000
00000000
00000000
00110000
01100000
,  // measure 15
11000000
00000000
00000000
00000000
10100000
01100000
01010000
00000000
,  // measure 16
00000000
00000000
00000000
00000000
00001010
00000000
00000110
00000000
00000101
00000000
00000200
00000300
00000020
00000030
00000110
00000000
,  // measure 17
00000100
00000001
00000010
00001000
00010000
01000000
10000000
00100000
,  // measure 18
00010000
00001000
00010000
01000000
00010000
00001000
00001000
01100000
,  // measure 19
00100000
10000000
01000000
00010000
00001000
00000010
00000001
00000100
,  // measure 20
00001000
00010000
00001000
00000100
00001000
00010000
00010000
00000110
,  // measure 21
00000010
00001000
00000100
00000001
00000100
00001000
00010000
00100000
,  // measure 22
10000000
00000000
00100000
00000000
00010000
00000000
00100000
00000000
10000000
00000000
00100000
00000000
00100000
00000000
00010000
01000000
,  // measure 23
00010000
01000000
00100000
01000000
00100000
01000000
00010000
00100000
00001000
00010000
00001000
00010000
00000100
00001000
00000100
00010000
,  // measure 24
00000010
00001000
00000010
00001000
00000001
00000010
00000100
00001000
00000100
00000010
00000001
00000100
00000010
00001000
00000001
00000000
,  // measure 25
00000001
00000000
00000100
00000100
00000000
00010000
00010000
00000000
,  // measure 26
01000000
01000000
00000000
00100000
00100000
00100000
00000000
10000000
,  // measure 27
10000000
00000000
00100000
00100000
00000000
00001000
00001000
00000000
,  // measure 28
00000010
00000010
00000000
00000100
00000100
00000100
00000000
00000001
,  // measure 29
00000001
00000000
00000010
00000010
00000000
00010000
00010000
00000000
,  // measure 30
00100000
00100000
00000000
01000000
01000000
01000000
00000000
10000000
,  // measure 31
10000000
00000000
01000000
01000000
00000000
00001000
00001000
00000000
,  // measure 32
00000100
00000100
00000000
00000010
00000010
00000010
00000000
00000101
,  // measure 33
00000010
00000000
00001000
00100000
00000000
00000100
00001000
00000000
,  // measure 34
00100000
10000000
00000000
01000000
00010000
00100000
00000000
10000000
,  // measure 35
00100000
00000000
00010000
00000010
00000000
00100000
00001000
00000000
,  // measure 36
00000100
00000001
00000000
00001000
00000001
00000100
00000000
00000001
,  // measure 37
00000100
00000000
00010000
00000010
00000000
00001000
01000000
00000000
,  // measure 38
10000000
00010000
00000000
01000000
01000000
00100000
00000000
10000000
,  // measure 39
01000000
00000000
00001000
00100000
00000000
00010000
00000100
00000000
,  // measure 40
00000001
00001000
00000000
00000010
00000010
00000100
00000000
00002002
,  // measure 41
00000000
00003003
00000000
00000110
00000010
00000100
00000000
00000001
,  // measure 42
00000000
00000100
00000000
00001000
00000000
00010000
01000000
00000000
,  // measure 43
01000000
00010000
00000000
00001000
00000010
00000001
00000000
00000010
,  // measure 44
00000000
00000100
00000000
00001000
00010000
00100000
00010000
00001000
,  // measure 45
00000000
00010000
00000000
10000000
10000000
00100000
00000000
01000000
,  // measure 46
00000000
00100000
00000000
00001000
00000000
00000100
00010000
00000000
,  // measure 47
00010000
00000100
00000000
00001000
00000010
00000001
00000010
00001000
,  // measure 48
00000100
00010000
00001000
00010000
00100000
10000000
00010000
01000000
,  // measure 49
10000000
00010000
00100000
10010000
00000000
01000000
00000000
00100000
,  // measure 50
00000000
01000000
00000000
00010000
00000000
00001000
00000010
00000000
,  // measure 51
00000010
00001000
00000000
00010000
00100000
10000000
00000000
00100000
,  // measure 52
00000000
00010000
00000000
00001000
00010000
00100000
00010000
00001000
,  // measure 53
00000000
00000100
00000000
00000110
00000000
00000010
00000000
00000011
,  // measure 54
00000000
00000001
00000000
00001001
00000000
00001001
00000000
00000110
,  // measure 55
00000000
00001001
00000000
00000001
00000010
00001000
00010000
01000000
,  // measure 56
10000000
01000000
00010000
01000000
10000000
00100000
00010000
00001000
,  // measure 57
00000100
00000001
00000000
00000110
00000000
00001000
00000000
00000110
,  // measure 58
00000000
00000001
00000000
00001100
00000000
00010000
00001000
00000000
,  // measure 59
00001000
00010000
00000000
00100000
10000000
01000000
00000000
00100000
,  // measure 60
00000000
00001000
00000000
00010000
00000100
00000010
00000100
00010000
,  // measure 61
00000000
00001000
00000000
00011000
00000000
00100000
00000000
00011000
,  // measure 62
00000000
00000010
00000000
00011000
00000000
01000000
00000000
00011000
,  // measure 63
00000000
00000100
00000000
00011000
00001000
00100000
01000000
10000000
,  // measure 64
01000000
00010000
00001000
00010000
00000100
00000010
00000001
00010100
,  // measure 65
00001000
00000000
00000000
00000000
00010000
00000000
00000000
00000000
00100000
00000000
00000000
00000000
10000000
00000000
00000000
00000000
00000000
00000000
00000000
00000000
00000000
00000000
00000000
00010000
00000000
01000000
01000000
00000000
00100000
00100000
00000000
00000000
,  // measure 66
00000000
00000000
00000000
00000000
00010000
00000000
00001000
00000000
00010000
00000000
00000000
00000000
00001000
00001000
00000000
00000000
00000000
00000000
00000000
00000000
00000000
00000000
00000000
00000100
00000000
00000100
00000100
00000000
00000010
00000010
00000000
00000000
,  // measure 67
00000000
00000000
00002002
00000000
00000000
00000000
00000000
00000000
00000000
00000000
00000000
00000000
00000000
00000000
00000000
00003003
;
