#TITLE:On take SUN;
#SUBTITLE:;
#ARTIST:Samping Masters MEGA;
#TITLETRANSLIT:;
#SUBTITLETRANSLIT:;
#ARTISTTRANSLIT:;
#GENRE:;
#CREDIT:;
#BANNER:On take SUN-bn.png;
#BACKGROUND:;
#LYRICSPATH:;
#CDTITLE:;
#MUSIC:On take SUN.mp3;
#OFFSET:0.460000;
#SAMPLESTART:35.419998;
#SAMPLELENGTH:15.000000;
#SELECTABLE:YES;
#BPMS:0.000000=220.000000
,68.000000=110.000000
,72.000000=220.000000
,80.000000=110.000000
,84.000000=220.000000
,92.000000=110.000000
,96.000000=220.000000
,104.000000=110.000000
,108.000000=220.000000
,212.000000=110.000000
,216.000000=220.000000
,224.000000=110.000000
,228.000000=220.000000
;
#STOPS:360.000000=0.136000,
360.500000=0.136000
;
#BGCHANGES:;
#KEYSOUNDS:;
#ATTACKS:;

//---------------dance-single - ----------------
#NOTES:
     dance-single:
     :
     Beginner:
     6:
     0.272776,0.386849,0.118283,0.101386,0.000000,226.000000,212.000000,14.000000,12.000000,0.000000,0.000000,0.272776,0.386849,0.118283,0.101386,0.000000,226.000000,212.000000,14.000000,12.000000,0.000000,0.000000:
0000
0000
0000
0000
,
0000
0000
0000
0000
,
0000
0000
0000
0000
,
0000
0000
0000
0000
,
0000
0000
0000
0000
,
0000
0000
0000
0000
,
0000
0000
0000
0000
,
0000
0000
0000
0000
,
0000
0000
0000
0000
,
1000
0000
1000
0000
,
1000
0000
1000
0000
,
0001
0000
0001
0000
,
0001
0000
0001
0001
,
0100
0000
0100
0000
,
0100
0000
0100
0000
,
0010
0000
0010
0000
,
0010
0000
0020
0030
,
1000
0000
1000
0000
,
0001
0000
1000
0000
,
0001
0000
1000
0000
,
0010
0000
0010
0000
,
0100
0000
0001
0000
,
0100
0000
0002
0003
,
1000
0000
1000
0000
,
0010
0000
0100
0000
,
0010
0000
0100
0000
,
0001
0000
0001
0000
,
0010
0000
0100
0000
,
0010
0000
0100
0000
,
1000
0000
0000
1000
0000
0000
1000
0000
,
0100
0100
0100
0000
,
0001
0000
0000
0001
0000
0000
0001
0000
,
0100
0100
0100
0000
,
1000
0000
0000
1000
0000
0000
1000
0000
,
0010
0010
0010
0000
,
0001
0001
1000
1000
,
0010
0000
0000
0010
0000
0000
0010
0000
,
0100
0000
0000
0100
0000
0000
0100
0000
,
0010
0100
0010
0000
,
1000
0000
0000
1000
0000
0000
1000
0000
,
0001
1000
0001
0000
,
2010
0000
3000
0000
,
0102
0000
0003
0000
,
2002
0000
0000
0000
,
0000
0000
3003
0000
,
1000
0000
1000
0000
,
1000
1000
1000
0000
,
0001
0000
0001
0000
,
0001
1000
0001
0000
,
0010
0000
0010
0000
,
0010
0010
0010
0000
,
0100
0000
0100
0000
,
1001
0000
0000
0000
,
1000
0000
1000
0000
,
0001
0000
1000
0000
,
0001
0000
1000
0000
,
0010
0000
0010
0000
,
0100
0000
0001
0000
,
0100
0000
0001
0000
,
1000
0000
0000
1000
0000
0000
1000
0000
,
0100
0100
0100
0000
,
0001
0000
0000
0001
0000
0000
0001
0000
,
0100
0100
0100
0000
,
1000
0000
0000
1000
0000
0000
1000
0000
,
0010
0010
0010
0000
,
0001
0001
1000
1000
,
0010
0000
0000
0010
0000
0000
0010
0000
,
0100
0000
0000
0100
0000
0000
0100
0000
,
0010
0100
0010
0000
,
1000
0000
0000
1000
0000
0000
1000
0000
,
0001
1000
0001
0000
,
2010
0000
3000
0000
,
0102
0000
0003
0000
,
2002
0000
0000
0000
,
0000
0000
3003
0000
,
1001
0000
1001
0000
,
0010
0010
0010
0000
,
1100
0000
1100
0000
,
1000
1000
1000
0000
,
0011
0000
0011
0000
,
0001
1000
0001
0000
,
0100
0000
0100
0000
,
0100
0010
0100
0000
,
0001
0000
0001
0000
,
1000
0000
1000
0000
,
0010
0000
0010
0000
,
1000
0000
1000
0000
,
0100
0000
0100
0000
,
0001
0000
0001
0000
,
0010
0000
0010
0000
,
2000
3000
0000
0001
,
0000
0001
0000
0000
0000
0000
1000
0000
,
0000
1000
0000
0000
0000
0000
0100
0000
,
0000
1000
0000
0000
0000
0000
0001
0000
,
0000
1000
0000
0000
0000
0000
0010
0000
,
0000
0100
0000
0000
0000
0000
0100
0000
,
0000
0010
0000
0000
0000
0000
0001
0000
,
0000
1000
0000
0000
0000
0000
1000
0000
,
0001
1000
0000
0010
,
0000
0100
0000
0000
0010
0000
1000
0000
,
0000
0002
0000
0103
,
0010
0100
0000
1001
;

//---------------dance-single - ----------------
#NOTES:
     dance-single:
     :
     Easy:
     10:
     0.446579,0.644749,0.312606,0.118283,0.008449,370.000000,333.000000,37.000000,14.000000,0.000000,0.000000,0.446579,0.644749,0.312606,0.118283,0.008449,370.000000,333.000000,37.000000,14.000000,0.000000,0.000000:
0000
0000
0000
0000
,
0000
0000
0000
0000
,
0000
0000
0000
0000
,
0000
0000
0000
0000
,
0000
0000
0000
0000
,
0000
0000
0000
0000
,
0000
0000
0000
0000
,
0000
0000
0000
0000
,
0000
0000
0000
0000
,
1000
0010
1000
0010
,
1000
0010
1000
0010
,
0001
0010
0001
0010
,
0001
0010
0001
0001
,
0100
0010
0100
0010
,
0100
0010
0100
0010
,
1000
0001
1000
0001
,
1000
1000
0002
0003
,
0100
0000
0100
0000
0010
0010
0010
0000
,
1000
1000
0001
0001
,
1000
0001
1000
0000
,
0001
0000
0001
0000
0100
0100
0100
0000
,
1000
1000
0001
0001
,
1000
0001
2000
3000
,
0010
0000
0010
0000
0100
0100
0100
0000
,
0001
0010
0100
1000
,
0100
0010
0001
0000
,
1000
0000
1000
0000
0010
0010
0010
0000
,
0001
0010
0100
1000
,
0100
0010
0001
0000
,
1000
0000
0000
1000
0000
0000
1000
0000
,
0010
1000
0010
1000
,
0001
0000
0000
0001
0000
0000
0001
0000
,
0100
0001
0100
0100
,
0010
0000
0000
0100
0000
0000
0010
0000
,
1000
0001
1000
0001
,
0100
0100
0001
0001
,
1001
0000
0000
0110
0000
0000
1001
0000
,
0100
1000
0100
1000
,
0010
0010
1000
0000
,
0001
0100
0001
0100
,
0010
0010
1000
0000
,
1100
0000
0101
0000
,
0011
0000
1010
0000
,
2002
0000
0000
0000
,
0000
0000
3003
0000
,
1000
0010
1000
0010
,
1000
0010
1000
0010
,
0001
0010
0001
0010
,
0001
0010
0002
0003
,
0100
0010
0100
0010
,
0100
0010
0100
0010
,
1000
0000
0000
1000
0000
0000
0001
0000
,
2002
0000
3003
0000
,
0100
0000
0100
0000
0010
0010
0010
0000
,
1000
1000
0001
0001
,
1000
0001
1000
0000
,
0001
0000
0001
0000
0100
0100
0100
0000
,
1000
1000
0001
0001
,
1000
0001
1000
0000
,
1000
0000
0000
1000
0000
0000
1000
0000
,
0010
1000
0010
1000
,
0001
0000
0000
0001
0000
0000
0001
0000
,
0100
0001
0100
0100
,
0010
0000
0000
0100
0000
0000
0010
0000
,
1000
0001
1000
0001
,
0100
0100
0001
0001
,
1001
0000
0000
0110
0000
0000
1001
0000
,
0100
1000
0100
1000
,
0010
0010
1000
0000
,
0001
0100
0001
0100
,
0010
0010
1000
0000
,
1100
0000
0101
0000
,
0011
0000
1010
0000
,
2002
0000
0000
0000
,
0000
0000
3003
0000
,
1010
1000
1100
1000
,
0001
0010
0100
1000
,
0011
0001
0101
1000
,
1001
1001
1001
0101
,
2000
3100
2000
3010
,
0101
0101
0101
0101
,
0001
0001
0000
0000
1000
1000
0000
0000
,
0001
1000
0010
0100
0001
0000
0000
0000
,
1000
0100
1000
1000
,
0100
1000
0100
0100
,
0001
0100
0001
0001
,
0100
0001
0100
0100
,
0010
0001
0010
0010
,
0001
0010
0001
0001
,
0010
1000
0010
0010
,
2000
0000
3001
1000
0001
0000
1010
0000
,
0000
1000
0000
0000
0100
0000
0001
0000
,
0100
0001
0100
1010
,
0000
0010
0000
0000
0100
0000
0001
0000
,
0010
0100
0000
0100
1000
0000
1001
0000
,
0000
0001
0000
0000
0100
0000
0010
0000
,
0100
0010
0100
1010
,
0000
0011
0000
0000
0001
0000
1000
0000
,
0001
1000
0000
0001
1000
0000
0010
0000
,
0100
0010
0000
0100
0010
0000
0102
0000
,
2003
0000
0000
3001
0000
0010
0000
0100
0000
1000
0000
0000
,
0000
1100
0000
0000
0010
0000
1001
0000
;

//---------------dance-single - ----------------
#NOTES:
     dance-single:
     :
     Medium:
     14:
     0.821948,1.031598,0.346401,0.084488,0.185874,681.000000,640.000000,41.000000,10.000000,0.000000,0.000000,0.821948,1.031598,0.346401,0.084488,0.185874,681.000000,640.000000,41.000000,10.000000,0.000000,0.000000:
0000
0000
0000
0000
,
1000
1000
0000
0000
,
0001
0001
0000
0000
,
1000
1000
0000
0000
,
0001
0000
0001
0000
,
0100
0100
0000
0000
,
0010
0010
0000
0000
,
0100
0100
0000
0000
,
0010
0000
0000
0110
,
1000
0010
1000
0010
1000
0010
1000
0010
,
1000
0010
1000
0010
1000
0010
1000
1000
,
0001
0010
0001
0010
0001
0010
0001
0010
,
0001
0010
0001
0010
0011
0000
1001
0000
,
0010
1000
0010
1000
0010
1000
0010
1000
,
0010
1000
0010
1000
0010
1000
0010
0010
,
0100
0010
0100
0010
0100
0010
0100
0010
,
0100
0010
0100
0010
0200
0000
0310
1000
,
1001
0000
0000
1001
0000
0000
0001
0000
0010
0100
1000
0100
0010
0000
0010
0000
,
0001
0100
0001
0100
0001
1000
0001
1000
,
0010
1000
0100
0010
0001
0000
1000
0001
,
1001
0000
0000
1001
0000
0000
0010
0000
1000
0100
0010
0001
0100
0000
0100
0000
,
1000
0010
1000
0010
1000
0001
1000
0001
,
0100
0010
0100
0001
0020
0000
0030
0000
,
1100
0000
0000
1100
0000
0000
0001
0000
1000
0100
1000
0100
1000
0000
1000
0000
,
0001
0010
0100
1000
0100
0010
0001
0010
,
0100
1000
0010
0100
0001
0000
0100
0001
,
1001
0000
0000
0110
0000
0000
1000
0000
0010
0100
0010
0100
0010
0000
0010
0000
,
1000
0100
0010
0001
0010
0100
1000
0001
,
0100
0010
1000
0001
1000
0000
0000
0000
,
1000
0000
1000
0010
0000
0010
1000
0000
,
1000
0100
0000
0010
0001
0010
0001
0000
,
0100
0000
0100
0001
0000
0001
0100
0000
,
0100
0010
0000
0100
1000
0100
1000
0000
,
0001
0000
0001
0010
0000
0010
0001
0000
,
0001
0100
0000
0100
0010
0100
0010
0000
,
1000
1000
0001
0001
1000
1000
0100
0100
,
0010
0001
0000
0010
0001
0000
0001
0000
,
1000
0100
0001
0100
1000
0100
1000
0100
,
0001
0100
1000
0100
0001
0100
1000
0000
,
0001
0010
1000
0010
0001
0010
0001
0010
,
1000
0010
0001
0010
1000
0010
0001
0000
,
1000
0000
0100
0000
0001
0000
0010
0000
1000
0000
0010
0000
,
0001
0000
0100
0000
1000
0000
0010
0000
0011
0000
1001
0000
,
2100
0000
0000
0000
,
0000
0000
0000
3000
,
1000
0010
1000
0010
1000
0010
1000
0010
,
1000
0010
1000
0010
1000
0010
1000
1000
,
0001
0100
0001
0100
0001
0100
0001
0100
,
0001
0100
0001
0100
0020
0030
0020
0030
,
0010
1000
0010
1000
0010
1000
0010
1000
,
0010
1000
0010
1000
0010
1000
0010
0010
,
1000
0000
0000
1000
0000
0000
1000
0000
0001
0000
0000
0001
0000
0000
0001
0000
,
0200
0000
0000
0000
0000
0000
0310
0100
,
1001
0000
0000
1001
0000
0000
0001
0000
0010
0100
1000
0100
0010
0000
0010
0000
,
0001
0100
0001
0100
0001
1000
0001
1000
,
0010
1000
0100
0010
0001
0000
1000
0001
,
1001
0000
0000
1001
0000
0000
0010
0000
1000
0100
0010
0001
0100
0000
0100
0000
,
1000
0010
1000
0010
1000
0001
1000
0001
,
0100
0010
0100
0001
0020
0000
0030
0000
,
1000
0000
1000
0010
0000
0010
1000
0000
,
1000
0100
0000
0010
0001
0010
0001
0000
,
0100
0000
0100
0001
0000
0001
0100
0000
,
0100
0010
0000
0100
1000
0100
1000
0000
,
0001
0000
0001
0010
0000
0010
0001
0000
,
0001
0100
0000
0100
0010
0100
0010
0000
,
1000
1000
0001
0001
1000
1000
0100
0100
,
0010
0001
0000
0010
0001
0000
0001
0000
,
1000
0100
0001
0100
1000
0100
1000
0100
,
0001
0100
1000
0100
0001
0100
1000
0000
,
0001
0010
1000
0010
0001
0010
0001
0010
,
1000
0010
0001
0010
1000
0010
0001
0000
,
1000
0000
0100
0000
0001
0000
0010
0000
1000
0000
0010
0000
,
0001
0000
0100
0000
1000
0000
0010
0000
0011
0000
1001
0000
,
2100
0000
0000
0000
,
0000
0000
0000
3000
,
0001
0100
0001
0100
0010
0100
0010
0100
,
0001
0001
1000
1000
0100
0000
1001
0000
,
1000
0010
1000
0010
0001
0010
0001
0010
,
1000
1000
0100
0010
0001
0001
0001
0000
,
1000
1100
0001
0101
,
1010
1100
0101
0011
,
0001
0001
0100
0000
1000
1000
0100
0000
,
0001
0010
0100
1000
0001
0000
0000
0000
,
1000
0001
0100
0001
1000
0100
1000
0001
,
0100
0001
1000
0100
1000
0001
0100
0100
,
0001
1000
0010
1000
0001
0010
0001
1000
,
0010
1000
0001
0010
0001
1000
0010
0010
,
1000
0100
0001
0100
1000
0100
0001
0100
,
0001
0100
1000
0100
0001
0100
1000
1000
,
0001
0010
1000
0010
0001
0010
1000
0010
,
2000
3200
0301
0001
0100
0100
0010
0010
,
1000
0100
0000
0001
0100
0001
0101
0010
,
1000
0100
0000
0100
1000
0001
0010
0100
,
1000
0010
0100
0000
0000
0000
0001
0000
0001
0000
1000
0000
0101
0000
0100
0000
,
0001
0100
0000
0010
0100
0000
1001
0100
,
0010
1001
0000
1000
0001
0010
1100
0100
,
1000
0001
0000
0100
0001
0010
0100
0100
,
0010
0001
0010
0000
0000
0000
0001
0000
0001
0000
1000
0000
0110
0000
0010
0000
,
1000
0100
0000
0010
0001
1000
1001
0001
,
1000
0000
0000
1001
0000
0000
0001
0000
0000
1000
0000
0000
1001
0000
0000
0001
0000
0000
1010
0000
0000
0000
0110
0000
,
0000
0000
0101
0000
0000
0000
0001
0000
0100
0000
0001
0000
1000
0000
0001
0000
1000
0000
0010
0000
0000
0100
0000
0000
,
0010
0100
0000
0001
0010
0100
1001
0000
;

//---------------dance-single - ----------------
#NOTES:
     dance-single:
     :
     Hard:
     16:
     0.910056,1.117565,0.718148,0.245015,0.232342,754.000000,669.000000,85.000000,29.000000,0.000000,0.000000,0.910056,1.117565,0.718148,0.245015,0.232342,754.000000,669.000000,85.000000,29.000000,0.000000,0.000000:
0000
0000
0000
0000
,
1000
1000
0000
0000
,
0001
0001
0000
0000
,
1000
1000
0000
0000
,
0001
0000
0001
0000
,
0100
0100
0000
0000
,
0010
0010
0000
0000
,
0100
0100
0000
0000
,
0010
0000
0000
0110
,
1000
0010
1000
0010
1000
0010
1000
0010
,
1000
0010
1000
0010
1000
0010
1000
1000
,
0001
0010
0001
0010
0001
0010
0001
0010
,
0001
0010
0001
0010
0011
0000
1001
0000
,
0010
1000
0010
1000
0010
1000
0010
1000
,
0010
1000
0010
1000
0010
1000
0010
0010
,
0100
0010
0100
0010
0100
0010
0100
0010
,
0100
0010
0100
0010
0200
0000
0310
0000
,
1001
0000
0000
0110
0010
0000
1001
0000
0010
1000
0100
1000
0001
0000
0001
0000
,
1000
0100
0001
0100
1000
0010
1000
0010
,
0001
0010
1000
0100
0010
0010
0001
0001
,
1100
0000
0000
0101
0100
0000
1100
0000
0001
0010
0100
0010
0001
0001
1000
0000
,
0001
0100
1000
0100
0001
0010
0001
0010
,
1000
0100
0001
0010
0200
0000
0000
0300
,
0110
0000
0000
0110
0010
0000
1001
0000
0010
0100
0001
1000
0010
0000
0010
0000
,
0100
0001
0010
1000
0100
0001
0100
0001
,
0010
0100
1000
0001
0010
0001
1000
0100
,
1001
0000
0000
1100
1000
0000
1001
0000
0001
0010
0001
0100
0010
0010
0100
0000
,
1000
0001
0010
0001
0100
1000
0001
1000
,
0001
0100
0010
0001
0200
0000
0000
0000
,
0301
0000
0002
1000
0000
2003
0010
0000
,
3020
1000
0000
1030
0100
0100
0010
0000
,
1000
0000
2000
0010
0000
3020
0100
0000
,
0230
0001
0000
0301
1100
0000
0101
0000
,
0010
0000
0200
0010
0000
0310
0200
0000
,
0010
0320
0000
0130
0010
0100
0100
0000
,
1000
1000
0001
0001
1000
1000
0010
0010
,
1100
0010
0000
0011
0100
0000
0010
0000
,
1000
0100
0001
0010
0001
0010
0001
0100
,
1000
0010
0001
0010
1000
0100
0010
0000
,
0001
0010
1000
0100
1000
0100
1000
0010
,
0001
0100
1000
0100
0001
0010
0100
0000
,
1100
0000
1010
0000
0011
0000
0101
0000
1100
0000
0101
0000
,
0011
0000
1010
0000
0011
0000
1001
0000
1010
0000
0110
0000
,
0102
0000
0000
0000
,
0000
0000
0000
0103
,
1000
0010
1000
0010
1000
0010
1000
0010
,
1000
0010
1000
0010
1000
0010
1000
1000
,
0001
0010
0001
0010
0001
0010
0001
0010
,
0001
0010
0001
0010
0002
0003
0002
0003
,
0010
1000
0010
1000
0010
1000
0010
1000
,
0010
1000
0010
1000
0010
1000
0010
0010
,
1100
0000
0000
1100
0000
0000
0101
0000
0011
0000
0000
0011
0000
0000
1010
0000
,
2000
0000
0010
0000
0000
0000
0010
0000
0000
0000
0010
0000
3010
1000
0010
1000
,
0001
0000
0000
0110
0010
0000
1001
0000
0010
1000
0100
1000
0001
0000
0001
0000
,
1000
0100
0001
0100
1000
0010
1000
0010
,
0001
0010
1000
0100
0010
0010
0001
0001
,
1100
0000
0000
0101
0100
0000
1100
0000
0001
0010
0100
0010
0001
0001
1000
0000
,
0001
0100
1000
0100
0001
0010
0001
0010
,
1000
0100
0001
0010
0200
0000
0300
0000
,
0001
0000
0002
1000
0000
2003
0010
0000
,
3020
1000
0000
1030
0100
0100
0010
0000
,
1000
0000
2000
0010
0000
3020
0100
0000
,
0230
0001
0000
0301
1000
0100
1000
0000
,
0010
0000
0200
0010
0000
0310
0200
0000
,
0010
0320
0000
0130
0010
0100
0100
0000
,
1000
1000
0001
0001
1000
1000
0010
0010
,
1100
0010
0000
0011
0100
0000
0010
0000
,
1000
0100
0001
0010
0001
0010
0001
0100
,
1000
0010
0001
0010
1000
0100
0010
0000
,
0001
0010
1000
0100
1000
0100
1000
0010
,
0001
0100
1000
0100
0001
0010
0100
0000
,
1100
0000
1010
0000
0011
0000
0101
0000
1100
0000
0101
0000
,
0011
0000
1010
0000
0011
0000
1001
0000
1010
0000
0110
0000
,
0102
0000
0000
0000
,
0000
0000
0000
1003
,
1010
1000
0100
0010
0011
0010
0100
1000
,
1001
0001
0101
0100
0110
0010
0100
0100
,
1001
0001
0010
0100
1100
0100
0010
0001
,
1001
1000
1100
0100
0110
0000
1001
0000
,
1000
0100
1100
0000
0001
0010
0011
0000
,
1010
0011
1100
0101
,
0010
1000
0100
0000
0010
0001
0100
0000
,
0010
1000
0100
0010
0001
0000
0000
0000
,
1000
0100
1000
0001
0010
0001
1000
0100
,
1000
0001
0010
0001
1000
0100
1000
1000
,
0010
0100
0010
1000
0001
1000
0010
0100
,
0010
1000
0001
1000
0010
0100
0010
0010
,
0100
0010
1000
0001
0100
0010
1000
0010
,
0100
0001
0100
0010
1000
0010
0100
0100
,
0001
0010
0001
1000
0100
1000
0001
0010
,
0002
0023
1030
1000
1000
1000
0001
0010
,
0100
1000
0000
0100
0001
0001
0010
0100
,
1000
0010
0000
0100
0001
0100
0010
0010
,
1000
0001
1000
0000
0001
0000
1000
0010
0100
0010
0100
0010
1000
0000
0010
0000
,
0100
0001
0000
0010
0001
0010
1001
0100
,
0010
0100
0000
1000
0100
0010
1001
0010
,
0100
0010
0000
0001
0010
0100
1010
0010
,
0100
0001
0100
0000
0001
0000
1000
0010
1000
0010
1000
0010
0100
0000
0001
0000
,
0010
0001
0000
1000
0100
1000
0011
1000
,
0001
0000
0000
1100
0000
0000
0001
0000
0000
1000
0000
0000
0011
0000
0000
1000
0000
0000
0110
0000
0000
0000
1001
0000
,
0000
0000
0110
0000
0000
0000
0010
0000
1000
0000
0100
0000
0010
0000
0001
0000
0100
0000
0010
0000
0000
0010
0000
0000
,
0100
0010
0000
0100
0100
0010
1001
0000
;

//---------------dance-double - ----------------
#NOTES:
     dance-double:
     :
     Easy:
     10:
     0.435717,0.558782,0.287259,0.050693,0.000000,361.000000,327.000000,34.000000,6.000000,0.000000,0.000000,0.435717,0.558782,0.287259,0.050693,0.000000,361.000000,327.000000,34.000000,6.000000,0.000000,0.000000:
// measure 0
00000000
00000000
00000000
00000000
,  // measure 1
00000000
00000000
00000000
00000000
,  // measure 2
00000000
00000000
00000000
00000000
,  // measure 3
00000000
00000000
00000000
00000000
,  // measure 4
00000000
00000000
00000000
00000000
,  // measure 5
00000000
00000000
00000000
00000000
,  // measure 6
00000000
00000000
00000000
00000000
,  // measure 7
00000000
00000000
00000000
00000000
,  // measure 8
00000000
00000000
00000000
00000000
,  // measure 9
00010000
00001000
00010000
00001000
,  // measure 10
00010000
00001000
00010000
00010000
,  // measure 11
00001000
00010000
00001000
00010000
,  // measure 12
00001000
00010000
00001000
00001000
,  // measure 13
00100000
00010000
00100000
00010000
,  // measure 14
00100000
00010000
00100000
00010000
,  // measure 15
10000000
00010000
10000000
00010000
,  // measure 16
10000000
00100000
02000000
03000000
,  // measure 17
10010000
00000000
01000000
00000000
00100000
00100000
00100000
00000000
,  // measure 18
10000000
01000000
00010000
00001000
,  // measure 19
00000100
00000001
00000010
00000000
,  // measure 20
00001001
00000000
00000010
00000000
00000100
00000100
00000100
00000000
,  // measure 21
00000001
00000010
00001000
00010000
,  // measure 22
00100000
10000000
01000000
00000000
,  // measure 23
10010000
00000000
00100000
00000000
01000000
01000000
01000000
00000000
,  // measure 24
10000000
00100000
00010000
00001000
,  // measure 25
00000100
00000001
00000010
00000000
,  // measure 26
00001001
00000000
00000100
00000000
00000010
00000010
00000010
00000000
,  // measure 27
00000001
00000010
00001000
00010000
,  // measure 28
01000000
10000000
00010000
00000000
,  // measure 29
00010000
00000000
00000000
00010000
00000000
00000000
10000000
00000000
,  // measure 30
00010000
01000000
00010000
00000000
,  // measure 31
00100000
00000000
00000000
00100000
00000000
00000000
01000000
00000000
,  // measure 32
10000000
01000000
00100000
00100000
,  // measure 33
00001000
00000000
00000000
00001000
00000000
00000000
00010000
00000000
,  // measure 34
00001000
00010000
00010000
00000000
,  // measure 35
00001000
00010000
00001000
00001000
,  // measure 36
00000100
00000000
00000000
00000110
00000000
00000000
00001001
00000000
,  // measure 37
00000001
00000010
00000100
00001000
,  // measure 38
00000100
00000010
00000001
00000000
,  // measure 39
00010000
00001000
00000100
00000010
,  // measure 40
00000100
00001000
00010000
00000000
,  // measure 41
00011000
00000000
00110000
00000000
,  // measure 42
00011000
00000000
00001010
00000000
,  // measure 43
00022000
00000000
00000000
00000000
,  // measure 44
00000000
00000000
00000000
00033000
,  // measure 45
00001000
00010000
00001000
00010000
,  // measure 46
00001000
00010000
00001000
00010000
,  // measure 47
00001000
00100000
00001000
00100000
,  // measure 48
00001000
00100000
00101000
00000000
,  // measure 49
10000000
00100000
10000000
00100000
,  // measure 50
10000000
00100000
10000000
00100000
,  // measure 51
01100000
00000000
10010000
00000000
,  // measure 52
00020000
00000000
00000000
01030000
,  // measure 53
10010000
00000000
00100000
00000000
01000000
01000000
01000000
00000000
,  // measure 54
10000000
01000000
00010000
00001000
,  // measure 55
00000100
00000001
00000010
00000000
,  // measure 56
00001001
00000000
00000010
00000000
00000100
00000100
00000100
00000000
,  // measure 57
00000001
00000010
00001000
00010000
,  // measure 58
00100000
10000000
01000000
00000000
,  // measure 59
00010000
00000000
00000000
00010000
00000000
00000000
10000000
00000000
,  // measure 60
00010000
01000000
00010000
00000000
,  // measure 61
00100000
00000000
00000000
00100000
00000000
00000000
01000000
00000000
,  // measure 62
10000000
01000000
00100000
00000000
,  // measure 63
00001000
00000000
00000000
00001000
00000000
00000000
00010000
00000000
,  // measure 64
00001000
00010000
00010000
00000000
,  // measure 65
00001000
00010000
00001000
00001000
,  // measure 66
00000100
00000000
00000000
00000110
00000000
00000000
00001001
00000000
,  // measure 67
00000001
00000010
00000100
00001000
,  // measure 68
00000100
00000010
00000001
00000000
,  // measure 69
00010000
00001000
00000100
00000010
,  // measure 70
00000100
00001000
00010000
00000000
,  // measure 71
00011000
00000000
00110000
00000000
,  // measure 72
00011000
00000000
00001010
00000000
,  // measure 73
00022000
00000000
00000000
00000000
,  // measure 74
00000000
00000000
00000000
00033000
,  // measure 75
00001000
00010000
00001000
00010000
,  // measure 76
00100000
10000000
00100000
10000000
,  // measure 77
01000000
00100000
01000000
00100000
,  // measure 78
00010000
00001000
00010000
00001000
,  // measure 79
00001100
00000000
00000110
00000000
,  // measure 80
00000001
00000100
00001001
00000000
,  // measure 81
00000110
00000000
00001001
00000000
,  // measure 82
00000010
00000100
00000010
00000100
00000010
00000000
00000000
00000000
,  // measure 83
00000001
00000100
00001000
00010000
,  // measure 84
00100000
10000000
01000000
10000000
,  // measure 85
00100000
00010000
00001000
00000100
,  // measure 86
00000001
00000010
00000001
00000100
,  // measure 87
00001000
00010000
00100000
00010000
,  // measure 88
00001000
00000100
00001000
00010000
,  // measure 89
00100000
10000000
01000000
00100000
,  // measure 90
00010000
00010000
10010000
00000000
00000000
00000000
10000000
00000000
,  // measure 91
01000000
10000000
00000000
10000000
01000000
00000000
00100000
00000000
,  // measure 92
00010000
01000000
00000000
00001000
,  // measure 93
00010000
00001000
00000000
00001000
00010000
00000000
00000100
00001000
,  // measure 94
00000100
00000010
00000000
00000001
,  // measure 95
00000100
00000001
00000000
00000001
00001000
00000000
00000100
00000000
,  // measure 96
00000010
00000000
00000100
00000000
00000010
00000000
00001000
00010000
,  // measure 97
00001000
00010000
00000000
00001000
00100000
00000000
00010000
00000000
,  // measure 98
10000000
00100000
00000000
00100000
01000000
00000000
01010000
00000000
,  // measure 99
00000000
10100000
00000000
00000000
11000000
00000000
00010000
00000000
,  // measure 100
01000000
00000000
00100000
00100000
01000000
00000000
00011000
00000000
,  // measure 101
00000000
00010000
00000000
00000000
00001000
00000000
00011000
00000000
;

//---------------dance-double - ----------------
#NOTES:
     dance-double:
     :
     Medium:
     14:
     0.795394,0.816682,0.211220,0.067590,0.156303,659.000000,634.000000,25.000000,8.000000,0.000000,0.000000,0.795394,0.816682,0.211220,0.067590,0.156303,659.000000,634.000000,25.000000,8.000000,0.000000,0.000000:
// measure 0
00000000
00000000
00000000
00000000
,  // measure 1
10000000
10000000
00000000
00000000
,  // measure 2
00100000
00100000
00000000
00000000
,  // measure 3
10000000
10000000
00000000
00000000
,  // measure 4
00100000
00000000
00100000
00000000
,  // measure 5
00010000
00010000
00000000
00000000
,  // measure 6
00001000
00001000
00000000
00000000
,  // measure 7
00010000
00010000
00000000
00000000
,  // measure 8
00001000
00000000
00000000
00011000
,  // measure 9
00001000
00010000
00001000
00010000
00001000
00010000
00001000
00010000
,  // measure 10
00001000
00010000
00001000
00010000
00001000
00010000
00001000
00001000
,  // measure 11
00100000
00010000
00100000
00010000
00100000
00010000
00100000
00010000
,  // measure 12
00100000
00010000
00100000
00010000
10000000
00000000
00100000
00000000
,  // measure 13
10000000
01000000
10000000
01000000
10000000
01000000
10000000
01000000
,  // measure 14
10000000
01000000
10000000
01000000
10000000
01000000
10000000
10000000
,  // measure 15
00010000
00100000
00010000
00100000
00010000
00100000
00010000
00100000
,  // measure 16
00010000
00100000
00010000
00100000
02000000
00000000
13000000
00000000
,  // measure 17
10010000
00000000
00000000
10000000
00010000
00000000
10000000
00000000
00100000
01000000
00100000
00000000
01000000
00000000
01000000
00000000
,  // measure 18
00010000
00100000
00010000
00100000
01000000
00100000
01000000
00100000
,  // measure 19
01000000
10000000
01000000
10000000
00100000
01000000
00001000
00010000
,  // measure 20
00001000
00000000
00000000
00001000
00010000
00000000
00001000
00000000
00010000
00001000
00010000
00000000
00001000
00000000
00001000
00000000
,  // measure 21
00010000
00001000
00010000
00000100
00010000
00000010
00010000
00000100
,  // measure 22
00000010
00000100
00000010
00000001
00002000
00000000
00003000
00000000
,  // measure 23
00001001
00000000
00000000
00000001
00001000
00000000
00000010
00000000
00001000
00000010
00001000
00000000
00000001
00000000
00000001
00000000
,  // measure 24
00000010
00000100
00000010
00000100
00001000
00000100
00001000
00000100
,  // measure 25
00010000
00001000
00010000
00000100
00001000
00010000
00100000
00010000
,  // measure 26
01000000
00000000
00000000
00100000
01000000
00000000
01000000
00000000
00010000
00100000
00010000
00000000
01000000
00000000
01000000
00000000
,  // measure 27
00010000
00100000
01000000
00100000
00010000
00001000
00000010
00000100
,  // measure 28
00000001
00000100
00000010
00001000
00000010
00000000
00000000
00000000
,  // measure 29
00000001
00000000
00000001
00000100
00000000
00000100
00001000
00000000
,  // measure 30
00001000
00010000
00000000
00010000
00100000
01000000
00100000
00000000
,  // measure 31
10000000
00000000
10000000
01000000
00000000
01000000
00010000
00000000
,  // measure 32
00010000
00001000
00000000
00001000
00010000
00000100
00010000
00000000
,  // measure 33
00000100
00000000
00000100
00000010
00000000
00000010
00000100
00000000
,  // measure 34
00000100
00000010
00000000
00000010
00000100
00001000
00000100
00000000
,  // measure 35
00010000
00010000
00001000
00001000
00010000
00010000
00001000
00001000
,  // measure 36
00100000
00010000
00000000
00100000
00010000
00000000
00001000
00000000
,  // measure 37
00000001
00000100
00001000
00000100
00000001
00000100
00000001
00000100
,  // measure 38
00001000
00000100
00000001
00000100
00001000
00000100
00000001
00000000
,  // measure 39
00010000
00100000
10000000
00100000
00010000
00100000
00010000
00100000
,  // measure 40
10000000
00100000
00010000
00100000
10000000
00100000
00010000
00000000
,  // measure 41
00001000
00000000
00000100
00000000
00000001
00000000
00000010
00000000
00001000
00000000
00010000
00000000
,  // measure 42
01000000
00000000
10000000
00000000
00010000
00000000
00001000
00000000
00000010
00000000
00001000
00000000
,  // measure 43
00020000
00000000
00000000
00000000
,  // measure 44
00000000
00000000
00000000
00031000
,  // measure 45
00001000
00010000
00001000
00010000
00001000
00010000
00001000
00010000
,  // measure 46
00001000
00010000
00001000
00010000
00001000
00010000
00001000
00001000
,  // measure 47
00100000
00010000
00100000
00010000
00100000
00010000
00100000
00010000
,  // measure 48
00100000
00010000
00100000
00010000
20000000
30000000
00200000
00300000
,  // measure 49
10000000
01000000
10000000
01000000
10000000
01000000
10000000
01000000
,  // measure 50
10000000
01000000
10000000
01000000
10000000
01000000
10000000
10000000
,  // measure 51
00010000
00000000
00000000
00010000
00000000
00000000
00010000
00000000
01000000
00000000
00000000
01000000
00000000
00000000
01000000
00000000
,  // measure 52
00200000
10000000
00000000
10000000
00000000
10000000
10300000
00000000
,  // measure 53
10010000
00000000
00000000
10000000
00010000
00000000
10000000
00000000
00100000
01000000
00100000
00000000
01000000
00000000
01000000
00000000
,  // measure 54
00010000
00100000
00010000
00100000
01000000
00100000
01000000
00100000
,  // measure 55
01000000
10000000
01000000
10000000
00100000
01000000
00001000
00010000
,  // measure 56
00001000
00000000
00000000
00001000
00010000
00000000
00001000
00000000
00010000
00001000
00010000
00000000
00001000
00000000
00001000
00000000
,  // measure 57
00010000
00001000
00010000
00000100
00010000
00000010
00010000
00000100
,  // measure 58
00000010
00000100
00000010
00000001
00002000
00000000
00003000
00000000
,  // measure 59
00000001
00000000
00000001
00000100
00000000
00000100
00001000
00000000
,  // measure 60
00001000
00010000
00000000
00010000
00100000
01000000
00100000
00000000
,  // measure 61
10000000
00000000
10000000
01000000
00000000
01000000
00010000
00000000
,  // measure 62
00010000
00001000
00000000
00001000
00010000
00000100
00010000
00000000
,  // measure 63
00000100
00000000
00000100
00000010
00000000
00000010
00000100
00000000
,  // measure 64
00000100
00000010
00000000
00000010
00000100
00001000
00000100
00000000
,  // measure 65
00010000
00010000
00001000
00001000
00010000
00010000
00001000
00001000
,  // measure 66
00100000
00010000
00000000
00100000
00010000
00000000
00001000
00000000
,  // measure 67
00000001
00000100
00001000
00000100
00000001
00000100
00000001
00000100
,  // measure 68
00001000
00000100
00000001
00000100
00001000
00000100
00000001
00000000
,  // measure 69
00010000
00100000
10000000
00100000
00010000
00100000
00010000
00100000
,  // measure 70
10000000
00100000
00010000
00100000
10000000
00100000
00010000
00000000
,  // measure 71
00001000
00000000
00000100
00000000
00000001
00000000
00000010
00000000
00001000
00000000
00010000
00000000
,  // measure 72
01000000
00000000
10000000
00000000
00010000
00000000
00001000
00000000
00000010
00000000
00001000
00000000
,  // measure 73
00020000
00000000
00000000
00000000
,  // measure 74
00000000
00000000
00000000
00031000
,  // measure 75
00101000
00110000
01100000
11000000
,  // measure 76
10000000
01000000
00100000
01000000
10000000
00000000
10000000
00000000
,  // measure 77
00110000
00101000
00010100
00001100
,  // measure 78
00000010
00000100
00001000
00000100
00000010
00000001
00000011
00000000
,  // measure 79
00001000
00001010
00000000
00010010
,  // measure 80
00001010
00011000
00001010
00011000
,  // measure 81
00001000
00000100
00000001
00000000
00001000
00000010
00000001
00000000
,  // measure 82
00001000
00010000
00100000
00010000
00001000
00000000
00000000
00000000
,  // measure 83
00000001
00000010
00000100
00001000
00010000
00100000
01000000
01000000
,  // measure 84
10000000
01000000
00100000
00010000
00100000
01000000
10000000
10000000
,  // measure 85
01000000
00100000
00010000
00001000
00000100
00001000
00010000
00010000
,  // measure 86
00001000
00000100
00000010
00000001
00000010
00000100
00001000
00001000
,  // measure 87
00000010
00000100
00001000
00010000
00100000
00010000
00001000
00001000
,  // measure 88
00010000
00100000
01000000
10000000
01000000
00100000
00010000
00010000
,  // measure 89
00000100
00001000
00010000
00100000
00010000
00001000
00000100
00000100
,  // measure 90
00000010
00000010
00000001
00001000
00000001
00001000
00001001
00000010
,  // measure 91
00000100
00001000
00000000
00000100
00010000
00001000
00010000
00100000
,  // measure 92
00010000
00001000
00000000
00000100
00000010
00000100
00000001
00000001
,  // measure 93
00001000
00000001
00001000
00000000
00000000
00000000
00000100
00000000
00001000
00000000
00010000
00000000
01000000
00000000
00100000
00000000
,  // measure 94
01000000
00100000
00000000
10000000
01000000
00100000
00110000
00010000
,  // measure 95
10000000
00010000
00000000
00100000
00010000
00001000
00000010
00000100
,  // measure 96
00000001
00000100
00000000
00000010
00000100
00000010
00001000
00001000
,  // measure 97
00000100
00010000
00000100
00000000
00000000
00000000
00010000
00000000
00100000
00000000
01000000
00000000
00010000
00000000
10000000
00000000
,  // measure 98
00010000
00100000
00000000
01000000
10000000
01000000
00110000
00000000
,  // measure 99
00000000
00000000
00001010
00000000
00000000
00000000
00000000
00000000
00110000
00000000
00000000
00000000
00001010
00000000
00000000
00000010
,  // measure 100
00000000
00000000
00000000
00000010
00000000
00000000
00010000
00000000
00001000
00000000
00010000
00000000
00000100
00000000
00010000
00000000
00001000
00000000
00010000
00000000
00000000
00000100
00000000
00000000
,  // measure 101
00000010
00000100
00010000
00100000
00010000
00001000
00000100
00000000
;

//---------------dance-double - ----------------
#NOTES:
     dance-double:
     :
     Hard:
     16:
     0.867813,0.945632,0.490030,0.245015,0.206996,719.000000,661.000000,58.000000,29.000000,0.000000,0.000000,0.867813,0.945632,0.490030,0.245015,0.206996,719.000000,661.000000,58.000000,29.000000,0.000000,0.000000:
// measure 0
00000000
00000000
00000000
00000000
,  // measure 1
10000000
10000000
00000000
00000000
,  // measure 2
00010000
00010000
00000000
00000000
,  // measure 3
10000000
10000000
00000000
00000000
,  // measure 4
00010000
00000000
00010000
00000000
,  // measure 5
00100000
00100000
00000000
00000000
,  // measure 6
00001000
00001000
00000000
00000000
,  // measure 7
00100000
00100000
00000000
00000000
,  // measure 8
00001000
00000000
00000000
00011000
,  // measure 9
00001000
00010000
00001000
00010000
00001000
00010000
00001000
00010000
,  // measure 10
00001000
00010000
00001000
00010000
00001000
00010000
00001000
00001000
,  // measure 11
00100000
00010000
00100000
00010000
00100000
00010000
00100000
00010000
,  // measure 12
00100000
00010000
00100000
00010000
10010000
00000000
10100000
00000000
,  // measure 13
10000000
01000000
10000000
01000000
10000000
01000000
10000000
01000000
,  // measure 14
10000000
01000000
10000000
01000000
10000000
01000000
10000000
10000000
,  // measure 15
00010000
00100000
00010000
00100000
00010000
00100000
00010000
00100000
,  // measure 16
00010000
00100000
00010000
00100000
02000000
00000000
13000000
00000000
,  // measure 17
10010000
00000000
00000000
10010000
10000000
00000000
10000000
00000000
00010000
00100000
01000000
10000000
01000000
00000000
01000000
00000000
,  // measure 18
10000000
00100000
00010000
00001000
00000100
00000001
00000100
00001000
,  // measure 19
00010000
00100000
10000000
01000000
00100000
00010000
00100000
00010000
,  // measure 20
01000000
00000000
00000000
01100000
00100000
00000000
00100000
00000000
10000000
01000000
00010000
01000000
10000000
00000000
10000000
00000000
,  // measure 21
00100000
01000000
00100000
01000000
00001000
00010000
00001000
00010000
,  // measure 22
00000100
00000010
00000001
00000010
00000200
00000000
00000000
00000000
,  // measure 23
00000310
00000000
00000000
00001001
00000100
00000000
00000100
00000000
00000001
00000010
00001000
00000100
00000010
00000000
00000010
00000000
,  // measure 24
00000001
00000100
00001000
00010000
00100000
10000000
01000000
00010000
,  // measure 25
01000000
10000000
00100000
00010000
00100000
00010000
00001000
00000100
,  // measure 26
00000001
00000000
00000000
00000101
00000010
00000000
00000010
00000000
00001000
00000100
00000001
00000010
00000100
00000000
00000100
00000000
,  // measure 27
00000010
00000001
00000100
00001000
00010000
00100000
10000000
01000000
,  // measure 28
00010000
01000000
10000000
00010000
20000000
00000000
30000000
00000000
,  // measure 29
10000000
00000000
20000000
00100000
00000000
30200000
00010000
00000000
,  // measure 30
00320000
00001000
00000000
00031000
00000100
00000010
00000100
00000000
,  // measure 31
00000001
00000000
00000002
00000010
00000000
00000023
00001000
00000000
,  // measure 32
00002030
00010000
00000000
00013000
00110000
00000000
10100000
00000000
,  // measure 33
01000000
00000000
02000000
00001000
00000000
03002000
01000000
00000000
,  // measure 34
02003000
00001000
00000000
03001000
00001000
00010000
00001000
00000000
,  // measure 35
00010000
00010000
00000100
00000100
00010000
00010000
00000010
00000010
,  // measure 36
00000100
00001001
00000000
00000010
00000101
00000000
00000101
00000000
,  // measure 37
00000001
00000010
00001000
00010000
00100000
00010000
00001000
00000010
,  // measure 38
00000001
00000010
00001000
00010000
00100000
00010000
00001000
00000000
,  // measure 39
10000000
00100000
00010000
00001000
00000010
00001000
00010000
00100000
,  // measure 40
10000000
00100000
00010000
00001000
00000010
00001000
00010000
00000000
,  // measure 41
00011000
00000000
00001000
00000000
00001010
00000000
00001010
00000000
00000001
00000000
00001000
00000000
,  // measure 42
00011000
00000000
00011000
00000000
01000000
00000000
00100000
00000000
00110000
00000000
00011000
00000000
,  // measure 43
00020200
00000000
00000000
00000000
,  // measure 44
00000000
00000000
00030300
00011000
,  // measure 45
00001000
00010000
00001000
00010000
00001000
00010000
00001000
00010000
,  // measure 46
00001000
00010000
00001000
00010000
00001000
00010000
00001000
00001000
,  // measure 47
00100000
00010000
00100000
00010000
00100000
00010000
00100000
00010000
,  // measure 48
00100000
00010000
00100000
00010000
00200000
00300000
00020000
00030000
,  // measure 49
10000000
01000000
10000000
01000000
10000000
01000000
10000000
01000000
,  // measure 50
10000000
01000000
10000000
01000000
10000000
01000000
10000000
10000000
,  // measure 51
00110000
00000000
00000000
00010000
00000000
00000000
00010000
00000000
11000000
00000000
00000000
10000000
00000000
00000000
10000000
00000000
,  // measure 52
00200000
00000000
01000000
00000000
00000000
00000000
01000000
00000000
00000000
00000000
01300000
00000000
00010000
10000000
00010000
10000000
,  // measure 53
00100000
00000000
00000000
10010000
10000000
00000000
10000000
00000000
00010000
00100000
01000000
10000000
01000000
00000000
01000000
00000000
,  // measure 54
10000000
00100000
00010000
00001000
00000100
00000001
00000100
00001000
,  // measure 55
00010000
00100000
10000000
01000000
00100000
00010000
00100000
00010000
,  // measure 56
01000000
00000000
00000000
01100000
00100000
00000000
00100000
00000000
10000000
01000000
00010000
01000000
10000000
00000000
10000000
00000000
,  // measure 57
00100000
01000000
00100000
01000000
00001000
00010000
00001000
00010000
,  // measure 58
00000010
00000100
00001000
00100000
02000000
00000000
00000000
00000000
,  // measure 59
13000000
00000000
20000000
00100000
00000000
30200000
00010000
00000000
,  // measure 60
00320000
00001000
00000000
00031000
00000100
00000010
00000100
00000000
,  // measure 61
00000001
00000000
00000002
00000010
00000000
00000023
00001000
00000000
,  // measure 62
00002030
00010000
00000000
00013000
00100000
10000000
00100000
00000000
,  // measure 63
01000000
00000000
02000000
00001000
00000000
03002000
01000000
00000000
,  // measure 64
02003000
00001000
00000000
03001000
00001000
00010000
00001000
00000000
,  // measure 65
00010000
00010000
00000100
00000100
00010000
00010000
00000010
00000010
,  // measure 66
00000100
00001001
00000000
00000010
00000101
00000000
00000101
00000000
,  // measure 67
00000001
00000010
00001000
00010000
00100000
00010000
00001000
00000010
,  // measure 68
00000001
00000010
00001000
00010000
00100000
00010000
00001000
00000000
,  // measure 69
10000000
00100000
00010000
00001000
00000010
00001000
00010000
00100000
,  // measure 70
10000000
00100000
00010000
00001000
00000010
00001000
00010000
00000000
,  // measure 71
00011000
00000000
00001000
00000000
00001010
00000000
00001010
00000000
00000001
00000000
00001000
00000000
,  // measure 72
00011000
00000000
00011000
00000000
01000000
00000000
00100000
00000000
00110000
00000000
00011000
00000000
,  // measure 73
00020200
00000000
00000000
00000000
,  // measure 74
00000000
00000000
00030300
00011000
,  // measure 75
00011000
00001000
00100000
00010000
01010000
01000000
00100000
10000000
,  // measure 76
10100000
00100000
01000000
01000000
00001000
00001000
00010000
00010000
,  // measure 77
00001010
00000010
00001000
00000001
00000101
00000100
00000010
00000100
,  // measure 78
00000101
00000010
00001010
00000100
00000110
00000010
00000010
00000000
,  // measure 79
00000001
00000001
00000100
00000000
00000100
00000100
00010000
00000000
,  // measure 80
00011000
00110000
00101000
01001000
,  // measure 81
00100000
10000000
01000000
00000000
00010000
00000100
00001000
00000000
,  // measure 82
00100000
10000000
01000000
00010000
00001000
00000000
00000000
00000000
,  // measure 83
00000001
00000010
00000100
00001000
00010000
00100000
01000000
00100000
,  // measure 84
00010000
00001000
00000100
00000010
00000001
00000010
00001000
00000010
,  // measure 85
00000001
00000010
00000100
00001000
00010000
00100000
10000000
00100000
,  // measure 86
00010000
00001000
00000100
00000010
00000001
00000010
00001000
00000010
,  // measure 87
00000001
00001000
00000001
00001000
00000100
00010000
00000100
00010000
,  // measure 88
00100000
00010000
00100000
00010000
10000000
01000000
10000000
01000000
,  // measure 89
00010000
00001000
00000100
00000001
00000100
00001000
00010000
00100000
,  // measure 90
10000000
10000000
00100000
00100000
00100000
00100000
10010000
00010000
,  // measure 91
01000000
00010000
00000000
00010000
00001000
00010000
00000010
00000100
,  // measure 92
00000010
00000100
00000000
00000001
00001000
00000001
00000100
00000100
,  // measure 93
00000010
00001000
00000010
00000000
00000000
00000000
00010000
00001000
00010000
00001000
00010000
00000000
00001000
00000000
00100000
00000000
,  // measure 94
00010000
00001000
00000000
00001000
00010000
01000000
01100000
00100000
,  // measure 95
10000000
00010000
00000000
00010000
00000100
00010000
00001000
00100000
,  // measure 96
00001000
00010000
00000000
00000100
00000010
00000001
00000100
00000100
,  // measure 97
00000010
00010000
00000010
00000000
00000000
00000000
00010000
00000100
00001000
00000100
00010000
00000000
00001000
00000000
00100000
00000000
,  // measure 98
00001000
01000000
00000000
01000000
00100000
01000000
01010000
00000000
,  // measure 99
00000100
00000000
00001100
00000000
00000000
00000000
01000000
00000000
01010000
00000000
00000000
00000000
00001100
00000000
00000000
00001100
,  // measure 100
00000000
00000000
00000000
00001100
00000000
00000000
00000001
00000000
00000010
00000000
00001000
00000000
00010000
00000000
01000000
00000000
10000000
00000000
00010000
00000000
00000000
00001000
00000000
00000000
,  // measure 101
00000100
00000010
00000100
00010000
00001000
00000100
00010000
00000000
;
