#VERSION:0.83;
#TITLE:Noticed;
#SUBTITLE:;
#ARTIST:MandoPony;
#TITLETRANSLIT:;
#SUBTITLETRANSLIT:;
#ARTISTTRANSLIT:;
#GENRE:;
#ORIGIN:;
#CREDIT:;
#BANNER:Noticed-bn.png;
#BACKGROUND:Noticed-bg.png;
#PREVIEWVID:;
#JACKET:Noticed-jacket.png;
#CDIMAGE:;
#DISCIMAGE:black.png;
#LYRICSPATH:;
#CDTITLE:;
#MUSIC:Noticed.mp3;
#OFFSET:-0.386027;
#SAMPLESTART:70.259010;
#SAMPLELENGTH:14.999999;
#SELECTABLE:YES;
#BPMS:0.000=109.000;
#STOPS:;
#DELAYS:;
#WARPS:;
#TIMESIGNATURES:0.000=4=4;
#TICKCOUNTS:0.000=4;
#COMBOS:0.000=1;
#SPEEDS:0.000=1.000=0.000=0;
#SCROLLS:0.000=1.000;
#FAKES:;
#LABELS:0.000=Song Start;
#BGCHANGES:0.000=black.png=1.000=1=0=1=SongBgWithMovieViz==CrossFade==,
16.000=mv_cmn_n_box160.avi=1.000=0=0=1=====,
20.000=mv_cmn_n_hikari.avi=1.000=0=0=1=====,
24.000=mv_cmn_n_box160.avi=1.000=0=0=1=====,
26.000=mv_cmn_n_hikari.avi=1.000=0=0=1=====,
28.000=Noticed-bg1.png=1.000=0=0=1=====,
29.000=Noticed-bg2.png=1.000=0=0=1=====,
30.000=Noticed-bg1.png=1.000=0=0=1=====,
31.000=Noticed-bg2.png=1.000=0=0=1=====,
31.500=Noticed-bg3.png=1.000=0=0=1=====,
32.000=mv_cmn_s_pattern.avi=1.000=0=0=1=====,
48.000=mv_cmn_n_line.avi=1.000=1=0=1===CrossFade==,
64.000=mv_cmn_n_egg01.avi=1.000=0=0=1=====,
80.000=mv_cmn_h_train.avi=1.000=1=0=1===CrossFade==,
96.000=mv_cmn_n_box160.avi=1.000=0=0=1=====,
112.000=mv_cmn_n_hikari.avi=1.000=0=0=1=====,
124.000=Noticed-bg2.png=1.000=0=0=1=====,
124.250=black.png=1.000=1=0=1===CrossFade==,
128.000=mv_cmn_n_drop.avi=1.000=0=0=1=====,
144.000=mv_cmn_h_train.avi=1.000=1=0=1===CrossFade==,
160.000=mv_cmn_s_pattern.avi=1.000=0=0=1=====,
176.000=mv_cmn_n_hikari.avi=1.000=1=0=1===CrossFade==,
188.000=Noticed-bg3.png=1.000=0=0=1===CrossFade_Faster==,
188.250=black.png=1.000=1=0=1===CrossFade==,
192.000=mv_cmn_s_pattern.avi=1.000=0=0=1=====,
208.000=mv_cmn_n_drop.avi=1.000=0=0=1=====,
224.000=mv_cmn_n_hikari.avi=1.000=0=0=1=SongBgWithMovieViz====,
240.000=mv_cmn_n_line.avi=1.000=1=0=1=SongBgWithMovieViz==CrossFade==,
256.000=Noticed-bg.png=1.000=1=0=1===CrossFade==,
256.250=black.png=1.000=1=0=1===CrossFade==,
99999=-nosongbg-=1.000=0=0=0 // don't automatically add -songbackground-
;
#BGCHANGES2:16.000=white flash=1.000=0=0=1=====,
20.000=white flash=1.000=0=0=1=====,
24.000=white flash=1.000=0=0=1=====,
26.000=white flash=1.000=0=0=1=====,
28.000=white flash=1.000=0=0=1=====,
29.000=white flash=1.000=0=0=1=====,
30.000=white flash=1.000=0=0=1=====,
31.000=white flash=1.000=0=0=1=====,
31.500=white flash=1.000=0=0=1=====,
32.000=white flash=1.000=0=0=1=====,
64.000=white flash=1.000=0=0=1=====,
96.000=white flash=1.000=0=0=1=====,
112.000=white flash=1.000=0=0=1=====,
124.000=white flash=1.000=0=0=1=====,
128.000=white flash=1.000=0=0=1=====,
160.000=white flash=1.000=0=0=1=====,
188.000=white flash=1.000=0=0=1=====,
192.000=white flash=1.000=0=0=1=====,
208.000=white flash=1.000=0=0=1=====,
224.000=white flash=1.000=0=0=1=====,
;
#KEYSOUNDS:;
#ATTACKS:
;

//---------------dance-single - ----------------
#NOTEDATA:;
#CHARTNAME:;
#STEPSTYPE:dance-single;
#DESCRIPTION:;
#CHARTSTYLE:;
#DIFFICULTY:Beginner;
#METER:1;
#RADARVALUES:0.085601,0.109798,0.000000,0.163421,0.000000,88.000000,88.000000,0.000000,24.000000,0.000000,0.000000,0.000000,0.000000,0.000000,0.085601,0.109798,0.000000,0.163421,0.000000,88.000000,88.000000,0.000000,24.000000,0.000000,0.000000,0.000000,0.000000,0.000000;
#CREDIT:;
#NOTES:
0000
0000
0000
0000
,
0000
0000
0000
0000
,
0000
0000
0000
0000
,
0000
0000
0000
0000
,
1000
0000
0000
0000
,
1000
0000
0000
0000
,
0001
0000
0001
0000
,
0002
0000
1000
0000
,
1003
0000
0000
0000
,
1000
0000
0010
0000
,
0100
0000
0000
0000
,
0100
0000
0001
0000
,
1000
0000
0000
0000
,
1000
0000
0010
0000
,
0100
0000
0000
0000
,
0100
0000
0001
0000
,
1000
0000
1000
0000
,
0002
0000
0003
0000
,
0100
0000
0100
0000
,
0020
0000
0030
0000
,
1000
0000
0100
0000
,
2000
0000
3000
0000
,
0001
0000
0100
0000
,
0002
0000
0003
0000
,
2000
0000
0000
0000
,
3002
0000
0000
0000
,
0203
0000
0000
0000
,
0310
0000
0010
0000
,
0200
0000
0000
0000
,
0302
0000
0000
0000
,
2003
0000
0000
0000
,
3001
0000
0000
0000
,
1000
0000
0100
0000
,
2000
0000
3000
0000
,
0010
0000
1000
0000
,
0020
0000
0030
0000
,
0100
0000
0001
0000
,
0100
0000
0001
0000
,
1000
0000
0001
0000
,
2000
0000
3000
0000
,
0001
0000
1000
0000
,
0020
0000
0030
0000
,
1000
0000
0001
0000
,
0200
0000
0300
0000
,
0001
0000
0100
0000
,
0001
0000
0100
0000
,
0001
0000
1000
0000
,
0002
0000
0003
0000
,
1000
0000
0010
0000
,
0200
0000
0000
0000
,
0301
0000
0100
0000
,
0020
0000
0000
0000
,
1030
0000
0001
0000
,
2000
0000
0000
0000
,
3001
0000
0100
0000
,
0002
0000
0000
0000
,
1003
0000
0000
0000
,
0001
0000
0000
0000
,
0100
0000
0000
0000
,
0010
0000
0000
0000
,
1000
0000
1000
0000
,
2000
0000
0000
0000
,
3001
0000
0001
0000
,
0002
0000
0000
0000
,
2000
0000
3003
0000
;

//---------------dance-single - ----------------
#NOTEDATA:;
#CHARTNAME:;
#STEPSTYPE:dance-single;
#DESCRIPTION:;
#CHARTSTYLE:;
#DIFFICULTY:Easy;
#METER:4;
#RADARVALUES:0.182876,0.241557,0.088520,0.245131,0.000000,188.000000,175.000000,13.000000,36.000000,0.000000,0.000000,0.000000,0.000000,0.000000,0.182876,0.241557,0.088520,0.245131,0.000000,188.000000,175.000000,13.000000,36.000000,0.000000,0.000000,0.000000,0.000000,0.000000;
#CREDIT:;
#NOTES:
0000
0000
0000
0000
,
0000
0000
0000
0000
,
0000
0000
0000
0000
,
0000
0000
0000
0000
,
1000
0000
0000
0000
,
0001
0000
0000
0000
,
0100
0000
0010
0000
,
1000
0001
1000
0020
,
0130
0001
0100
0000
,
0010
1000
0010
0000
,
0100
0001
1000
0000
,
0001
0100
0010
0000
,
1000
0010
1000
0000
,
0001
0100
0001
0000
,
1000
0001
0100
0000
,
0001
0100
0010
0000
,
1001
0000
1000
0001
,
1000
0200
0300
1000
,
1010
0000
0010
0000
,
0010
0100
0101
0000
,
0001
1000
0100
0010
,
0001
0100
0002
0003
,
1000
0001
0100
0001
,
1000
0100
2000
3000
,
1002
0000
0100
0000
,
0203
0000
0010
0000
,
0302
0000
1000
0000
,
1003
0000
0001
1000
,
2001
0000
0100
0000
,
3020
0000
0100
0000
,
0230
0000
0001
0000
,
0301
0010
0100
1000
,
0001
1000
0010
0100
,
0002
0000
2003
0000
,
3010
1000
0001
0000
,
1001
0000
1001
0000
,
2000
3100
1000
0010
,
0200
0301
1000
0000
,
0010
1000
0001
0100
,
0020
0100
1000
0031
,
2000
3100
0010
0001
,
0200
0310
1000
0001
,
2000
0000
3002
0000
,
1003
0001
1001
1000
,
0020
0000
1030
0001
,
0200
0000
0310
1000
,
0001
1000
0010
0100
,
0002
0000
1003
1001
,
1000
0100
1000
0010
,
0200
0000
0302
0000
,
1003
0100
0010
0001
,
2000
0000
3002
0000
,
0103
0010
1000
0001
,
0200
0000
0320
0000
,
1030
0001
0100
0010
,
2000
0000
3200
0000
,
2300
0000
0010
0000
,
3020
0000
0100
0000
,
0230
0000
0001
0000
,
0302
0000
1000
0000
,
1003
0100
0000
1001
,
0000
1010
1000
0001
,
1000
1010
0000
0101
,
0001
0010
1000
0020
,
0200
0000
0330
0000
;

//---------------dance-single - ----------------
#NOTEDATA:;
#CHARTNAME:;
#STEPSTYPE:dance-single;
#DESCRIPTION:;
#CHARTSTYLE:;
#DIFFICULTY:Medium;
#METER:7;
#RADARVALUES:0.282096,0.329395,0.197467,0.122566,0.000000,290.000000,261.000000,29.000000,18.000000,0.000000,0.000000,0.000000,0.000000,0.000000,0.282096,0.329395,0.197467,0.122566,0.000000,290.000000,261.000000,29.000000,18.000000,0.000000,0.000000,0.000000,0.000000,0.000000;
#CREDIT:;
#NOTES:
0000
0000
0000
0000
,
0000
0000
0000
0000
,
0000
0000
0000
0000
,
0000
0000
0000
0000
,
1001
0000
0000
0000
,
1010
0000
0000
0000
,
0101
0000
1001
0000
,
1001
0000
0100
0000
0010
0000
0001
0010
,
0100
1000
0001
0100
,
0001
1000
0001
0100
,
0010
1000
0010
0100
,
0010
0001
0010
1000
,
0100
0010
0100
1000
,
0100
0010
0100
1000
,
0001
0100
0001
1000
,
0001
0010
0001
1000
,
1001
0000
0001
0000
1000
0000
0010
1000
,
0100
1000
0000
1001
,
0001
0100
0010
1000
,
0001
1000
0010
0000
1001
0000
0000
0000
,
1000
0000
0100
0000
1000
0000
0010
1000
,
0100
0010
0001
0101
,
0001
0000
1000
0000
0100
0000
1000
0010
,
0100
0001
1000
1001
,
0002
0100
1000
0010
,
0203
1000
0010
0001
,
0320
0001
0100
1000
,
1030
0000
0001
0000
1000
0010
0100
0000
,
0002
0010
1000
0100
,
2003
0100
0001
0010
,
3200
0001
0010
1300
,
0001
0010
0100
1000
,
1001
0001
0100
0010
,
1000
0100
1000
0000
0010
0100
0010
0000
,
0101
0001
1000
0100
,
1000
0001
0100
0010
1000
0000
0001
0000
,
1010
0000
1000
0010
0100
0000
0001
0000
,
0101
0000
0100
0001
1000
0000
0010
0000
,
1000
0100
0010
0001
,
1000
0001
1000
0010
0100
0000
0110
0000
,
1001
0001
1000
0010
,
0100
0001
1000
0000
0100
1000
0010
0000
,
1001
1000
0100
0010
,
1001
0001
0100
0110
,
1001
0000
0001
0010
0100
0000
1000
0000
,
1010
0000
1000
0001
0010
0000
0001
0000
,
1000
0100
0010
0001
,
1000
0001
0100
0001
0010
0000
1100
0000
,
0101
0000
0100
0010
1000
0000
0100
0000
,
2000
3010
0002
0013
,
1001
0000
0001
1000
0100
0000
0010
0000
,
0002
0103
2000
3010
,
1001
0000
1000
0000
0100
1000
0100
0000
,
2000
3010
0002
1003
,
1001
0000
0100
0000
0010
1000
0010
0000
,
1000
0100
1000
0000
0001
0100
0010
1000
,
0002
0100
0000
0100
,
2003
0100
0000
0100
,
3020
0100
0000
0100
,
2030
0001
0000
3001
,
0000
1000
0010
0100
0000
0001
0100
0010
,
0000
1001
0000
1000
0000
1001
0000
0001
,
0000
1000
0010
0100
0000
0001
1000
0100
,
1000
0010
0100
0010
1000
0001
0100
0000
,
2002
0000
3003
0000
;

//---------------dance-single - ----------------
#NOTEDATA:;
#CHARTNAME:;
#STEPSTYPE:dance-single;
#DESCRIPTION:;
#CHARTSTYLE:;
#DIFFICULTY:Hard;
#METER:9;
#RADARVALUES:0.353106,0.373315,0.156612,0.245131,0.000000,363.000000,340.000000,23.000000,36.000000,0.000000,0.000000,0.000000,0.000000,0.000000,0.353106,0.373315,0.156612,0.245131,0.000000,363.000000,340.000000,23.000000,36.000000,0.000000,0.000000,0.000000,0.000000,0.000000;
#CREDIT:;
#NOTES:
0000
0000
0000
0000
,
0000
0000
0000
0000
,
0000
0000
0000
0000
,
0000
0000
0000
0000
,
2010
0100
0100
3100
,
0102
0010
0010
0013
,
1010
0010
0110
0010
,
1000
0100
0001
0100
1000
0001
0100
0010
,
1000
0100
1000
0000
0010
0100
0010
0000
,
1000
0001
0100
0000
0001
1000
0100
0000
,
0010
0001
0010
0000
0001
1000
0001
0000
,
0100
0001
1000
0000
0010
1000
0001
0000
,
1000
0010
1000
0000
0010
0100
0010
0000
,
0100
0001
1000
0000
0100
0010
0001
0000
,
0100
0001
0100
0000
0010
1000
0010
0000
,
0100
0001
1000
0000
0010
0100
0001
0000
,
1001
0000
1000
0010
0100
0000
0001
0100
,
0010
0000
1000
0002
0000
1000
0000
1003
,
0010
0000
0000
1000
0010
0000
1000
0001
,
0100
0000
0010
1000
0002
0000
1003
0000
,
0001
1000
0010
0100
0001
1000
0100
0010
,
0001
0100
0010
1000
0200
1000
1300
0000
,
0010
0100
0001
1000
0010
0100
0001
0010
,
0100
1000
0100
0010
0002
0100
0103
0000
,
2010
0100
0100
0001
,
3020
0001
0100
1000
,
0230
1000
0010
0001
,
0310
1000
0000
1000
1001
0000
0110
0000
,
1002
0100
1000
0010
,
2003
0100
0001
0010
,
3200
0001
0010
1000
,
1300
0010
0100
0001
1000
0000
1001
0000
,
0001
0100
0010
1000
0100
0010
0001
0100
,
0020
1000
0001
0130
,
0110
0000
1000
0100
0010
0000
0101
0000
,
0001
1000
0010
0100
0001
0000
1100
0000
,
0102
0000
0013
0100
2000
0000
3010
0100
,
0002
0000
0013
0100
2000
0000
3010
0100
,
0002
0010
1000
0100
,
1003
1000
0010
0010
0100
0001
1000
0010
,
1000
0100
0010
0001
0100
0010
1000
0100
,
0020
0001
0100
1030
,
0011
0000
1000
0100
0010
0000
0101
0000
,
0001
0010
0100
1000
0001
0000
1010
0000
,
0102
0000
0013
0001
0200
0000
0310
0100
,
0002
0000
0013
0001
0200
0000
0310
0100
,
0002
1000
0010
0100
,
1003
1000
0001
0001
0010
0100
1000
0001
,
0100
0010
1000
0100
0010
0001
0100
0020
,
0000
0001
0000
0100
0000
1000
1030
0000
,
0001
0010
0100
1000
0100
0001
0100
2000
,
0000
0010
0000
0001
0000
0010
3010
0000
,
1001
0000
0101
0000
0010
0100
1000
0020
,
0000
0001
0000
0100
0000
1000
1030
0000
,
0011
0000
1001
0000
0010
1000
0001
0000
,
0100
0100
0010
0010
1000
0001
0100
0000
,
1002
0010
0010
0100
,
0203
0010
0010
0001
,
0320
0001
1000
0001
,
0230
1000
0001
1300
,
0001
1000
0100
0002
0000
0103
1000
0020
,
0000
0031
0010
1000
0001
0010
1000
0010
,
0100
1000
0010
0002
0000
0013
1000
0100
,
0010
0010
0001
0001
1000
0010
0100
0002
,
2000
0000
3003
0000
;

//---------------dance-single - ----------------
#NOTEDATA:;
#CHARTNAME:;
#STEPSTYPE:dance-single;
#DESCRIPTION:;
#CHARTSTYLE:;
#DIFFICULTY:Challenge;
#METER:11;
#RADARVALUES:0.464972,0.505073,0.142993,0.299605,0.177039,478.000000,457.000000,21.000000,44.000000,0.000000,0.000000,0.000000,0.000000,0.000000,0.464972,0.505073,0.142993,0.299605,0.177039,478.000000,457.000000,21.000000,44.000000,0.000000,0.000000,0.000000,0.000000,0.000000;
#CREDIT:;
#NOTES:
0000
0000
0000
0000
,
0000
0000
0000
0000
,
0000
0000
0000
0000
,
0000
0000
0000
0000
,
1001
0000
0000
0000
,
0110
0000
0000
0000
,
1002
0103
0210
0310
,
1000
0001
0100
0000
0010
0100
0001
0000
0100
0001
1000
0000
1010
0000
1001
0000
,
0001
0010
0001
1000
0001
0100
0001
0010
,
0100
1000
0100
0001
0100
1000
0100
0010
,
0001
0100
0001
1000
0001
0010
0001
0100
,
0010
0001
0010
1000
0100
0010
0001
0000
,
1000
0010
1000
0001
1000
0100
1000
0001
,
0010
1000
0010
0100
0010
0001
0010
0100
,
1000
0010
1000
0001
1000
0100
1000
0001
,
0010
0000
0010
0000
0001
0000
0001
0000
1000
0000
1000
0010
0100
0001
0100
0000
,
1001
0000
0001
1000
0010
0100
0001
0010
,
1000
0010
0001
0200
0000
0010
0310
1000
,
0001
0100
0010
2000
0000
0100
0000
3002
,
0000
0010
0010
1000
1003
0000
1001
0000
,
1000
0000
0010
0000
0100
0000
0001
0000
0010
0000
0001
0000
0100
0000
0010
0100
,
1000
0100
0001
1000
0200
0010
0310
0000
,
0001
0000
0100
0000
1000
0000
0100
0000
0001
0000
0010
0000
0100
0000
1000
0100
,
0001
0100
1000
0010
0200
0010
0310
0000
,
0102
0000
0010
0010
1000
0000
0100
0000
,
0023
0000
1000
0000
0100
0000
1000
1000
,
0032
0000
0100
0000
1000
0000
0100
1000
,
1003
0000
1001
0000
0000
0000
1000
0000
0001
0010
0100
1000
0010
0000
0000
0000
,
1002
0000
0100
0100
1000
0000
0010
0000
,
0203
0000
0010
0000
1000
0000
0010
0001
,
0320
0000
0001
0000
0100
0000
1000
0100
,
0130
0001
1000
0100
0010
0001
0100
0010
,
1000
0000
1010
0000
1000
0001
0100
0001
0000
0000
0010
0000
0100
0001
0100
0000
,
0000
0000
1000
0000
0001
0010
0100
0010
0001
0000
1000
0000
0010
0000
0100
0000
,
0001
0000
1000
0000
0100
0010
0001
1000
0002
0000
0203
0000
0320
0000
2030
0000
,
3100
0001
0100
1000
0010
0100
0010
0100
0010
0000
0000
0000
1001
0000
1000
0000
,
0002
0000
0100
0010
2003
0000
0100
0010
,
3002
0000
0010
0100
2003
0000
0100
0010
,
3001
0010
0100
1000
0010
0100
0001
0010
,
1000
0000
1000
0000
0010
0000
0010
0000
0001
0000
0001
1000
0100
0010
0001
0000
,
1000
0000
1010
0000
0100
0001
0100
0010
0000
0000
1000
0000
0001
0010
0100
0000
,
0000
0000
0010
0000
0001
1000
0010
0100
0001
0000
1000
0000
0100
0000
0010
0000
,
0001
0000
1000
0000
0010
0100
0001
1000
0200
0000
0302
0000
0203
0000
2300
0000
,
3010
0100
0001
1000
0010
0100
0001
0010
0100
0000
0000
0000
1100
0000
0010
0000
,
0002
0000
0010
0100
0023
0000
1000
0100
,
0032
0000
1000
0100
0023
0000
1000
0100
,
0031
1000
0100
0001
0100
1000
0010
0100
,
0001
0000
0001
0000
1000
0000
1000
0000
0010
0000
0010
1000
0001
0100
0010
0000
,
1001
0000
1000
0100
0001
0000
0100
0000
1000
0000
0010
0000
0001
0000
0010
0000
,
0200
0001
0301
0010
0200
1000
1300
0010
,
1010
0000
0100
0001
0100
0000
0010
0000
1000
0000
0100
0000
0001
0000
0100
0000
,
2000
0010
3010
0100
0002
0010
0013
0100
,
1100
0000
1000
0010
0100
0000
0001
0000
0010
0000
0001
0000
0100
0000
1000
0000
,
0200
0001
0301
0010
2000
0010
3010
0001
,
0101
0000
0100
0010
1000
0000
0100
0000
0010
0000
0001
0000
0100
0000
0010
0000
,
1000
0000
1000
0000
0001
0000
0001
0000
1000
0000
1000
0010
0100
0001
0010
0000
,
1002
0010
0000
0100
0000
0010
0000
1000
,
0203
0010
0000
1000
0000
0010
0000
0001
,
0320
1000
0000
0100
0000
0001
0000
0100
,
2030
0010
0000
0001
0000
0100
3001
0000
,
0001
0000
1001
0000
1000
0100
0001
0100
0000
0000
1000
0000
0010
0001
0010
0000
,
0000
0000
1000
0000
0001
0010
1000
0010
0002
0000
0203
0000
0320
0000
2030
0000
,
3001
0000
0010
0000
0001
0100
1000
0100
0010
0000
0100
0000
0001
0010
1000
0010
,
0001
0000
0001
0000
0100
0000
0100
0000
1000
0000
0100
0001
1000
0100
0010
0000
,
0002
0000
0003
0000
;

//---------------dance-double - ----------------
#NOTEDATA:;
#CHARTNAME:;
#STEPSTYPE:dance-double;
#DESCRIPTION:;
#CHARTSTYLE:;
#DIFFICULTY:Easy;
#METER:4;
#RADARVALUES:0.150775,0.197637,0.074901,0.224704,0.000000,155.000000,144.000000,11.000000,33.000000,0.000000,0.000000,0.000000,0.000000,0.000000,0.150775,0.197637,0.074901,0.224704,0.000000,155.000000,144.000000,11.000000,33.000000,0.000000,0.000000,0.000000,0.000000,0.000000;
#CREDIT:;
#NOTES:
00000000
00000000
00000000
00000000
,
00000000
00000000
00000000
00000000
,
00000000
00000000
00000000
00000000
,
00000000
00000000
00000000
00000000
,
00001001
00000000
00000000
00000000
,
00000110
00000000
00000000
00000000
,
00001001
00000000
00000110
00000000
,
00000001
00000001
00000001
00000001
,
00001000
00001000
00000100
00000000
,
00010000
00010000
00001000
00000000
,
00001000
00001000
00010000
00000000
,
00100000
00100000
00010000
00000000
,
10000000
10000000
10000000
00000000
,
00010000
00010000
00010000
00000000
,
01000000
01000000
01000000
00000000
,
00001000
00001000
00001000
00000000
,
00011000
00000000
00010000
00000000
,
00000100
00000000
00000000
00000110
,
00000001
00000000
00000001
00000000
,
00001000
00000001
00001000
00000000
,
00000010
00000000
00000010
00000000
,
00001000
00000000
00001000
00000100
,
00000010
00000000
00000010
00000000
,
00000001
00000000
00001000
00000001
,
00000200
00000000
00000000
00000000
,
00002300
00000000
00000000
00000000
,
00203000
00000000
00000000
00000000
,
01300000
00000000
10000000
10000000
,
20000000
00000000
00000000
00000000
,
30200000
00000000
00000000
00000000
,
00320000
00000000
00000000
00000000
,
00031000
00010000
00001000
00000000
,
00000002
00000000
00001000
00000000
,
00002003
00000100
00003100
00000000
,
00000010
00001000
00001010
00000000
,
00001001
00000000
00000001
00000000
,
00000200
00000000
00000320
00000000
,
00002030
00000000
00003200
00000000
,
00010300
00001000
00010000
00001000
,
00200000
00000000
00300000
00000000
,
20000000
00000000
01000000
00000000
,
30020000
00100000
00130000
00000000
,
00110000
00000000
00110000
00000000
,
01000000
00010000
01000000
00000000
,
00002000
00000000
00023000
00000000
,
00030200
00000000
00020300
00000000
,
00031000
00010000
00001000
00010000
,
00200000
00000000
00300000
00000000
,
20000000
01000000
31000000
00000000
,
00200000
00010000
00310000
00000000
,
00200000
00001000
00301000
00000000
,
00020000
00001000
00031000
00000000
,
00000200
00001000
00001300
00000000
,
00000020
00001000
00001030
00000000
,
00000002
00000010
00000013
00000000
,
00000001
00001000
00000001
00000000
,
00000020
00000000
00000000
00000000
,
00002030
00000000
00000000
00000000
,
00003200
00000000
00000000
00000000
,
00020300
00000000
00000000
00000000
,
00031000
00001000
00010000
00010000
,
00001000
00001000
00010000
00000000
,
10000000
10000000
00100000
00100000
,
01000000
00100000
01000000
00000000
,
20020000
00000000
30030000
00000000
;

//---------------dance-double - ----------------
#NOTEDATA:;
#CHARTNAME:;
#STEPSTYPE:dance-double;
#DESCRIPTION:;
#CHARTSTYLE:;
#DIFFICULTY:Medium;
#METER:7;
#RADARVALUES:0.254859,0.329395,0.238322,0.197467,0.000000,262.000000,227.000000,35.000000,29.000000,0.000000,0.000000,0.000000,0.000000,0.000000,0.254859,0.329395,0.238322,0.197467,0.000000,262.000000,227.000000,35.000000,29.000000,0.000000,0.000000,0.000000,0.000000,0.000000;
#CREDIT:;
#NOTES:
00000000
00000000
00000000
00000000
,
00000000
00000000
00000000
00000000
,
00000000
00000000
00000000
00000000
,
00000000
00000000
00000000
00000000
,
00001001
00000000
00000000
00000000
,
00000110
00000000
00000000
00000000
,
00001001
00000000
00001001
00000000
,
00001001
00001001
00001001
00001001
,
00000002
00000100
00000100
00000100
,
00001000
00001000
00001000
00001003
,
00000200
00010000
00010000
00010000
,
00001000
00010000
00001000
00000300
,
00200000
00010000
00010000
00010000
,
00001000
00010000
00001000
00300000
,
00020000
10000000
10000000
00100000
,
01030000
10000000
01000000
00100000
,
10010000
10000000
00100000
10000000
,
00010000
00000000
00000000
00010000
00000000
00000000
01000000
00000000
,
00100000
00010000
00001000
00010000
,
00011000
00000000
00001001
00000000
,
00000001
00000000
00000100
00000000
00000001
00000000
00000100
00000001
,
00000010
00000010
00000100
00000100
,
00001000
00010000
01000000
00010000
,
00000000
10010000
01100000
00000000
,
20000000
01000000
01000000
01000000
,
30020000
00100000
00100000
00000000
,
02030000
00100000
00100000
03010000
,
01010000
00000000
01100000
01100000
,
20000000
01000000
00100000
01000000
,
30020000
00100000
00100000
01000000
,
00230000
00001000
00001000
00310000
,
00011000
00001000
00011000
00000000
,
00000001
00000000
00000010
00000001
00000100
00000000
00001000
00000000
,
00020000
00031000
00002000
00013000
,
00010000
00100000
10100000
00000000
,
10010000
00000000
00000000
00000000
10000000
00000000
01000000
10000000
,
00100000
00000000
01000000
00000000
00100000
00000000
01000000
00010000
,
00100000
00000000
00010000
00000000
00100000
00000000
00010000
00100000
,
00001000
00010000
00001000
00000100
,
00000001
00000000
00000010
00000100
00001000
00000000
00010000
00000000
,
00011000
00000000
00010000
00100000
01000000
00000000
00100000
00000000
,
10000000
01000000
10000000
00100000
,
10100000
00000000
10010000
00000000
,
01000000
00100000
01000000
00000000
10010000
00000000
01000000
00000000
,
00010000
00000000
00100000
01000000
10000000
00000000
01000000
00000000
,
10000000
00000000
00100000
00010000
00002000
00000000
00013000
00000000
,
00000100
00000000
00000010
00000000
00000100
00010000
00001000
00000000
,
00011000
00001000
00010000
00100000
,
11000000
00000000
10000000
01000000
00100000
00000000
00010000
00000000
,
00002000
00013000
00000200
00010300
,
00001001
00000000
00000001
00000010
00000100
00000000
00001000
00000000
,
00000200
00001300
00020000
00030000
,
00011000
00000000
00010000
00100000
01000000
00000000
00100000
00000000
,
20000000
31000000
00020000
01030000
,
00100000
00000000
01000000
00100000
01000000
00000000
10010000
00000000
,
10000000
00000000
00100000
01000000
00000000
00000000
10010000
00000000
,
20000000
00000000
30020000
00000000
,
00230000
00000000
00302000
00000000
,
00003200
00000000
00000302
00000000
,
00002003
00000000
00003002
00000000
,
00001003
00000000
00000100
00001000
00000010
00000000
00001000
00000100
,
00000000
00001000
00000000
00010000
00000000
01000000
00000000
00000000
,
00100000
00000000
10000000
00000000
01000000
10000000
00100000
00000000
,
11000000
11000000
00110000
01010000
,
20020000
00000000
30030000
00000000
;

//---------------dance-double - ----------------
#NOTEDATA:;
#CHARTNAME:;
#STEPSTYPE:dance-double;
#DESCRIPTION:;
#CHARTSTYLE:;
#DIFFICULTY:Hard;
#METER:9;
#RADARVALUES:0.331706,0.351355,0.190658,0.177039,0.000000,341.000000,313.000000,28.000000,26.000000,0.000000,0.000000,0.000000,0.000000,0.000000,0.331706,0.351355,0.190658,0.177039,0.000000,341.000000,313.000000,28.000000,26.000000,0.000000,0.000000,0.000000,0.000000,0.000000;
#CREDIT:;
#NOTES:
// measure 0
00000000
00000000
00000000
00000000
,  // measure 1
00000000
00000000
00000000
00000000
,  // measure 2
00000000
00000000
00000000
00000000
,  // measure 3
00000000
00000000
00000000
00000000
,  // measure 4
00001001
00000000
00000000
00000000
,  // measure 5
00000110
00000000
00000000
00000000
,  // measure 6
00001001
00000000
00001001
00000000
,  // measure 7
00001001
00000000
00000110
00000000
00001001
00000000
00000110
00000001
,  // measure 8
00000001
00000010
00000100
00001000
00000100
00000000
00001000
00000000
,  // measure 9
00000100
00001000
00010000
00100000
00010000
00000000
01000000
00000000
,  // measure 10
10000000
01000000
00100000
00010000
00100000
00000000
00001000
00000000
,  // measure 11
00100000
00010000
00001000
00000100
00001000
00000000
00001001
00000000
,  // measure 12
00000010
00000100
00000010
00001000
00000100
00000000
00001000
00000000
,  // measure 13
00000100
00010000
00001000
00010000
00001000
00000000
00100000
00000000
,  // measure 14
01000000
10000000
01000000
00100000
01000000
00000000
00100000
00000000
,  // measure 15
00010000
00001000
00000100
00001000
00000010
00000100
00000001
00000000
,  // measure 16
00000011
00000000
00000001
00000100
00001000
00000000
00010000
00001000
,  // measure 17
00010000
00000000
00000100
00001000
00000000
00000000
00000100
00000000
,  // measure 18
00001000
00000000
00010000
01000000
00000000
00100000
00000000
00010000
,  // measure 19
00000000
00001000
00010000
00100000
10000000
00000000
10010000
00000000
,  // measure 20
10000000
00000000
00100000
10000000
01000000
00000000
00100000
00010000
,  // measure 21
00001000
00000000
00000100
00000000
00010000
00010000
00001000
00000000
,  // measure 22
00000100
00000000
00000001
00000000
00000100
00000010
00001000
00000000
,  // measure 23
00000001
00000010
00000100
00001000
00000010
00000100
00000100
00000000
,  // measure 24
00000012
00000100
00001000
00000100
,  // measure 25
00002003
00000100
00000010
00000100
,  // measure 26
00023000
00100000
01000000
00100000
,  // measure 27
10030000
01000000
00000000
10000000
10010000
00000000
01100000
00000000
,  // measure 28
20000000
01000000
00010000
00100000
,  // measure 29
32000000
00100000
00010000
00100000
,  // measure 30
03020000
00100000
00100000
01030000
,  // measure 31
00010000
00001000
00010000
00000100
00000010
00000001
00000100
00000000
,  // measure 32
00001001
00000000
00000001
00000100
00001000
00000000
00010000
00002000
,  // measure 33
00000000
00010000
00000000
00100000
00000000
01000000
01003000
00000000
,  // measure 34
10000000
01000000
10010000
00100000
,  // measure 35
10000000
01000000
00010000
00001000
00010000
00000000
00011000
00000000
,  // measure 36
00000200
00000000
00000310
00000100
00002000
00000000
00013000
00001000
,  // measure 37
00000200
00000000
00000310
00000100
00002000
00000000
00013000
00001000
,  // measure 38
00000200
00000010
00000001
00000310
,  // measure 39
00001000
00001000
00000001
00000001
00000010
00000100
00001000
00000000
,  // measure 40
00001001
00000000
00000001
00000100
00001000
00000000
00010000
00000200
,  // measure 41
00000000
00001000
00000000
00010000
00000000
00001000
00001300
00000000
,  // measure 42
00011000
00000000
00001000
00010000
00001000
00000000
00011000
00000000
,  // measure 43
00010000
00100000
10000000
01000000
00100000
00000000
10010000
00000000
,  // measure 44
20000000
00000000
30100000
00010000
00002000
00000000
00013000
00100000
,  // measure 45
20000000
00000000
30100000
00010000
00002000
00000000
00013000
00100000
,  // measure 46
10000000
00000000
11000000
00000000
00100000
00010000
00100000
00000000
,  // measure 47
00001000
00010000
00001000
00000100
00000010
00000100
00000001
00000000
,  // measure 48
00000101
00000000
00000001
00000010
00000100
00000000
00001000
00020000
,  // measure 49
00000000
00100000
00000000
01000000
00000000
10000000
10030000
00000000
,  // measure 50
10010000
00000000
10000000
01000000
00100000
00000000
00010000
00002000
,  // measure 51
00000000
00000100
00000000
00000010
00000000
00000001
00003001
00000000
,  // measure 52
00000101
00000000
00000010
00000100
00001000
00000000
00000100
00020000
,  // measure 53
00000000
00001000
00000000
00100000
00000000
00001000
00031000
00000000
,  // measure 54
00110000
00000000
10000000
01000000
00100000
00000000
10010000
00000000
,  // measure 55
10000000
01000000
00010000
00001000
00000100
00000010
00001000
00000000
,  // measure 56
00000012
00000100
00001000
00000100
,  // measure 57
00002003
00000100
00000010
00000100
,  // measure 58
00003200
00010000
00001000
00010000
,  // measure 59
00020300
00001000
00100000
00031000
,  // measure 60
00001000
00010000
00100000
10000000
00000000
10000000
00100000
00010000
,  // measure 61
00000000
00001000
00010000
00000100
00001000
00010000
00001000
00000100
,  // measure 62
00000010
00000001
00000100
00001000
00010000
00001000
00010000
00000000
,  // measure 63
00100000
10000000
00100000
10000000
01000000
00100000
00010000
00200000
,  // measure 64
02000000
00000000
03300000
00000000
;

//---------------dance-double - ----------------
#NOTEDATA:;
#CHARTNAME:;
#STEPSTYPE:dance-double;
#DESCRIPTION:;
#CHARTSTYLE:;
#DIFFICULTY:Challenge;
#METER:11;
#RADARVALUES:0.455244,0.527033,0.183849,0.306414,0.166826,468.000000,441.000000,27.000000,45.000000,0.000000,0.000000,0.000000,0.000000,0.000000,0.455244,0.527033,0.183849,0.306414,0.166826,468.000000,441.000000,27.000000,45.000000,0.000000,0.000000,0.000000,0.000000,0.000000;
#CREDIT:;
#NOTES:
// measure 0
00000000
00000000
00000000
00000000
,  // measure 1
00000000
00000000
00000000
00000000
,  // measure 2
00000000
00000000
00000000
00000000
,  // measure 3
00000000
00000000
00000000
00000000
,  // measure 4
00001001
00000000
00000000
00000000
,  // measure 5
00000110
00000000
00000000
00000000
,  // measure 6
00000102
00001003
00002010
00003001
,  // measure 7
00001000
00000100
00000010
00000000
00000001
00000010
00000100
00000000
00001000
00000100
00000010
00000000
00000011
00000000
00001100
00000000
,  // measure 8
00000001
00000100
00001000
00010000
00100000
10000000
01000000
10000000
,  // measure 9
00100000
00010000
00001000
00000100
00000001
00000010
00000001
00000100
,  // measure 10
00001000
00010000
00000100
00001000
00010000
00100000
00001000
00010000
,  // measure 11
00100000
10000000
01000000
10000000
00100000
10000000
10010000
00000000
,  // measure 12
10000000
01000000
00010000
00001000
00000010
00000001
00000100
00000001
,  // measure 13
00000010
00000100
00001000
00010000
10000000
00100000
10000000
01000000
,  // measure 14
00100000
00010000
00001000
00000100
00010000
00001000
00010000
00000100
,  // measure 15
00000010
00000000
00000010
00000000
00000001
00000000
00000001
00000000
00001000
00000000
00000001
00000010
00000100
00001000
00000001
00000000
,  // measure 16
00001001
00000000
00000001
00000100
00001000
00010000
00001000
00100000
,  // measure 17
00010000
00001000
00000200
00000010
00000000
00001300
00000010
00001000
,  // measure 18
00000001
00000100
00001000
00020000
00000000
00031000
00010000
00002000
,  // measure 19
00000000
00100000
00100000
01000000
01003000
00000000
01001000
00000000
,  // measure 20
10000000
00000000
01000000
00000000
00100000
00000000
00010000
00000000
00001000
00000000
00000100
00000000
00000010
00000000
00000001
00000010
,  // measure 21
00000100
00001000
00010000
00100000
01000000
10000000
00100000
00000000
,  // measure 22
10000000
01000000
00100000
00001000
00010000
00000100
00000010
00000001
,  // measure 23
00000100
00001000
00010000
00001000
00100000
01000000
01100000
00100000
,  // measure 24
21000000
00000000
00010000
00010000
00100000
00000000
01000000
00000000
,  // measure 25
30200000
00000000
01000000
00000000
00010000
00000000
01000000
01000000
,  // measure 26
00320000
00000000
00001000
00000000
00100000
00000000
00001000
00031000
,  // measure 27
00010000
00000000
00011000
00000000
00000000
00000000
00001000
00000000
00010000
00000100
00000010
00000001
00000100
00000000
00000000
00000000
,  // measure 28
00000012
00000000
00000100
00000100
00001000
00000000
00000010
00000000
,  // measure 29
00000203
00000000
00000010
00000000
00001000
00000000
00000010
00000010
,  // measure 30
00002300
00000000
00010000
00000000
00100000
00000000
00010000
00010000
,  // measure 31
00013000
00100000
10000000
01000000
00100000
00001000
00010000
00001000
,  // measure 32
00011000
00000000
00010000
00000000
00000100
00000010
00000001
00000010
00000000
00000000
00000100
00000000
00001000
00000010
00000100
00000000
,  // measure 33
00000000
00000000
00001001
00000000
00000001
00000010
00000100
00001000
00000010
00000000
00000100
00000000
00001000
00000000
00010000
00000000
,  // measure 34
00011000
00000000
00010000
00000000
00100000
10000000
01000000
00100000
00020000
00000000
00032000
00000000
00023000
00000000
00230000
00000000
,  // measure 35
01300000
10000000
00010000
00100000
01000000
10000000
00010000
00100000
01000000
00000000
00000000
00000000
10010000
00000000
00010000
00000000
,  // measure 36
02000000
00000000
00100000
00010000
03002000
00000000
00010000
00100000
,  // measure 37
02003000
00000000
00100000
00010000
03002000
00000000
00010000
00100000
,  // measure 38
02003000
00000000
00100000
00000000
00010000
00000000
03100000
01000000
,  // measure 39
00100000
00000000
10000000
00000000
00010000
00000000
00001000
00000000
00000100
00000000
00000010
00000001
00000100
00000010
00001000
00000000
,  // measure 40
00001001
00000000
00001000
00000000
00000001
00000010
00000100
00001000
00000000
00000000
00000001
00000000
00000100
00000010
00001000
00000000
,  // measure 41
00000000
00000000
00001100
00000000
00000010
00000100
00010000
00000100
00010000
00000000
00001000
00000000
00000100
00000000
00000010
00000000
,  // measure 42
00001000
00000000
00000100
00000000
00000010
00000100
00001000
00000100
00002000
00000000
00023000
00000000
00032000
00000000
00003200
00000000
,  // measure 43
00000310
00000001
00000100
00000010
00001000
00000100
00000010
00000001
00000100
00000000
00000000
00000000
00001001
00000000
00001000
00000000
,  // measure 44
00000020
00000000
00000100
00001000
00020030
00000000
00001000
00000100
,  // measure 45
00030020
00000000
00000100
00001000
00020030
00000000
00001000
00000100
,  // measure 46
00030020
00000100
00001000
00000100
,  // measure 47
00000130
00000000
00000001
00000000
00000010
00000000
00001000
00000000
00010000
00000000
00100000
01000000
00010000
10000000
01000000
00000000
,  // measure 48
10010000
00000000
10000000
01000000
00010000
00000000
00001000
00000000
00100000
00000000
00010000
00000000
00100000
00000000
00001000
00000000
,  // measure 49
00020000
00001000
00001000
00000100
00032000
00000010
00003010
00000000
,  // measure 50
00001001
00000000
00000001
00000010
00001000
00000000
00010000
00000000
00000100
00000000
00001000
00000000
00000100
00000000
00010000
00000000
,  // measure 51
00002000
00010000
00010000
00100000
00023000
01000000
01030000
00000000
,  // measure 52
10010000
00000000
10000000
00100000
01000000
00000000
00010000
00000000
00001000
00000000
00000100
00000000
00010000
00000000
00001000
00000000
,  // measure 53
00000200
00000001
00000001
00000010
00000302
00001000
00001003
00000000
,  // measure 54
00001001
00000000
00000001
00000010
00000100
00000000
00001000
00000000
00000010
00000000
00000100
00000000
00001000
00000000
00010000
00000000
,  // measure 55
00100000
00100000
10000000
10000000
01100000
00100000
01010000
10000000
,  // measure 56
10020000
00100000
00001000
00100000
,  // measure 57
02030000
00100000
00010000
00100000
,  // measure 58
03002000
00000100
00010000
00000100
,  // measure 59
00003200
00000010
00000001
00000310
,  // measure 60
00000000
00000000
00001000
00000000
00000001
00000010
00000100
00001000
00000000
00000000
00000010
00000000
00000100
00001000
00010000
00000000
,  // measure 61
00000000
00000000
00001000
00000000
00010000
00100000
10000000
01000000
00200000
00000000
00320000
00000000
02030000
00000000
03200000
00000000
,  // measure 62
01300000
00000000
00010000
00000000
00100000
00010000
00100000
00010000
00001000
00000000
00000100
00000000
00010000
00001000
00010000
00001000
,  // measure 63
00000100
00000000
00000001
00000000
00000010
00000000
00001000
00000000
00010000
00000000
01000000
10000000
00100000
00010000
00002000
00000000
,  // measure 64
00020000
00000000
00033000
00000000
;
