#TITLE:My Dearest Song;
#SUBTITLE:;
#ARTIST:月鈴 白奈(CV:高野 麻里佳);
#TITLETRANSLIT:;
#SUBTITLETRANSLIT:;
#ARTISTTRANSLIT:;
#GENRE:;
#CREDIT:;
#BANNER:My Dearest Song-bn.png;
#BACKGROUND:My Dearest Song-bg.jpg;
#LYRICSPATH:;
#CDTITLE:;
#MUSIC:My Dearest Song.mp3;
#OFFSET:0.935000;
#SAMPLESTART:53.605999;
#SAMPLELENGTH:15.000000;
#SELECTABLE:YES;
#BPMS:0.000000=145.000000
;
#STOPS:
;
#BGCHANGES:2.000=My Dearest Song.avi=1.000=0=0=0=StretchNoLoop==CrossFade_Faster==,
99999=-nosongbg-=1.000=0=0=0 // don't automatically add -songbackground-
;
#KEYSOUNDS:;
#ATTACKS:;

//---------------dance-single - ----------------
#NOTES:
     dance-single:
     :
     Beginner:
     3:
     0.152857,0.289650,0.095414,0.149936,0.000000,157.000000,143.000000,14.000000,22.000000,0.000000,0.000000,0.152857,0.289650,0.095414,0.149936,0.000000,157.000000,143.000000,14.000000,22.000000,0.000000,0.000000:
0000
0000
0000
0000
,
0001
0000
0000
0000
,
0001
0000
0001
0000
,
1000
0000
0000
0000
,
1000
0000
1000
0000
,
0010
0000
0010
0000
,
0100
0000
0100
0000
,
0001
0000
1000
0000
,
0002
0000
0003
0000
,
2000
0000
3000
0000
,
0020
0000
0000
0030
,
0010
0000
0010
0000
,
0100
0000
0100
0000
,
0001
0000
0010
0000
,
0002
0000
0000
0003
,
1000
0000
1000
0000
,
0010
0000
0010
0000
,
1000
0000
0010
0000
,
2000
0000
0000
3000
,
0010
0000
0010
0000
,
0100
0000
0100
0000
,
0001
0000
1000
0000
,
0200
0000
0000
0300
,
0020
0000
0030
0000
,
0002
0000
0003
0000
,
2000
0000
3000
0000
,
0002
0000
0003
0000
,
0100
0000
0010
0000
,
0100
0000
0010
0000
,
2000
0000
0000
3000
,
0002
0000
0000
0003
,
0010
0000
0010
0000
,
0010
0010
0100
0000
,
1001
0000
0001
0000
,
1000
1000
0001
0000
,
0100
0000
0010
0000
,
0100
0100
0010
0000
,
1001
0000
0100
0000
,
0001
0001
1000
0000
,
1000
0000
0010
0000
,
0002
0000
0000
0003
,
2000
0000
0000
3000
,
0010
0000
0010
0010
,
0100
0000
0100
0000
,
0001
0000
0001
0000
,
1000
0000
1000
0000
,
0001
0000
1000
0000
,
0010
0000
0010
0000
,
0001
0000
0001
0000
,
1000
0000
0001
0000
,
0100
0000
0010
0000
,
1000
0000
1000
0000
,
0001
0000
0001
0000
,
0010
0000
0010
0000
,
0001
0100
0001
0000
,
1000
1000
1000
0000
,
0001
0001
0001
0000
,
0200
0000
0000
0300
,
0020
0000
0000
0030
,
0110
0000
0000
0000
,
1000
0000
0000
0000
,
0001
0000
0000
0000
,
1000
0000
0000
0000
,
0001
0000
0001
0000
,
1000
0000
1000
0000
,
0001
0000
1000
0000
,
0002
0000
0000
0003
,
1001
0000
1001
0000
,
1010
0000
1010
0000
,
1001
0000
1001
0000
,
0101
0000
0101
0000
,
0110
0000
0110
0000
,
1001
0000
0100
0000
,
0001
0000
0010
0000
,
0020
0000
0000
0030
,
0200
0000
0000
0000
,
0300
0000
0000
0000
,
1000
0000
1000
0000
,
0001
0000
0100
0000
,
0010
0000
0200
0000
,
0000
0300
1000
0000
,
0002
0000
0000
0000
,
0000
0000
0000
0000
,
2003
0000
0000
0000
,
0000
0000
0000
0000
,
3010
0000
0000
0000
;

//---------------dance-single - ----------------
#NOTES:
     dance-single:
     :
     Easy:
     7:
     0.272611,0.492404,0.197643,0.327134,0.013631,280.000000,251.000000,29.000000,48.000000,0.000000,0.000000,0.272611,0.492404,0.197643,0.327134,0.013631,280.000000,251.000000,29.000000,48.000000,0.000000,0.000000:
0000
0000
0000
0000
,
0001
0000
0001
0000
,
1000
1000
1000
0000
,
0010
0000
0010
0000
,
0001
0001
0001
0000
,
1000
0010
0010
0000
,
0001
0100
0100
0000
,
0001
0010
0100
1000
,
2000
0000
0000
0000
,
3002
0000
0000
0000
,
0103
0000
0000
0000
,
0002
0103
0010
0100
,
0002
0103
0010
0100
,
0001
0001
1000
1000
,
0020
0000
0130
0000
,
0002
0103
0010
1000
,
0002
0103
0010
1000
,
0002
0000
0013
0100
,
2000
0000
3020
0000
,
0230
0301
0010
1000
,
0200
0301
0010
1000
,
0001
0001
0100
0100
,
0020
0000
1030
0000
,
1002
0000
0103
0000
,
1000
0100
0001
0000
,
2010
0000
3100
0000
,
0001
0100
1000
0000
,
0012
0000
1003
1000
,
2100
0000
3001
0001
,
0200
0000
0010
0000
,
0302
0000
0010
0000
,
2003
0100
3020
0100
,
2030
0000
3002
0000
,
0103
0010
0110
0000
,
1000
0100
1001
0000
,
0001
0010
0011
0000
,
0001
0100
1001
0000
,
0001
0010
0100
1000
,
1100
0000
0101
0000
,
0001
0001
1000
0010
,
0200
0000
0000
0000
,
0320
0000
0000
0000
,
0100
0100
0100
0130
,
0002
0013
0100
1000
,
2000
3100
0010
0001
,
0002
0103
0010
0100
,
2000
3100
0010
0100
,
0002
0013
0100
1000
,
2000
3100
0010
0001
,
0020
0130
0001
0100
,
2000
0000
3002
0000
,
0103
0001
1000
0100
,
0001
0100
1000
0010
,
0001
0010
0001
0100
,
0020
0100
2030
3100
,
0001
0010
0001
0000
0100
0000
0100
0000
,
0010
1000
0100
0001
,
0020
0000
0000
0000
,
0031
0010
0100
1000
,
1001
0000
0001
0000
,
1000
0000
1000
0000
,
0010
0000
0010
0000
,
0001
0000
0001
0000
,
1000
0100
1000
1000
,
0001
0010
0001
0001
,
0100
1000
0010
0100
,
0200
0000
0000
0300
,
0101
0101
0101
1001
,
1100
1100
1100
0010
,
1010
1010
1010
0110
,
0101
0101
0101
0000
,
0001
1000
0010
0100
,
0101
0000
1000
0000
0001
0000
1000
0000
0001
0000
1000
0000
,
1100
0001
0010
0011
,
0102
0000
0000
0000
,
2003
0000
0000
0000
,
3020
0000
0230
0000
,
0301
0100
1000
1000
,
0100
0010
0001
0001
,
0100
0010
0200
0000
,
0000
0300
0010
0010
,
0002
0000
0000
0000
,
0000
0000
0000
0000
,
2003
0000
3020
0000
,
2030
0000
3020
0000
,
0130
0000
0000
0000
;

//---------------dance-single - ----------------
#NOTES:
     dance-single:
     :
     Medium:
     9:
     0.376788,0.521369,0.361210,0.422548,0.023853,387.000000,334.000000,53.000000,62.000000,0.000000,0.000000,0.376788,0.521369,0.361210,0.422548,0.023853,387.000000,334.000000,53.000000,62.000000,0.000000,0.000000:
0000
0000
0000
0000
,
2010
0000
3200
0000
,
2300
3020
0230
0300
,
0002
0000
0023
0000
,
0032
0203
0320
0030
,
1100
0100
0011
0010
,
0001
0000
0000
0100
0000
0000
1000
0000
0010
0000
0000
0000
0001
0000
0100
0000
,
0010
0000
0010
1000
0100
0000
0101
0000
,
1200
0000
0000
0000
,
0320
0000
0230
0000
,
2300
0000
0000
0000
,
3002
0000
0103
0000
0010
1000
0100
0000
,
0002
0000
0103
0000
0010
1000
0100
0000
,
2000
3200
0320
0032
,
2003
0100
3002
0010
,
2003
0000
3100
0000
0001
0010
0100
0000
,
2000
0000
3100
0000
0001
0010
0100
0000
,
2000
0100
3020
0230
,
0302
0000
0010
1003
,
0002
0000
0013
0000
0100
1000
0010
0000
,
0002
0000
0013
0000
0100
1000
0010
0000
,
0002
0203
0320
2030
,
3200
0000
0000
0010
0310
0000
0000
0000
,
0102
0000
0100
0000
,
2003
0100
3002
0103
,
2010
0000
0010
0000
,
3002
0010
2003
3010
,
0120
0000
0130
0000
0001
0100
0010
0000
,
0120
0000
0130
0000
0001
0100
0010
0000
,
2000
0000
0100
0001
,
3002
0000
0100
1000
,
1003
1100
0001
0101
,
1010
1100
0110
0001
,
0010
0000
0010
0100
1000
0000
1100
0000
,
1000
0000
1000
0100
0001
0000
0101
0000
,
0001
0000
0001
0100
1000
0000
1100
0000
,
0001
0000
0001
0010
0100
0000
1100
0000
,
1000
0000
1000
0001
0100
0000
0101
0000
,
0010
0000
0000
0010
0000
0000
0100
0000
0010
0000
0000
0000
0110
0000
0000
0000
,
1000
0000
0100
0000
0001
0100
1000
0000
,
0001
0100
1000
0000
1000
0100
0001
0000
,
1002
0000
0000
0000
,
0203
0010
0010
0310
,
1000
0100
0001
0000
0100
0000
1000
0000
,
0001
1000
0010
0000
0100
0000
0001
0000
,
0001
0010
0100
0000
1000
0000
0100
0000
,
0100
1000
0010
0000
1000
0000
0100
0000
,
0010
0001
1000
0000
0001
0000
1000
0001
,
0010
0000
0100
1000
0001
0000
0101
0000
,
0010
0000
1000
0100
0001
0000
0100
1000
,
0001
1000
0001
0100
0010
0000
0110
0000
,
0001
0100
0001
0100
0010
0000
0010
0000
,
1000
0100
0010
0000
0010
0100
1000
0000
,
0001
1000
0001
1000
0100
0000
0010
0000
,
0001
1000
0100
1000
0001
0000
0101
0000
,
0001
0100
0001
0100
0010
1000
0010
1000
,
0100
0010
0001
0010
0100
0000
1000
0000
,
1002
0000
0100
0000
,
2003
0100
3002
0100
,
0013
0000
0010
0000
,
0100
0000
0100
0000
,
1000
0000
1000
0000
,
0001
0000
1000
0000
,
0011
0100
1010
0010
,
0101
0100
1001
0001
,
1000
0010
0110
0101
,
2002
0000
3003
0000
,
0101
1010
1100
1010
,
1001
0101
1001
1001
,
0110
0101
0011
1001
,
1100
1001
0110
0110
,
0001
0000
0010
0000
0100
1000
0010
0000
,
1100
0000
0001
0000
0010
0000
1100
0000
0001
0000
1000
0000
,
0101
0000
0010
1000
0100
0000
1010
0000
,
0020
0000
0000
0001
,
0230
0000
0000
0000
,
1000
1000
1000
1300
,
1001
0000
0010
0000
1000
0100
1000
0001
,
0002
0010
2003
0100
,
3001
0000
0000
0100
0000
0000
0100
0000
0020
0000
0000
0000
0000
0000
0000
0000
,
0100
0000
0000
1030
0100
0000
0010
0000
,
0002
0000
0000
0000
,
0000
0000
0000
0000
,
0203
0000
0302
0000
,
0203
0000
0302
0000
,
1003
0000
0000
0000
;

//---------------dance-single - ----------------
#NOTES:
     dance-single:
     :
     Hard:
     12:
     0.582220,0.811019,0.524777,0.258981,0.269204,598.000000,521.000000,77.000000,38.000000,0.000000,0.000000,0.582220,0.811019,0.524777,0.258981,0.269204,598.000000,521.000000,77.000000,38.000000,0.000000,0.000000:
0000
0000
0000
0000
,
1001
0000
0000
0001
0000
0000
1000
0000
0001
0000
0000
0000
1001
0000
0000
0000
,
0010
0000
0000
0100
0000
0000
0010
0000
0010
0000
0000
0000
0000
0000
0000
0000
,
1100
0000
0000
1000
0000
0000
0100
0000
0010
0000
0000
0000
0001
0000
0000
0000
,
0101
0000
0000
0001
0000
0000
1000
0000
1000
0000
0000
0000
0000
0000
0000
0000
,
0001
0000
0000
1000
0000
0000
0100
0000
1000
0000
0000
0000
1010
0000
0000
0000
,
0100
0000
0000
0100
0000
0000
0010
0000
0001
0000
0000
0000
0101
0000
0000
0000
,
0001
1000
0100
1000
1001
0000
0011
0000
,
0102
0000
0100
1000
,
2003
0000
0100
0000
,
3020
0000
0000
0130
,
0120
0000
1030
0000
0100
0010
0001
0000
,
0120
0000
1030
0000
0100
0010
0001
0000
,
0120
0032
0203
1000
,
2300
0000
0001
3001
,
1002
0000
0013
0000
0100
1000
0010
0000
,
1002
0000
0013
0000
0100
1000
0010
0000
,
1002
0010
2003
0100
,
3020
0000
0000
0000
0000
0000
0000
0000
0130
0000
0010
0100
0010
1000
0001
1000
,
0001
0000
0100
0000
0010
0000
1000
0000
0100
0000
1000
0010
1000
0000
0000
0000
,
0001
0000
0100
0000
0010
0000
1000
0000
0100
0000
1000
0010
1000
0000
0000
0000
,
0001
0100
0000
0000
0100
1000
0000
0000
1000
0100
0000
0000
0100
0001
0000
0000
,
0002
0000
0010
0100
2003
0000
0100
0010
,
3001
0000
0010
0000
,
1100
0000
0001
0100
0010
0000
0000
0000
,
1001
0000
0100
0000
,
0011
0000
0000
0000
0001
0000
0010
0000
0100
0000
1000
0000
0001
1000
0001
0000
,
0100
0000
0010
0000
1000
0000
0001
1000
0001
0000
1000
0000
0100
0000
0000
0000
,
0001
0000
0010
0000
0100
0000
1000
0001
1000
0000
0010
0000
0100
0000
0001
0000
,
0020
0000
0100
0000
0001
0000
0100
0001
,
0032
0000
0100
0000
1000
0000
0100
1000
,
1003
1100
0001
0101
,
1010
0100
0010
0100
0010
0001
0100
0010
,
1010
0000
0000
0100
1000
0000
0001
0000
1000
0000
1000
0000
1010
0000
0000
0000
,
0100
0000
0000
0100
0001
0000
0010
0000
0001
0000
0001
0000
1001
0000
0000
0000
,
0010
0000
0000
1000
0001
0000
1000
0000
0001
0000
1000
0000
1001
0000
0000
0000
,
0100
0000
0000
0010
1000
0000
0100
0000
0010
0000
0001
0000
1000
0001
1000
0001
,
0100
0000
0000
0100
0010
0000
1000
0000
0100
0000
0100
0000
1100
0000
0000
0000
,
0011
0000
0000
1100
0000
0000
0110
0000
0101
0000
0000
1001
0000
0000
0011
0000
,
1000
0100
1000
0000
0001
0000
1000
0100
1000
0000
0001
0000
1000
0010
1000
0000
,
0001
0010
0001
0000
1000
0000
0001
0010
0001
0000
0100
0000
0001
0010
0001
0010
,
0200
0000
0000
0000
,
2300
0000
0010
0000
0010
0010
3010
0000
,
1000
0100
1100
1000
0010
1000
1010
0100
,
0001
0100
0101
0001
0010
0100
0110
1000
,
0001
1000
1001
0001
0100
0010
0110
1000
,
0200
0000
0000
0310
0002
0000
1000
0000
1003
0000
0010
0000
0100
0010
0100
0000
,
1001
0001
0100
0010
0110
1000
0100
0010
,
0110
0010
0001
0100
0101
0001
1000
0010
,
1020
0000
0000
1030
0002
0000
0100
0000
0103
0000
0001
0000
1000
0000
0100
0000
,
0010
0000
0001
0000
0100
0000
1000
0000
0010
0000
0001
0000
0100
0001
1000
0000
,
1001
0000
0001
0000
0100
0000
0010
1000
0010
0000
0100
0000
0001
0000
0000
0000
,
0010
0000
0100
0000
1000
0000
0001
0010
0001
0000
1000
0000
0100
0000
0100
0000
,
0001
0000
0100
0000
0010
0000
1000
0010
1000
0000
0010
0000
0100
0000
0000
0000
,
0001
0000
0010
0000
0001
0000
1000
0001
1000
0000
0100
0000
0010
0000
0001
0000
,
1000
0010
1000
0010
0100
0001
0100
0001
1000
0010
1000
0010
0100
0001
0100
0001
,
0010
0000
0100
0000
1000
0000
0001
0010
0100
0000
1000
0000
0010
0000
0100
0000
,
0002
0010
0100
1000
,
2003
0100
3002
0103
,
1001
0000
0010
0000
,
1000
0000
0000
1000
0000
0000
1000
0000
0100
0000
0000
0000
0000
0000
0000
0000
,
1001
0000
0001
0000
,
0010
0000
0000
0010
0000
0000
0010
0000
0100
0000
0000
0000
0000
0000
0000
0000
,
0101
0000
0001
1000
0100
0000
1100
0000
,
1000
0000
1000
0100
0010
0000
0011
0000
,
0001
0000
0001
0100
1000
0000
1001
0000
,
0120
0000
0000
0130
,
0101
0100
1010
0010
0101
0100
1010
0010
,
1100
0100
0011
0010
0101
0001
1010
1000
,
0110
0100
1001
0001
0110
0010
1001
1000
,
0101
0001
1010
1000
0101
0100
1010
0010
,
1100
0010
0101
0010
1100
0010
0101
0010
,
1001
0000
1010
0000
1100
0000
0101
0000
0011
0000
1010
0000
,
1000
0100
1000
0100
0010
0000
0001
1000
0001
1000
0010
0000
0100
0010
0100
0000
,
0001
0100
0001
0100
0010
0000
1000
0100
1000
0100
0010
0000
0001
0100
0010
1000
,
0200
0000
0010
0000
,
2300
0001
0002
3000
,
1003
0000
0010
0000
0100
0000
0001
0000
0010
0000
0001
0010
0001
0000
1000
0000
,
0200
0001
2300
0010
,
3001
0000
0000
0100
0010
0000
0010
0000
0100
0000
1000
0000
0001
0000
0000
0000
,
0010
0001
0100
0001
1000
0000
0000
1000
0100
0000
0010
0000
0001
0000
0100
0000
,
0020
0000
0000
0000
0000
0000
1000
0000
0000
0000
0000
0000
1000
0000
0000
0000
0000
0000
0000
1000
0000
0000
0000
0000
0000
0000
1000
0000
0000
0000
0000
0000
,
0000
0000
1000
0000
0000
0000
0000
0000
0000
0000
1000
0000
0000
0000
0000
0000
0000
0000
0000
1000
0000
0000
0000
0000
0000
0000
0000
0000
0000
0000
0000
0000
,
2030
0000
3002
0000
,
2003
0000
3002
0000
,
0103
0000
0000
0000
;

//---------------dance-double - ----------------
#NOTES:
     dance-double:
     :
     Easy:
     7:
     0.283321,0.434474,0.177197,0.320318,0.013631,291.000000,265.000000,26.000000,47.000000,0.000000,0.000000,0.283321,0.434474,0.177197,0.320318,0.013631,291.000000,265.000000,26.000000,47.000000,0.000000,0.000000:
00000000
00000000
00000000
00000000
,
00011000
00000000
00001000
00000000
,
00010000
00000000
00001000
00000000
,
00100000
00000000
00010000
00000000
,
01000000
00000000
00010000
00000000
,
10000000
00000000
00100000
00000000
,
01000000
00000000
01000000
00000000
,
00010000
00000000
00010000
10000000
,
02000000
00000000
00000000
00000000
,
03200000
00000000
00320000
00000000
,
02030000
00000000
00000000
03000000
,
00200000
10300000
00010000
01000000
,
00200000
10300000
00010000
01000000
,
00200000
00320000
00032000
00003200
,
00000302
00000000
00001000
00000000
,
00002003
00003100
00000001
00000010
,
00002000
00003100
00000001
00000010
,
00000200
00000000
00002300
00023000
,
02030000
00000000
00100000
03100000
,
00020000
10030000
01000000
00100000
,
00020000
10030000
01000000
00100000
,
00020000
02030000
03200000
00320000
,
00032000
00000000
00023000
00000000
,
00030100
00000000
00001000
00000000
,
00001010
00000001
00000101
00001000
,
00000002
00000000
00000103
00000000
,
00001010
00000100
00010100
00001000
,
00010000
00000000
01000000
00000000
00100000
01000000
00100000
00000000
,
10000000
00000000
00010000
00000000
00100000
00010000
00100000
00000000
,
02000000
00000000
10000000
00000000
,
03200000
00010000
00010000
00310000
,
01010000
00010000
10010000
10000000
,
10100000
00010000
00001000
00010000
,
00010100
00001000
00000001
00000001
,
00000010
00000100
00010000
00010000
,
00001000
00100000
00010000
00010000
,
10000000
00100000
10010000
00000000
,
10000000
00010000
01000000
01000000
,
01100000
00000000
00011000
00000000
,
00001100
00000010
00000001
00000010
,
00000200
00000000
00000320
00000000
,
00000230
00000000
00000000
00000000
,
00010000
00010000
00010000
00010300
,
00000100
00001000
00010000
00100000
,
01000000
10000000
00100000
10000000
,
01000000
00010000
00001000
00010000
,
00000100
00010000
00001000
00010000
,
00000010
00000100
00000001
00000100
,
00000001
00000010
00000100
00001000
,
00010000
00001000
00010000
01000000
,
00100000
01000000
00001000
00001000
,
00100000
00010000
00010000
00000000
,
10000000
00100000
00100000
00010000
,
00000100
00010000
00010000
00000000
,
00000100
00001000
00000010
00000010
,
00000100
00000001
00000100
00000000
00000001
00000000
00000001
00000000
,
00001000
00000100
00000010
00000100
,
00020000
00000000
00000000
00000000
,
00230000
00000000
20300000
00000000
,
31000000
00000000
01000000
00000000
,
00100000
00000000
00100000
00000000
,
00010000
00000000
00010000
00000000
,
00001000
00000000
00001000
00000000
,
00000100
00000001
00000100
00000001
,
00000010
00000100
00000010
00000100
,
00010000
00000100
00010000
00000100
,
00011000
00000000
00000000
00000000
,
00011000
00110000
00010000
10000000
,
10100000
01010000
00010000
00001000
,
00011000
00001100
00001000
00000010
,
00000110
00000101
00000001
00000010
,
00001100
00010100
00010000
00001000
,
01001000
00000000
00010000
00000000
00100000
00000000
01000000
00000000
10000000
00000000
00010000
00000000
,
10010000
01000000
00100000
10000000
,
20000000
00000000
30020000
00000000
,
02030000
00000000
00100000
00000000
,
03020000
00100000
20030000
01000000
,
30010000
01000000
00100000
00010000
,
00000100
00000010
00000100
00001000
,
00000002
00000000
00002003
00000000
,
00003200
00000000
00010300
00010000
,
00002000
00000000
00000000
00000000
,
00000000
00000000
00000000
00000000
,
00023000
00000000
00032000
00000000
,
00023000
00000000
00032000
00000000
,
00103000
00000000
00000000
00000000
;

//---------------dance-double - ----------------
#NOTES:
     dance-double:
     :
     Medium:
     9:
     0.365105,0.521369,0.190828,0.368025,0.095414,375.000000,347.000000,28.000000,54.000000,0.000000,0.000000,0.365105,0.521369,0.190828,0.368025,0.095414,375.000000,347.000000,28.000000,54.000000,0.000000,0.000000:
00000000
00000000
00000000
00000000
,
00011000
00000000
00000000
00001000
00000000
00000000
00010000
00000000
00100000
00000000
00000000
00000000
00100000
00000000
00000000
00000000
,
10000000
00000000
00000000
01000000
00000000
00000000
00100000
00000000
00100000
00000000
00000000
00000000
00000000
00000000
00000000
00000000
,
00001000
00000000
00000000
00010000
00000000
00000000
00000100
00000000
00010000
00000000
00000000
00000000
00010000
00000000
00000000
00000000
,
00000100
00000000
00000000
00000010
00000000
00000000
00000001
00000000
00000001
00000000
00000000
00000000
00000000
00000000
00000000
00000000
,
00001000
00000000
00000000
00000010
00000000
00000000
00000100
00000000
00000010
00000000
00000000
00000000
00000010
00000000
00000000
00000000
,
00000001
00000000
00000000
00000100
00000000
00000000
00000010
00000000
00000010
00000000
00000000
00000000
00000000
00000000
00000000
00000000
,
00001000
00000000
00000000
00000100
00000000
00000000
00010000
00000000
00001000
00000000
00000000
00000000
00001000
00000000
00000000
00000000
,
00020000
00000000
00000000
00000000
,
00032000
00000000
00203000
00000000
,
02300000
00000000
00000000
03000000
,
20000000
00000000
30010000
00000000
01000000
10000000
00100000
00000000
,
20000000
00000000
30010000
00000000
01000000
10000000
00100000
00000000
,
00020000
00032000
00003200
00000302
,
00000023
00000000
00000100
00000130
,
00000002
00000000
00000013
00000000
00000100
00001000
00000010
00000000
,
00000002
00000000
00000013
00000000
00000100
00001000
00000010
00000000
,
00000002
00000000
00002003
00023000
,
00230000
00000000
01000000
01300000
,
02000000
00000000
13000000
00000000
00001000
00100000
00010000
00000000
,
02000000
00000000
13000000
00000000
00001000
00100000
00010000
00000000
,
02000000
00000000
00000000
00000000
23000000
00000000
00000000
00000000
30200000
00000000
00000000
00300000
00020000
00000000
00000000
00000000
,
00032000
00000000
00000000
00010000
00013000
00000000
00000000
00000000
,
00020010
00000000
00001000
00000000
,
00030200
00000000
00000000
00000010
00000010
00000000
00000300
00000000
,
00102000
00000000
00010000
00000000
,
02003000
00000000
00000000
00100000
00100000
00000000
03000000
00000000
,
20000000
00000000
31000000
00000000
10000000
00100000
00010000
00000000
,
00002000
00000000
00013000
00000000
00001000
00000100
00000001
00000000
,
00000020
00000000
00000100
00000001
,
00000230
00001000
00000010
00010000
,
00020300
00100000
00032000
00100000
,
02003000
00100000
03002000
00010000
,
00103000
00000000
00000000
01000000
00000000
00000000
10000000
00000000
00100000
00000000
00000000
00000000
00100000
00000000
00000000
00000000
,
10000000
00000000
00000000
01000000
00000000
00000000
00100000
00000000
00010000
00000000
00000000
00000000
00000000
00000000
00000000
00000000
,
00100000
00000000
00000000
00001000
00000000
00000000
00010000
00000000
00000100
00000000
00000000
00000000
00000100
00000000
00000000
00000000
,
00000010
00000000
00000000
00000001
00000000
00000000
00000100
00000000
00000100
00000000
00000000
00000000
00000000
00000000
00000000
00000000
,
00000001
00000000
00000000
00000010
00000000
00000000
00000100
00000000
00001000
00000000
00000000
00000000
00001001
00000000
00000000
00000000
,
00000001
00000000
00000000
00000100
00000000
00000000
00001000
00000000
00010000
00000000
00000000
00001000
00000000
00000000
00010000
00000000
,
00100000
00000000
00000000
10000000
00000000
00000000
01000000
00000000
00100000
00000000
00000000
00000000
01100000
00000000
00000000
00000000
,
02000000
00000000
10000000
00100000
,
03200000
00000000
00000000
00000000
,
00010000
00010000
00010000
00310000
,
10000000
00000000
00100000
00000000
10000000
00100000
00010000
00000000
,
00001000
00000000
00010000
00000000
00001000
00000100
00000001
00000000
,
00000010
00000000
00000001
00000000
00000010
00000100
00001000
00000000
,
00020000
00001000
00100000
00130000
,
10000000
00000000
00100000
00000000
10000000
01000000
00100000
00000000
,
00001000
00000000
00010000
00000000
00001000
00100000
00010000
00000000
,
00002000
00000100
00000010
00000001
,
00003002
00000010
00001000
00001003
,
00000001
00000100
00000010
00000000
00001000
00000100
00010000
00000000
,
00000100
00010000
00001000
00000000
00100000
00010000
01000000
00000000
,
00100000
10000000
01000000
00000000
01000000
10000000
00100000
00000000
,
01000000
00010000
00100000
00000000
00100000
00010000
01000000
00000000
,
00100000
10000000
01000000
00010000
00001000
00010000
00001000
00010000
,
00000100
00000010
00000001
00000010
00000100
00001000
00000010
00000010
,
00000200
00000000
00000010
00000000
,
00000302
00000100
00002003
00003100
,
00000001
00000000
00000000
00000100
00000000
00000000
00000010
00000000
00000010
00000000
00000000
00000000
00000100
00000000
00000000
00000000
,
00000010
00000000
00000000
00001000
00000000
00000000
00000100
00000000
00000100
00000000
00000000
00000000
00000000
00000000
00000000
00000000
,
00010000
00000000
00000000
00001000
00000000
00000000
00010000
00000000
00010000
00000000
00000000
00000000
00001000
00000000
00000000
00000000
,
00100000
00000000
00000000
00010000
00000000
00000000
01000000
00000000
01000000
00000000
00000000
00000000
00000000
00000000
00000000
00000000
,
10000000
00000000
00000000
00100000
00000000
00000000
10000000
00000000
01000000
00000000
00000000
00000000
11000000
00000000
00000000
00000000
,
00100000
00000000
00000000
00001000
00000000
00000000
00100000
00000000
00001000
00000000
00000000
00000000
00011000
00000000
00000000
00000000
,
00010000
00000000
00000000
00000100
00000000
00000000
00000010
00000000
00000001
00000000
00000000
00000000
00000100
00000000
00000000
00000000
,
00000020
00000000
00000000
00000030
,
00001001
00001100
00010010
00010100
,
00101000
00110000
10010000
10100000
,
01100000
01010000
00101000
00011000
,
00010100
00001100
00011000
00110000
,
01100000
01001000
00010100
00001010
,
00000001
00000000
00000010
00000000
00000100
00000000
00010000
00000000
00100000
00000000
01000000
00000000
,
00100000
00000000
00000000
10000000
00000000
00000000
01000000
00000000
01000000
00000000
00000000
00000000
10010000
00000000
00000000
00000000
,
00020000
00000000
00001000
00100000
,
02030000
00000000
00100000
00000000
,
03020000
00000000
00000000
00000000
00001000
00000000
00000000
00000000
00200000
00030000
00000000
00000000
00001000
00000000
00000000
00000000
,
00301000
00000000
00010000
00000000
00001000
00010000
00000100
00000010
,
00000001
00000001
00000100
00001000
,
00010000
00000000
00000000
00000100
00000000
00000000
00000010
00000000
00000100
00000000
00000000
00000000
00010000
00000000
00000000
00000000
,
00001000
00010000
00001000
00000000
00100000
00010000
10000000
00000000
,
00200000
00000000
00000000
00000000
,
00000000
00000000
00000000
00000000
,
00320000
00000000
00032000
00000000
,
00023000
00000000
00032000
00000000
,
00103000
00000000
00000000
00000000
;

//---------------dance-double - ----------------
#NOTES:
     dance-double:
     :
     Hard:
     12:
     0.530619,0.753089,0.354395,0.293057,0.276019,545.000000,493.000000,52.000000,43.000000,0.000000,0.000000,0.530619,0.753089,0.354395,0.293057,0.276019,545.000000,493.000000,52.000000,43.000000,0.000000,0.000000:
// measure 0
00000000
00000000
00000000
00000000
,  // measure 1
00011000
00000000
00000000
00001000
00000000
00000000
00010000
00000000
00001000
00000000
00000000
00000000
00001000
00000000
00000000
00000000
,  // measure 2
00100000
00000000
00000000
00010000
00000000
00000000
00100000
00000000
00100000
00000000
00000000
00000000
00000000
00000000
00000000
00000000
,  // measure 3
01000000
00000000
00000000
10000000
00000000
00000000
01000000
00000000
10000000
00000000
00000000
00000000
10000000
00000000
00000000
00000000
,  // measure 4
00100000
00000000
00000000
01000000
00000000
00000000
00100000
00000000
00100000
00000000
00000000
00000000
00000000
00000000
00000000
00000000
,  // measure 5
00010000
00000000
00000000
00001000
00000000
00000000
00000100
00000000
00000001
00000000
00000000
00000000
00000100
00000000
00000000
00000000
,  // measure 6
00000001
00000000
00000000
00000010
00000000
00000000
00001000
00000000
00010000
00000000
00000000
00000000
00001000
00000000
00000000
00000000
,  // measure 7
00100000
00000000
00000000
01000000
00000000
00000000
10000000
00000000
00100000
00000000
00000000
00000000
00100000
00000000
00000000
00000000
,  // measure 8
02000000
00000000
00100000
00000000
,  // measure 9
03002000
00000000
00010000
00000000
,  // measure 10
00003200
00000000
00000000
00000300
,  // measure 11
00000102
00000000
00000013
00000000
00000100
00001000
00000010
00000000
,  // measure 12
00000102
00000000
00000013
00000000
00000100
00001000
00000010
00000000
,  // measure 13
00000200
00002300
00203000
00320000
,  // measure 14
00032000
00000000
00000100
00003100
,  // measure 15
00012000
00000000
00103000
00000000
00010000
10000000
00100000
00000000
,  // measure 16
00012000
00000000
00103000
00000000
00010000
10000000
00100000
00000000
,  // measure 17
02000000
00010000
03200000
00320000
,  // measure 18
00030200
00000000
00000000
00000000
00000010
00000000
00000000
00000000
00001300
00000000
00000001
00001000
00000001
00001000
00000010
00001000
,  // measure 19
00000100
00000000
00001000
00000000
00000010
00000000
00001000
00000000
00000100
00000000
00000010
00000100
00000010
00000000
00000000
00000000
,  // measure 20
00000100
00000000
00001000
00000000
00000010
00000000
00001000
00000000
00000100
00000000
00000010
00000100
00000010
00000000
00000000
00000000
,  // measure 21
00000001
00000100
00000000
00000000
00000100
00001000
00000000
00000000
00001000
00100000
00000000
00000000
00100000
01000000
00000000
00000000
,  // measure 22
21000000
00000000
00000000
00100000
30100000
00000000
00000000
00000000
,  // measure 23
10020000
00000000
00031000
00000000
,  // measure 24
02000000
00000000
00000000
00100000
03100000
00000000
00000000
00000000
,  // measure 25
00002001
00000000
00013000
00000000
,  // measure 26
00000200
00000000
00000000
00000010
00000310
00000000
00000000
00000000
,  // measure 27
00000001
00000000
00000010
00000000
00000100
00000000
00001000
00000010
00001000
00000000
00000100
00000000
00000010
00000000
00000000
00000000
,  // measure 28
00000001
00000000
00001000
00000000
00000100
00000000
00010000
00000100
00010000
00000000
00001000
00000000
00100000
00000000
00010000
00000000
,  // measure 29
00002000
00000000
00010000
00000000
00000100
00000000
00003100
00000020
,  // measure 30
00000100
00000000
00000000
00000000
00001000
00000000
00000000
00000000
00000100
00000030
00001000
00000000
00000100
00001000
00000100
00010000
,  // measure 31
00001000
00010000
00100000
10000000
00100000
00010000
00001000
00000100
,  // measure 32
00000001
00000010
00000100
00000010
00000001
00000100
00001000
00010000
,  // measure 33
00001000
00000000
00000000
00010000
00100000
00000000
10000000
00000000
00100000
00000000
10000000
00000000
10100000
00000000
00000000
00000000
,  // measure 34
01000000
00000000
00000000
00100000
00001000
00000000
00100000
00000000
00010000
00000000
00100000
00000000
00101000
00000000
00000000
00000000
,  // measure 35
00001000
00000000
00000000
00010000
00000100
00000000
00010000
00000000
00001000
00000000
00000000
00000000
00001010
00000000
00000000
00000000
,  // measure 36
00000101
00000000
00000000
00000110
00000000
00000000
00001000
00000000
00001001
00000000
00000000
00000000
00000110
00000000
00000000
00000000
,  // measure 37
00000001
00000000
00000000
00000100
00001000
00000000
00010000
00000000
00100000
00000000
01000000
00000000
00010000
00000000
00100000
00000000
,  // measure 38
11000000
00000000
00000000
00100000
00000000
00000000
01000000
00000000
00110000
00000000
00000000
00001000
00000000
00000000
00010000
00000000
,  // measure 39
00000100
00010000
00000100
00000000
00010000
00000000
00000010
00010000
00000010
00000000
00010000
00000000
00000100
00010000
00001000
00000000
,  // measure 40
01000000
00001000
01000000
00000000
00001000
00000000
00100000
00001000
00100000
00000000
00001000
00000000
01000000
00001000
00010000
00001000
,  // measure 41
00020000
00000000
00000000
00000000
,  // measure 42
00032000
00000000
01000000
00000000
01003000
00100000
01100000
00000000
,  // measure 43
00001000
00010000
00100000
10000000
01000000
00100000
01000000
10000000
,  // measure 44
00100000
00010000
00000100
00010000
00001000
00010000
00000100
00000010
,  // measure 45
00000001
00001000
00000100
00000001
00000100
00001000
00000010
00000100
,  // measure 46
00000002
00000000
00000000
00000010
00000000
00000000
00000100
00000000
00002003
00000000
00000000
00000100
00000000
00000000
00000010
00000000
,  // measure 47
00003001
00000100
00001000
00000100
00000010
00001000
00000100
00000010
,  // measure 48
00001000
00010000
00100000
00010000
00001000
00100000
00010000
10000000
,  // measure 49
02000000
00000000
00000000
00100000
00000000
00000000
10000000
00000000
03200000
00000000
00000000
00010000
00000000
00000000
01000000
00000000
,  // measure 50
00310000
00000000
10000000
00000000
00100000
00000000
01000000
00000000
00010000
00000000
00100000
00000000
00010000
00100000
00001000
00100000
,  // measure 51
00001000
00000000
00010000
00000000
00000100
00000000
00000010
00000100
00000010
00000000
00000100
00000000
00000010
00000000
00000000
00000000
,  // measure 52
00000100
00000000
00001000
00000000
00010000
00000000
00100000
01000000
00100000
00000000
01000000
00000000
00100000
00000000
00100000
00000000
,  // measure 53
00001000
00000000
00010000
00000000
00000100
00000000
00000010
00000001
00000010
00000000
00000100
00000000
00000010
00000000
00000000
00000000
,  // measure 54
00010000
00000000
00001000
00000000
00100000
00000000
01000000
10000000
01000000
00000000
00100000
00000000
01000000
00000000
01000000
00000000
,  // measure 55
10000000
00100000
10000000
00100000
01000000
00010000
01000000
00010000
00100000
00001000
00100000
00001000
00010000
00000100
00010000
00000100
,  // measure 56
00001000
00000000
00000001
00000000
00000010
00000000
00000100
00001000
00000010
00000000
00000100
00000000
00001000
00000000
00100000
00000000
,  // measure 57
00020000
00000000
00100000
00000000
,  // measure 58
00032000
00000010
00023000
01030000
,  // measure 59
00100000
00000000
00000000
10000000
00000000
00000000
01000000
00000000
01000000
00000000
00000000
00000000
11000000
00000000
00000000
00000000
,  // measure 60
00100000
00000000
00000000
00001000
00000000
00000000
00010000
00000000
00001000
00000000
00000000
00000000
00000000
00000000
00000000
00000000
,  // measure 61
00010000
00000000
00000000
00001000
00000000
00000000
00100000
00000000
00010000
00000000
00000000
00000000
00010000
00000000
00000000
00000000
,  // measure 62
00001000
00000000
00000000
00000100
00000000
00000000
00010000
00000000
00010100
00000000
00000000
00000000
00000000
00000000
00000000
00000000
,  // measure 63
00000001
00000000
00000000
00000100
00000010
00000000
00000100
00000000
00000010
00000000
00001000
00000000
00001001
00000000
00000000
00000000
,  // measure 64
00000100
00000000
00000000
00000010
00000100
00000000
00010000
00000000
00001000
00000000
00010000
00000000
00011000
00000000
00000000
00000000
,  // measure 65
00110000
00000000
00000000
01000000
00000000
00000000
10000000
00000000
10100000
00000000
00000000
00000000
10010000
00000000
00000000
00000000
,  // measure 66
01020000
00000000
00000000
01030000
,  // measure 67
10010000
00110000
00011000
00010010
,  // measure 68
00001001
00000011
00001010
00011000
,  // measure 69
00110000
00011000
00001010
00011000
,  // measure 70
10010000
00011000
00001001
00011000
,  // measure 71
01010000
00011000
00001100
00011000
,  // measure 72
00110000
00000000
10100000
00000000
11000000
00000000
01010000
00000000
00011000
00000000
00001100
00000000
,  // measure 73
00000001
00000100
00000001
00000000
00001000
00000000
00000001
00000100
00000001
00000000
00001000
00000000
00000001
00000100
00000010
00000000
,  // measure 74
00010000
00000100
00010000
00000000
00001000
00000000
00010000
00000100
00010000
00000000
00001000
00000000
00010000
00001000
00100000
00010000
,  // measure 75
02000000
00000000
03200000
00000000
,  // measure 76
20300000
01000000
30020000
00100000
,  // measure 77
10030000
00100000
00010000
00000100
00010000
00001000
00010000
00000010
,  // measure 78
00000100
00000001
00000010
00000000
00000001
00000100
00000010
00000000
,  // measure 79
00000020
00000000
00000000
00000130
00001000
00000000
00000100
00000000
00001000
00000000
00000000
00000000
00100000
00000000
00000000
00000000
,  // measure 80
00001000
00100000
00001000
00010000
00001000
00000000
00000000
00100000
01000000
00000000
00100000
00000000
00010000
00000000
00001000
00000000
,  // measure 81
00000200
00000000
00000000
00000000
00000000
00000000
00000010
00000000
00000000
00000000
00000000
00000000
00000010
00000000
00000000
00000000
00000000
00000000
00000000
00000010
00000000
00000000
00000000
00000000
00000000
00000000
00000010
00000000
00000000
00000000
00000000
00000000
,  // measure 82
00000000
00000000
00000010
00000000
00000000
00000000
00000000
00000000
00000000
00000000
00000010
00000000
00000000
00000000
00000000
00000000
00000000
00000000
00000000
00000010
00000000
00000000
00000000
00000000
00000000
00000000
00000000
00000000
00000000
00000000
00000000
00000000
,  // measure 83
00020300
00000000
00032000
00000000
,  // measure 84
00023000
00000000
00032000
00000000
,  // measure 85
00103000
00000000
00000000
00000000
;
