#TITLE:Mario Paint;
#SUBTITLE:(Time Regression Mix for BMS);
#ARTIST:ueotan;
#TITLETRANSLIT:;
#SUBTITLETRANSLIT:;
#ARTISTTRANSLIT:;
#GENRE:;
#CREDIT:;
#BANNER:Mario Paint (Time Regression Mix for BMS)-bn.png;
#BACKGROUND:Mario Paint (Time Regression Mix for BMS)-bg.png;
#LYRICSPATH:;
#CDTITLE:;
#MUSIC:Mario Paint (Time Regression Mix for BMS).mp3;
#OFFSET:-0.040000;
#SAMPLESTART:38.162994;
#SAMPLELENGTH:15.000000;
#SELECTABLE:YES;
#BPMS:0.000000=155.000000
;
#STOPS:
;
#BGCHANGES:;
#KEYSOUNDS:;
#ATTACKS:;

//---------------dance-single - ----------------
#NOTES:
     dance-single:
     :
     Beginner:
     4:
     0.226294,0.278677,0.176006,0.000000,0.000000,162.000000,144.000000,18.000000,0.000000,0.000000,0.000000,0.226294,0.278677,0.176006,0.000000,0.000000,162.000000,144.000000,18.000000,0.000000,0.000000,0.000000:
0000
0000
0000
0000
,
1000
0000
0001
0000
,
1000
0000
0001
0000
,
0100
0100
0000
0010
,
0100
0000
0100
0000
,
1001
0000
1001
0000
,
1001
0000
1001
0000
,
0110
0000
0110
0000
,
1001
0000
0110
0000
,
0001
0000
0010
0000
,
0100
0000
1000
0000
,
0010
0000
0100
0000
,
0001
0000
1000
0001
,
1000
0000
0010
0000
,
0100
0000
0001
0000
,
0010
0000
0001
0000
,
1000
0000
0001
0100
,
0010
0000
0010
0000
,
0100
0000
0100
0000
,
0001
1000
0000
1000
,
0001
0001
0000
1000
,
0010
0100
0000
0100
,
0000
0010
0000
0010
,
1000
0000
0001
0000
,
0100
0100
0010
1000
,
1001
0000
1001
0000
,
1001
0000
0001
0010
,
0100
0100
0010
0010
,
0001
1000
0001
0000
,
1010
0000
0101
0000
,
1010
0000
0001
0000
,
0001
0010
0100
1000
,
0001
0000
0001
0000
,
1000
0100
0010
0001
,
1000
0000
1000
0000
,
0010
0000
0100
0000
,
0010
0000
1000
0000
,
0001
1000
0000
1000
,
0001
0001
0000
0100
,
0010
0000
0010
0000
,
1000
0000
1000
0000
,
0001
0000
1000
0000
,
0001
0001
0100
0000
,
0110
0000
0110
0000
,
0110
0000
0001
1000
,
0010
0000
0010
0000
,
1000
1000
0001
1000
,
0010
0000
0100
0000
,
0010
0000
0100
0001
,
0010
0100
1000
0001
,
0100
0000
0100
0000
,
0001
0010
0100
1000
,
0001
0000
0001
0000
,
1000
0010
0100
0001
,
1000
0000
1000
0000
,
0001
0010
0100
1000
,
0001
0000
1000
0000
,
1001
0000
0000
0000
;

//---------------dance-single - ----------------
#NOTES:
     dance-single:
     :
     Easy:
     10:
     0.511257,0.501618,0.645357,0.000000,0.000000,366.000000,300.000000,66.000000,0.000000,0.000000,0.000000,0.511257,0.501618,0.645357,0.000000,0.000000,366.000000,300.000000,66.000000,0.000000,0.000000,0.000000:
0000
0000
0000
0000
,
0001
1000
0001
1000
,
0010
0100
0010
0100
,
0001
0000
1000
0001
0000
0000
1000
0000
,
1001
1001
0000
0001
,
0101
0100
0101
0001
,
0101
0000
0100
0000
0101
0000
0010
1000
,
0010
1000
1010
1000
,
1001
0110
1001
0000
,
0001
0100
0010
1000
,
0100
0010
0100
0010
0000
0001
0100
0010
,
1000
0001
1000
0001
0000
0100
0010
1000
,
0001
0010
0001
0010
0000
0100
1000
0100
,
1000
0010
0100
0001
,
1000
0010
0100
0001
0000
0010
0100
0010
,
0001
1000
0001
0100
0000
0010
1000
0010
,
0100
0001
0010
0001
0000
1000
0001
0100
,
0010
1001
0110
1001
,
0011
1100
0011
1100
,
1001
0000
0010
0100
0000
0001
0100
0000
,
1010
0000
0101
0000
0010
1000
0100
0000
,
1001
0011
1001
1100
,
1001
0011
1001
1100
,
1001
0110
1001
0110
,
0001
1000
0001
1000
0001
0000
0100
0010
,
1000
0000
0010
0100
0001
0000
0100
0010
,
1000
0000
0010
0100
0001
0010
0100
1000
,
0010
0000
0010
0100
0001
0000
0001
0010
,
0100
0000
1100
0000
0010
0000
0100
0001
,
1000
0000
0010
0100
0001
0000
1000
0010
,
0100
0000
0001
0010
0100
1000
0000
1000
,
0010
0010
0100
0001
0010
0010
0100
1000
,
0001
1001
1000
1001
,
0100
0100
0010
1000
0001
0001
0010
0100
,
1000
0100
0010
0001
,
0101
1001
1010
1001
,
0101
0011
0110
1100
,
1001
0000
1000
0001
0000
0001
1000
0000
,
1010
0000
0101
0000
0001
0010
0100
0000
,
1100
0101
1100
0101
,
1100
0101
0011
0101
,
1010
0101
0011
1100
,
0001
1000
0001
1000
0001
0000
0100
0010
,
1000
0000
0010
0100
0001
0000
0100
0010
,
1000
0000
0010
0100
0001
0010
0100
1000
,
0010
0000
0010
0100
0001
0000
0001
0010
,
0100
0000
1100
0000
0100
0000
0010
0001
,
0100
0000
0010
1000
0100
0000
0010
0001
,
0100
0000
0010
1000
0001
0100
0000
0100
,
0010
1000
0010
0100
0001
0010
0100
1000
,
0001
1001
1000
1001
,
0001
0100
0010
1000
0100
0010
0001
0100
,
0010
0110
0100
0110
,
0010
1000
0100
0010
0001
0100
0010
1000
,
0100
0110
0010
0011
,
0001
1000
0100
0010
0001
1000
0100
0010
,
0001
1000
0010
0100
,
1001
0000
0000
0000
;

//---------------dance-single - ----------------
#NOTES:
     dance-single:
     :
     Medium:
     12:
     0.634182,0.557354,0.576910,0.000000,0.034223,454.000000,395.000000,59.000000,0.000000,0.000000,0.000000,0.634182,0.557354,0.576910,0.000000,0.034223,454.000000,395.000000,59.000000,0.000000,0.000000,0.000000:
0000
0000
0000
0000
,
1000
0010
0100
0010
0001
0010
1000
0010
,
0001
0010
1000
0010
0001
0010
1000
0010
,
0001
0010
0100
0001
0100
0001
0010
0100
,
1100
0000
0101
0000
0000
0000
0010
1000
,
0100
0110
0001
0011
,
1000
0000
1100
0000
0001
0000
0100
0010
,
0100
1001
0001
0011
,
1100
0000
0000
0000
0101
0000
0000
0001
1000
0000
0001
0000
0000
0000
0000
0000
,
1000
0100
0010
0001
0100
0010
1000
0001
,
0010
0100
1000
0001
0100
0001
0010
0100
,
1000
0001
0100
0010
0100
0001
1000
0010
,
0100
0000
0001
0000
1000
0000
0001
0000
0010
0000
0100
0000
1000
0000
0001
1000
,
0001
0100
0010
1000
0001
0100
0001
1000
,
0010
0100
0001
0010
0001
1000
0100
1000
,
0010
0100
0010
1000
0001
0100
0010
1000
,
0100
0000
0010
0000
0100
0000
0010
0000
0001
0000
0100
0000
0010
0000
1000
0001
,
1000
0010
0100
0001
1000
0010
0100
0001
,
0010
0100
1000
0001
0010
0100
1000
0001
,
0100
0010
1000
0010
0100
0001
0010
0100
,
1000
0001
0100
0001
1000
0100
1000
0001
,
0001
1000
0010
0100
0001
1000
0010
0100
,
0001
1000
0010
0100
0001
0010
0100
1000
,
0010
1000
0010
0100
0001
0010
0100
1000
,
0001
0000
1000
0000
0001
0000
1000
0001
1000
0000
0010
0000
0100
0000
0001
0000
,
1001
0000
0100
0001
1001
0000
0100
0001
,
1001
0000
0100
0001
1001
0010
0100
1000
,
1001
0000
0100
1000
1001
0000
0100
1000
,
1001
0000
0000
0000
0110
0000
0000
0000
1001
0000
0010
0000
0100
0000
1000
0001
,
0100
0000
0010
0100
1001
0000
0010
0100
,
1001
0000
0010
0100
1001
0010
0000
0010
,
1000
0100
0010
0001
0010
0100
1000
0001
,
1001
0000
0110
0000
1001
0000
0110
0001
,
0010
0100
1000
0100
0010
0001
0010
0100
,
1001
0110
1001
0110
,
0001
0100
0010
1000
0001
0010
0100
1000
,
0001
0100
0001
1000
0010
0100
0001
0010
,
0100
1000
0010
1000
0001
0100
0010
1000
,
0001
0010
0100
1000
0001
0100
0010
1000
,
1000
0100
0010
0100
1000
0010
0100
0010
,
1000
0100
0010
0001
0100
0010
0100
0001
,
0010
0100
1000
0001
0100
0010
1000
0100
,
0010
0000
0001
0000
0010
0000
0001
0010
0001
0000
0010
0000
0001
0000
0100
0000
,
1001
0000
0001
0100
1001
0000
0001
0100
,
1001
0000
0001
0100
1001
0010
0100
0001
,
1001
0000
0100
0001
1001
0000
0100
0001
,
1001
0000
0000
0000
1010
0000
0000
0000
0101
0000
0001
1000
0100
0000
0010
0000
,
1100
0000
0100
0010
1100
0000
0100
0010
,
1100
0000
0100
0010
1100
1000
0000
1000
,
0001
0100
0010
1000
0001
0100
0010
1000
,
1001
0000
0011
0000
1001
0000
1100
0001
,
0010
0100
1000
0001
0100
0010
1000
0001
,
1001
0000
0110
0000
1001
0000
0110
0001
,
1000
0010
0100
0001
1000
0010
0100
0001
,
0011
0000
1100
0000
0011
0000
1100
0001
,
0100
0010
1000
0100
0010
0001
0100
0010
,
1010
0101
1001
0110
,
1001
0000
0000
0000
;

//---------------dance-single - ----------------
#NOTES:
     dance-single:
     :
     Hard:
     16:
     1.050451,0.947501,0.244453,0.000000,1.598725,752.000000,727.000000,25.000000,0.000000,0.000000,0.000000,1.050451,0.947501,0.244453,0.000000,1.598725,752.000000,727.000000,25.000000,0.000000,0.000000,0.000000:
0000
0000
0000
0000
,
1000
0010
0001
0010
1000
0010
0100
0010
,
1000
0010
0001
0010
1000
0010
0100
0010
,
1000
0001
1000
0001
0000
0010
0100
1000
,
1001
0000
0000
0000
0000
0000
0000
0000
0000
0000
0000
0000
1001
0000
0000
0000
0000
0000
0000
0000
0000
0000
0000
0000
1000
0000
0000
0000
0000
0000
0100
0000
0000
0010
0000
0000
0001
0000
0000
0000
0000
0000
1000
0000
0001
0000
1000
0000
,
0001
1001
1000
1001
,
0001
0000
1001
0000
1000
0000
1001
0001
,
0100
1001
1000
1001
,
1001
0000
0000
0000
0110
0000
0000
0100
1001
0000
1001
0000
0000
0000
0000
0000
,
0001
0100
0010
1000
0001
0100
0010
1000
0100
1000
0010
0100
0001
0010
0001
0010
,
0100
1000
0001
0100
0010
1000
0001
0100
0001
0010
0100
1000
0001
0100
0010
1000
,
0001
0100
0001
0100
0010
1000
0010
0100
0001
0010
0100
1000
0001
0100
0010
1000
,
0010
0000
0000
0100
0000
0000
0001
0000
0000
0100
0000
0000
0001
0000
0000
0010
0000
0000
0100
0000
0000
1000
0000
0000
0001
0000
0000
0100
0000
0000
0010
0000
0000
1000
0000
0000
0100
0000
0000
0010
0000
0000
0001
0000
1000
0000
0001
0000
,
1000
0001
0100
0010
1000
0001
0100
0010
1000
0100
1000
0010
0100
0001
1000
0010
,
0100
0001
0010
0100
1000
0010
0100
0001
1000
0010
1000
0100
0010
0001
1000
0010
,
0100
0001
0100
0010
1000
0010
1000
0100
0010
0001
1000
0010
0100
0001
0010
0100
,
1000
0000
0000
0001
0000
0000
0010
0000
0000
0001
0000
0000
1000
0000
0000
0001
0000
0000
0100
0000
0000
0010
0000
0000
1000
0000
0000
0001
0000
0000
0010
0000
0000
0100
0000
0000
1000
0000
0000
0001
0000
0000
0100
0000
0010
0000
0100
0000
,
0010
1000
0001
1000
0010
0100
0001
0010
0001
0100
0010
1000
0001
0100
0001
1000
,
0010
0100
0001
0010
0100
1000
0001
0100
0010
1000
0001
0010
0100
1000
0001
0100
,
0010
1000
0010
0100
0010
0100
0001
0010
0100
0010
0001
1000
0100
1000
0010
0100
,
0001
0010
0001
0100
0010
1000
0010
0100
0001
0010
0100
1000
0001
0100
0010
1000
,
0001
1000
0001
0010
0100
1000
0001
0100
0010
0100
0010
1000
0100
0010
0001
0100
,
0010
0100
0010
1000
0100
0010
0001
0100
0010
1000
0010
0100
0001
0010
0100
1000
,
0001
0100
0001
0010
0100
1000
0001
0100
0010
1000
0010
0100
0001
0010
0100
1000
,
0001
1000
0001
1000
0001
1000
0001
1000
0001
1000
0001
1000
0001
0100
0010
1000
,
0010
0000
0000
0000
0001
0100
0010
1000
0010
0000
0000
0000
0001
0100
0010
1000
,
0010
0000
0000
0000
0001
0100
0010
1000
0010
0100
0001
0010
0100
1000
0001
0100
,
0010
0100
0010
1000
0001
0010
0100
1000
0001
1000
0001
0100
0010
1000
0001
0010
,
0100
1000
0100
0010
0001
0100
0010
1000
0010
0100
0001
0010
0100
1000
0001
1000
,
0010
0000
0000
0000
0100
1000
0001
1000
0010
0000
0000
0000
0100
1000
0001
1000
,
0010
0000
0000
0000
0100
1000
0001
1000
0010
0000
0100
0001
0000
0010
0100
1000
,
0010
0100
0001
1000
0001
0100
0010
1000
0001
0100
0001
0010
0100
1000
0001
1000
,
1010
0000
0000
0000
0101
0000
0000
0000
1001
0000
0000
0000
0001
0010
0100
1000
,
0001
0100
0010
0100
0001
1000
0100
0010
0001
0100
0010
0100
0010
1000
0100
0010
,
0011
1100
0101
1001
,
0010
1000
0010
0100
0001
0010
0100
1000
0001
0100
0001
1000
0010
0100
0001
0010
,
0100
1000
0100
1000
0010
0100
0001
1000
0010
0100
0001
0010
0100
0010
0001
1000
,
0010
0100
0010
0100
0001
1000
0010
0100
0001
0100
0001
0010
0100
1000
0001
0100
,
0010
1000
0001
0010
0100
1000
0001
0100
0010
1000
0100
0010
0001
0100
0010
0100
,
0001
1000
0001
1000
0100
1000
0010
0100
0001
1000
0001
0100
0010
1000
0001
0010
,
0100
1000
0100
0010
0001
1000
0010
0100
0001
0100
0001
0010
0100
1000
0001
0100
,
0010
1000
0010
0100
0001
0010
0100
1000
0001
1000
0001
0100
0010
1000
0100
0010
,
0001
1000
0001
1000
0001
1000
0001
1000
0001
1000
0001
1000
0010
0100
0001
1000
,
0010
0000
0000
0000
0010
0100
0001
1000
0010
0000
0000
0000
0010
0100
0001
1000
,
0010
0000
0000
0000
0010
0100
0001
1000
0010
0100
0001
0010
0100
1000
0001
0100
,
0010
0100
0010
1000
0001
1000
0100
0010
0001
0100
0001
0010
0100
1000
0001
0100
,
0010
1000
0001
0100
0010
1000
0001
0010
0100
1000
0100
0010
0001
0100
0010
1000
,
0001
0000
0000
0000
0001
0100
0010
1000
0001
0000
0000
0000
0001
0100
0010
1000
,
0001
0000
0000
0000
0001
0100
0010
1000
0001
0100
0010
1000
0000
0000
1000
0010
,
1000
0100
0010
0001
0100
0010
1000
0100
0010
0001
0100
0010
1000
0100
0010
0001
,
1000
0000
0000
0000
1001
0000
0000
0000
0001
0000
0000
0000
1000
0010
0100
0001
,
0010
0100
1000
0001
0100
0010
1000
0100
0010
0001
1000
0001
0100
0010
1000
0001
,
0100
0000
0000
0000
0101
0000
0000
0001
1000
0000
0000
0100
0000
0010
0001
1000
,
0010
0100
0001
1000
0001
0100
0010
0100
0001
0010
0100
1000
0001
0100
0001
1000
,
0010
0000
0100
0000
0001
0000
1000
0000
0100
0000
0010
0000
0001
0000
1000
0010
,
0100
0001
1000
0010
0100
0001
0010
0100
1000
0001
0100
0010
1000
0100
0010
0001
,
0011
0000
0000
0000
0000
0000
0101
0000
0000
0000
0000
0000
1001
0000
0000
0000
0000
0000
0110
0000
0000
0010
1000
0001
,
0100
0000
0000
0000
;

//---------------dance-single - ----------------
#NOTES:
     dance-single:
     :
     Challenge:
     20:
     1.517008,1.393384,0.283566,0.000000,3.207228,1086.000000,1057.000000,29.000000,0.000000,0.000000,0.000000,1.517008,1.393384,0.283566,0.000000,3.207228,1086.000000,1057.000000,29.000000,0.000000,0.000000,0.000000:
0000
0000
0000
0000
,
1000
0010
0001
0010
1000
0010
0100
0010
,
1000
0010
0001
0010
1000
0010
0100
0010
,
1000
0001
1000
0001
0000
0010
0100
1000
,
1001
0000
0000
0000
0000
0000
0000
0000
1001
0000
0000
0000
0000
0000
0000
0000
1000
0000
0000
0000
0100
0000
0010
0000
0001
0000
0000
0000
1000
0001
1000
0001
,
1000
1001
1000
1001
,
0001
0000
1001
0000
1000
0000
1001
0001
,
0100
1001
1000
1001
,
1001
0000
0000
0000
0110
0000
0000
1001
1001
0000
1001
0000
0000
0000
0000
0000
,
0001
0010
0001
0010
0001
0010
0001
1000
0001
1000
0001
1000
0010
1000
0010
1000
0010
1000
0010
0100
0010
0100
0010
0100
,
0001
1000
0010
0100
0001
0010
0001
0100
0010
1000
0010
1000
0010
1000
0001
0100
0010
1000
0100
0010
0001
0010
0001
1000
,
0010
1000
0001
0100
0001
1000
0010
1000
0001
0100
0010
0100
0010
0100
0010
1000
0001
0100
0010
1000
0010
0100
0010
1000
,
0001
0000
0000
0000
0000
0000
0000
0000
0100
0000
0000
0000
0000
0000
0000
0000
0001
0000
0000
0000
0000
0000
0000
0000
0100
0000
0000
0000
0000
0000
0000
0000
0010
0000
0000
0000
0000
0000
0000
0000
1000
0000
0000
0000
0000
0000
0000
0000
0010
0000
0000
0000
0000
0000
0000
0000
1000
0000
0000
0000
0000
0000
0000
0000
0010
0000
0000
0000
0000
0000
0000
0000
0100
0000
0000
0000
0000
0000
0000
0000
0001
0000
0000
0000
0000
0000
0000
0000
0100
0000
0000
0000
0000
0000
0000
0000
0001
0000
0000
0000
0000
0000
0000
0000
1000
0000
0000
0000
0000
0000
0000
0000
0010
0000
0000
0000
0000
0000
0000
0000
1000
0000
0000
0000
0000
0000
0000
0000
0001
0000
0000
0000
0000
0000
0000
0000
0100
0000
0000
0000
0000
0000
0000
0000
0010
0000
0000
0000
0000
0000
0000
0000
1000
0000
0000
0000
0000
0000
0000
0000
0001
0000
0000
0000
0000
0000
0000
0000
0010
0000
0000
0000
0000
0000
0001
0000
0000
0000
0000
0000
0010
0000
0000
0000
0000
0000
0001
0000
0000
0000
0000
0000
,
0100
0001
1000
0001
1000
0001
1000
0010
1000
0010
1000
0010
0100
0010
0100
0010
0100
0010
0100
0001
0100
0001
0100
0001
,
1000
0100
0010
0001
0010
0100
1000
0001
1000
0010
0100
0010
1000
0010
1000
0001
0100
0001
0010
0100
1000
0100
0010
0001
,
0100
0001
1000
0001
0100
0010
1000
0010
0100
0001
0010
0001
0010
0001
0010
0100
1000
0010
1000
0100
0010
0100
1000
0001
,
0010
0000
0000
0000
0000
0000
0000
0000
0001
0000
0000
0000
0000
0000
0000
0000
0100
0000
0000
0000
0000
0000
0000
0000
0010
0000
0000
0000
0000
0000
0000
0000
1000
0000
0000
0000
0000
0000
0000
0000
0001
0000
0000
0000
0000
0000
0000
0000
0010
0000
0000
0000
0000
0000
0000
0000
0001
0000
0000
0000
0000
0000
0000
0000
0100
0000
0000
0000
0000
0000
0000
0000
0010
0000
0000
0000
0000
0000
0000
0000
0100
0000
0000
0000
0000
0000
0000
0000
0010
0000
0000
0000
0000
0000
0000
0000
1000
0000
0000
0000
0000
0000
0000
0000
0010
0000
0000
0000
0000
0000
0000
0000
0100
0000
0000
0000
0000
0000
0000
0000
0001
0000
0000
0000
0000
0000
0000
0000
0010
0000
0000
0000
0000
0000
0000
0000
0100
0000
0000
0000
0000
0000
0000
0000
1000
0000
0000
0000
0000
0000
0000
0000
0001
0000
0000
0000
0000
0000
0000
0000
0010
0000
0000
0000
0000
0000
0000
0000
0100
0000
0000
0000
0000
0000
1000
0000
0000
0000
0000
0000
0001
0000
0000
0000
0000
0000
1000
0000
0000
0000
0000
0000
,
0001
0010
0100
1000
0100
0010
0001
1000
0100
0010
0001
1000
0001
0010
0100
1000
0001
0010
0001
1000
0100
0010
0001
1000
,
0010
0100
0001
0100
0001
1000
0010
1000
0001
0100
0001
0100
0010
0100
0001
0010
0100
1000
0010
0100
0010
0100
0001
1000
,
0001
0010
0100
0010
0001
0010
0001
1000
0010
0100
0010
1000
0001
0010
0001
1000
0001
1000
0010
0100
0010
1000
0001
1000
,
0100
0010
0001
0010
0100
1000
0001
0010
0100
1000
0100
0010
0001
1000
0010
0100
0001
0010
0100
1000
0100
1000
0001
0100
,
0010
0100
0010
1000
0001
0100
0010
0100
0001
0100
0001
1000
0010
0100
0001
0100
0010
0100
0010
1000
0010
0100
0001
1000
,
0010
1000
0001
0100
0001
0100
0010
0100
0001
0010
0001
1000
0010
1000
0010
0100
0001
0100
0010
1000
0001
0010
0100
1000
,
0100
0010
0100
0010
0001
0100
0010
0100
0001
0010
0100
1000
0100
0010
0001
1000
0010
0100
0010
0100
0001
0010
0001
1000
,
0010
0100
0010
0100
0010
0100
0010
0100
0010
0100
0010
0100
0010
0100
0010
0100
0010
0100
0010
1000
0100
0010
0001
0100
,
0010
0100
0000
0000
0000
0000
0010
1000
0100
0010
0001
0100
0010
0100
0000
0000
0000
0000
0010
1000
0100
0010
0001
0100
,
0010
0100
0000
0000
0000
0000
0010
1000
0100
0010
0001
0100
0010
0100
0001
1000
0010
0100
0001
0010
0100
1000
0100
1000
,
0001
0010
0001
0010
0001
0010
0100
1000
0010
1000
0100
1000
0001
0100
0001
0100
0001
0100
0010
1000
0100
1000
0010
1000
,
0001
0000
0000
0000
0000
0000
0000
0000
0010
0000
0000
0000
0000
0000
0000
0000
0100
0000
0000
0000
0000
0000
0000
0000
1000
0000
0000
0000
0000
0000
0000
0000
0001
0000
0000
0000
0000
0000
0000
0000
0010
0000
0000
0000
0000
0000
0000
0000
0001
0000
0000
0000
0000
0000
0000
0000
1000
0000
0000
0000
0000
0000
0000
0000
0100
0000
0000
0000
0000
0000
0000
0000
0010
0000
0000
0000
0000
0000
0000
0000
0001
0000
0000
0000
0000
0000
0000
0000
1000
0000
0000
0000
0000
0000
0000
0000
0001
0000
0000
0000
0000
0000
0000
0000
0010
0000
0000
0000
0000
0000
0000
0000
0100
0000
0000
0000
0000
0000
0000
0000
1000
0000
0000
0000
0000
0000
0000
0000
0001
0000
0000
0000
0000
0000
0000
0000
0010
0000
0000
0000
0000
0000
0000
0000
0001
0000
0000
0000
0000
0000
0000
0000
1000
0000
0000
0000
0000
0000
0000
0000
0100
0000
0000
0000
0000
0000
0000
0000
0010
0000
0000
0000
0000
0000
0001
0000
0000
0000
0000
0000
1000
0000
0000
0000
0000
0000
0100
0000
0000
0000
0000
0000
,
0010
0000
0000
0000
0000
0000
0001
1000
0100
0010
0001
0010
0100
1000
0000
0000
0000
0000
0001
1000
0100
0010
0001
0010
,
0100
0000
0000
0000
0000
0000
0000
0000
1000
0000
0000
0000
0000
0000
0000
0000
0000
0000
0000
0000
0000
0000
0000
0000
0000
0000
0000
0000
0000
0000
0000
0000
0000
0000
0000
0000
0000
0000
0000
0000
0000
0000
0000
0000
0000
0000
0000
0000
0001
0000
0000
0000
0000
0000
0000
0000
1000
0000
0000
0000
0000
0000
0000
0000
0100
0000
0000
0000
0000
0000
0000
0000
0010
0000
0000
0000
0000
0000
0000
0000
0001
0000
0000
0000
0000
0000
0000
0000
0010
0000
0000
0000
0000
0000
0000
0000
0100
0000
0000
0000
0000
0000
0000
0000
1000
0000
0000
0000
0000
0000
0000
0000
0000
0000
0000
0000
0000
0000
0000
0000
0000
0000
0000
0000
0000
0000
0000
0000
0000
0000
0000
0000
0001
0000
0000
0000
0000
0000
1000
0000
0000
0000
0000
0000
0000
0000
0000
0000
0000
0000
0000
0000
0000
0000
0000
0000
0000
0000
0000
0000
0000
0000
0000
0000
0000
0000
0000
0000
0010
0000
0000
0000
0000
0000
0000
0000
0100
0000
0000
0000
0000
0000
0000
0000
0010
0000
0000
0000
0000
0000
0000
0000
,
1000
0001
0100
0010
0100
0001
0010
0100
1000
0001
0100
0010
1000
0001
0010
0001
1000
0100
1000
0010
0100
0001
0010
0100
,
1100
0000
0000
0000
0000
0000
0101
0000
0000
0000
0000
0000
1100
0000
0000
0000
0000
0000
1000
0001
1000
0010
0100
0010
,
1000
0001
0100
0010
0100
0001
0010
0100
1000
0001
0100
0010
1000
0001
0010
0001
1000
0100
1000
0010
0100
0001
0010
0100
,
1100
0000
0000
0000
0000
0000
0000
0000
0001
0000
0010
0000
0001
0000
1000
0000
0001
0000
0000
0000
1000
0000
0100
0000
0010
0000
0000
0000
0001
1000
0001
1000
,
0001
0010
0100
1000
0001
0010
0001
1000
0100
0010
0001
1000
0100
1000
0001
0010
0100
1000
0001
0010
0001
1000
0100
0010
,
0001
1000
0010
1000
0010
0100
0001
0100
0001
0010
0001
0010
0001
1000
0010
1000
0010
0100
0001
1000
0001
0010
0001
0100
,
0010
1000
0010
1000
0010
1000
0001
0100
0010
0100
0001
0010
0001
0010
0001
0100
0010
1000
0001
1000
0001
0100
0010
1000
,
0001
0000
0010
0000
0100
0000
1000
0000
0100
0000
0010
0000
0001
0000
0010
0000
0100
0000
1000
0000
0100
0000
0010
0000
0001
0000
0010
0000
0000
0000
0001
0000
0000
0001
0000
0000
1000
0000
0000
0000
0000
0000
0001
0000
0000
0000
0000
0000
,
0001
0100
0010
1000
0010
0100
0001
0010
0001
1000
0001
0100
0010
1000
0010
0100
0001
0010
0001
0100
0010
1000
0001
1000
,
0010
0100
0001
0100
0001
0010
0001
1000
0010
1000
0100
0010
0001
0010
0100
1000
0001
1000
0001
0100
0010
1000
0001
0010
,
0001
0100
0001
1000
0001
0100
0010
0100
0001
0010
0001
1000
0010
1000
0010
0100
0001
0010
0001
0100
0001
1000
0100
1000
,
0001
0010
0001
0010
0001
0010
0001
0010
0001
0010
0001
0010
0001
0010
0001
0010
0001
0010
0001
0010
0100
1000
0100
1000
,
0001
0010
0000
0000
0000
0000
0001
0010
0100
1000
0100
1000
0001
0010
0000
0000
0000
0000
0001
0010
0100
1000
0100
1000
,
0001
0010
0000
0000
0000
0000
0001
0010
0100
1000
0100
1000
0001
0010
0100
1000
0010
0100
0001
0100
0010
1000
0100
1000
,
0001
0100
0001
0100
0001
0100
0010
1000
0010
0100
0010
1000
0001
0010
0001
0010
0001
0010
0100
1000
0100
0010
0100
1000
,
0010
0000
0000
0000
0000
0000
0000
0000
0100
0000
0000
0000
0000
0000
0000
0000
0001
0000
0000
0000
0000
0000
0000
0000
0100
0000
0000
0000
0000
0000
0000
0000
0010
0000
0000
0000
0000
0000
0000
0000
1000
0000
0000
0000
0000
0000
0000
0000
0100
0000
0000
0000
0000
0000
0000
0000
0010
0000
0000
0000
0000
0000
0000
0000
0001
0000
0000
0000
0000
0000
0000
0000
1000
0000
0000
0000
0000
0000
0000
0000
0010
0000
0000
0000
0000
0000
0000
0000
0100
0000
0000
0000
0000
0000
0000
0000
0010
0000
0000
0000
0000
0000
0000
0000
0100
0000
0000
0000
0000
0000
0000
0000
0001
0000
0000
0000
0000
0000
0000
0000
1000
0000
0000
0000
0000
0000
0000
0000
0010
0000
0000
0000
0000
0000
0000
0000
0100
0000
0000
0000
0000
0000
0000
0000
0001
0000
0000
0000
0000
0000
0000
0000
0010
0000
0000
0000
0000
0000
0000
0000
0100
0000
0000
0000
0000
0000
0000
0000
1000
0000
0000
0000
0000
0000
0001
0000
0000
0000
0000
0000
1000
0000
0000
0000
0000
0000
0001
0000
0000
0000
0000
0000
,
1000
0000
0000
0000
0000
0000
0001
1000
0100
0010
0001
0010
0100
1000
0000
0000
0000
0000
0001
1000
0100
0010
0001
0010
,
0100
0000
0000
0000
0000
0000
0000
0000
1000
0000
0000
0000
0000
0000
0000
0000
0000
0000
0000
0000
0000
0000
0000
0000
0000
0000
0000
0000
0000
0000
0000
0000
0000
0000
0000
0000
0000
0000
0000
0000
0000
0000
0000
0000
0000
0000
0000
0000
0001
0000
0000
0000
0000
0000
0000
0000
1000
0000
0000
0000
0000
0000
0000
0000
0100
0000
0000
0000
0000
0000
0000
0000
0010
0000
0000
0000
0000
0000
0000
0000
0001
0000
0000
0000
0000
0000
0000
0000
0010
0000
0000
0000
0000
0000
0000
0000
0100
0000
0000
0000
0000
0000
0000
0000
1000
0000
0000
0000
0000
0000
0000
0000
0000
0000
0000
0000
0000
0000
0000
0000
0000
0000
0000
0000
0000
0000
0000
0000
0000
0000
0000
0000
0001
0000
0000
0000
0000
0000
1000
0000
0000
0000
0000
0000
0000
0000
0000
0000
0000
0000
0000
0000
0000
0000
0000
0000
0000
0000
0000
0000
0000
0000
0000
0000
0000
0000
0000
0000
0010
0000
0000
0000
0000
0000
0000
0000
0100
0000
0000
0000
0000
0000
0000
0000
0010
0000
0000
0000
0000
0000
0000
0000
,
1000
0001
0100
0010
0100
0001
0010
0100
1000
0001
0100
0010
1000
0001
0010
0001
1000
0100
1000
0010
0100
0001
0010
0100
,
1100
0000
0000
0000
0000
0000
0101
0000
0000
0000
0000
0000
1100
0000
0000
0000
0000
0000
1000
0001
1000
0010
0100
0010
,
1000
0001
0100
0010
0100
0001
0010
0100
1000
0001
0100
0010
1000
0001
0010
0001
1000
0100
1000
0010
0100
0001
0010
0100
,
1100
0000
0000
0000
0000
0000
0000
0000
0000
0000
0000
0000
0101
0000
0000
0000
0000
0000
0000
0000
0000
0000
0000
0000
1100
0000
0000
0000
0000
0000
0001
0000
0000
0100
0000
0000
0010
0000
0000
0000
0000
0000
1000
0000
0001
0000
1000
0000
,
0001
0010
0100
1000
0001
0010
0001
1000
0100
0010
0001
1000
0100
1000
0001
0010
0100
1000
0001
0010
0001
1000
0100
0010
,
0011
0000
0000
0000
0000
0000
1100
0000
0000
0000
0000
0000
0011
0000
0000
0000
0000
0000
1000
0001
1000
0001
0100
0010
,
0100
0001
0010
0100
1000
0010
1000
0001
0010
0100
1000
0010
0100
0001
0010
0001
0100
0010
1000
0100
0010
0001
0010
0100
,
1100
0000
0000
0000
0000
0000
0000
0000
0101
0000
0000
0000
1000
0000
1000
0000
0001
0000
0000
0000
0000
0000
0000
0000
1001
0000
0000
0000
1000
0001
1000
0001
,
1000
0000
0000
0000
;

//---------------dance-double - ----------------
#NOTES:
     dance-double:
     :
     Easy:
     10:
     0.426047,0.445883,0.303122,0.000000,0.000000,305.000000,274.000000,31.000000,0.000000,0.000000,0.000000,0.426047,0.445883,0.303122,0.000000,0.000000,305.000000,274.000000,31.000000,0.000000,0.000000,0.000000:
00000000
00000000
00000000
00000000
,
00010000
00001000
00010000
00001000
,
00010000
00001000
00010000
00001000
,
00011000
00000000
00001000
00010000
00000000
00010000
00001000
00000000
,
00011000
00011000
00000000
00000000
,
01000000
00100000
01000000
00100000
,
01000000
00000000
00100000
00000000
01000000
00000000
00100000
00010000
,
00001000
00000100
00000010
00000100
,
00000010
00000000
00000010
00000000
00000100
00000100
00000000
00000000
,
00000001
00000010
00000100
00001000
,
00010000
00000000
00100000
00000000
01000000
00000000
10000000
01000000
,
00100000
00010000
00001000
00000100
,
00000010
00000000
00000001
00000000
00000010
00000000
00000100
00001000
,
00001000
00000010
00000100
00000001
,
00000100
00000010
00001000
00010000
,
01000000
00010000
10000000
00100000
,
01000000
00000000
00010000
00000000
00001000
00000000
00000010
00000100
,
00000100
00000101
00001000
00001010
,
00000001
00000101
00001000
00001010
,
00001001
00000000
00000001
00000010
00000000
00000010
00000100
00000000
,
00011000
00000000
00011000
00000000
00000000
00001000
00010000
00000000
,
00000100
00001000
00010000
00100000
,
00001000
00000000
00010000
00000000
00100000
00000000
10000000
01000000
,
00100000
00001000
00010000
00100000
,
01000000
00000000
01000000
00000000
00100000
00100000
10000000
00010000
,
01000000
00000000
00010000
10000000
00100000
00000000
10000000
00010000
,
01000000
00000000
00010000
10000000
00100000
01000000
00100000
00000000
,
00011000
00000010
00011000
01000000
,
00011000
00000000
00011000
00000000
00000000
00000000
00000100
00000010
,
00000001
00000000
00000100
00000010
00001000
00000000
00000100
00000010
,
00000001
00000000
00000100
00000010
00001000
00000000
00001001
00000000
,
00000001
00000010
00000100
00001000
00000010
00000100
00001000
00010000
,
00000100
00010100
00100000
00101000
,
00001000
00010000
00100000
01000000
00010000
00100000
01000000
10000000
,
00010000
10000000
01000000
00000000
,
10000000
01000000
00100000
00010000
,
00001000
00000000
00000100
00000000
00000010
00000000
00000001
00000010
,
00000100
00001000
00010000
00100000
,
11000000
00000000
11000000
00000000
00000000
10000000
01000000
00000000
,
10000000
00100000
00010000
00001000
,
00000100
00000000
00000001
00000000
00000100
00000000
00000010
00001000
,
00000100
00000000
00000010
00000000
00000100
00000000
00001000
00000010
,
00000100
00000000
00000100
00000000
00000010
00000010
00000001
00001000
,
00000010
00000000
00001000
00000001
00000100
00000000
00000001
00001000
,
00000010
00000000
00001000
00000001
00000100
00000010
00000100
00000000
,
00011000
01000000
00011000
00000010
,
00011000
00000000
00011000
00000000
00000000
00000000
00100000
01000000
,
10000000
00000000
00100000
01000000
00010000
00000000
00100000
01000000
,
10000000
00000000
00100000
01000000
00010000
00000000
10010000
00000000
,
10000000
01000000
00100000
00010000
01000000
00100000
00010000
00001000
,
00100000
00101000
00000100
00010100
,
00010000
00001000
00000100
00000010
00001000
00000100
00000010
00000001
,
00001000
00001100
00000010
00000011
,
00000001
00000010
00000100
00001000
00000010
00000100
00001000
00010000
,
00000100
00010100
00100000
00101000
,
00001000
00010000
00100000
01000000
00010000
00100000
01000000
10000000
,
00010000
01000000
00100000
01000000
,
10010000
00000000
00000000
00000000
;

//---------------dance-double - ----------------
#NOTES:
     dance-double:
     :
     Medium:
     12:
     0.541988,0.501618,0.606244,0.000000,0.039113,388.000000,326.000000,62.000000,0.000000,0.000000,0.000000,0.541988,0.501618,0.606244,0.000000,0.039113,388.000000,326.000000,62.000000,0.000000,0.000000,0.000000:
00000000
00000000
00000000
00000000
,
00010000
00001000
00010000
00000000
00001000
00010000
00001000
00000000
,
00010000
00001000
00100000
00000000
00001000
00010000
00000010
00000000
,
00011000
00000000
00001000
00010000
00000000
00010000
00001000
00000000
,
00011000
00000000
00011000
00000000
00000000
00001000
00010000
00000000
,
01100000
01000000
01100000
00100000
,
01100000
00000000
01000000
00000000
01100000
00000000
00100000
00010000
,
00001000
00000110
00000100
00000110
,
00001001
00000000
00000000
00000000
00000110
00000000
00000000
00000010
00000100
00000000
00000010
00000000
00000000
00000000
00000000
00000000
,
00000001
00000100
00000001
00000100
00000010
00000100
00000010
00000100
,
00000010
00001000
00000100
00000010
00000000
00000010
00000001
00000100
,
00001000
00010000
00000100
00010000
00000000
00010000
00001000
00010000
,
00100000
00000000
10000000
00000000
01000000
00000000
00100000
00000000
00000000
00000000
00010000
00000000
10000000
00000000
00100000
10000000
,
00100000
01000000
00100000
01000000
00010000
01000000
00010000
01000000
,
00100000
10000000
01000000
00100000
00000000
00100000
00010000
01000000
,
00100000
00010000
00001000
00010000
00000000
00010000
00001000
00010000
,
00000010
00000000
00000100
00000000
00000001
00000000
00000010
00000000
00000000
00000000
00000100
00000000
00000010
00000000
00000001
00001000
,
00000001
00001010
00000100
00011000
,
00100000
00000000
00010000
01000000
00000000
01000000
00100000
00000000
,
11000000
00000000
01000000
00100000
00000000
00100000
00010000
00000000
,
10010000
00000000
10010000
00000000
00100000
10000000
01000000
00000000
,
10100000
01000000
00011000
00000100
,
00001010
00000000
00000001
00000000
00000110
00000000
00010000
00000100
,
00010000
00001100
00010000
01100000
,
10010000
00000000
00000000
00000000
10010000
00000000
00000000
01000000
00100000
00000000
00100000
00000000
10000000
00000000
01000000
00000000
,
00010000
00000000
00001000
00000010
00000001
00000000
00000001
00000100
,
00001000
00000000
00010000
00100000
10000000
01000000
10000000
00100000
,
01000000
00000000
01000000
00010000
00001000
00000000
00001000
00000010
,
00000110
00000000
00000000
00000000
00000110
00000000
00000000
00000000
00001000
00000000
00000001
00000000
00000010
00000000
00000001
00000100
,
00000001
00000000
00000001
00000010
00001000
00000000
00010000
01000000
,
10000000
00000000
10000000
00100000
00010000
00000000
00001100
00000000
,
00000001
00000010
00000100
00001000
00010000
00100000
01000000
10000000
,
10010000
01100000
10010000
01100000
,
10000000
01000000
00100000
00010000
00001000
00000100
00000010
00000001
,
00001000
00000000
00000010
00000000
00000100
00000000
00000010
00000100
00000010
00000000
00000000
00000000
00000000
00000000
00000000
00000000
,
00000001
00001010
00000100
00011000
,
00100000
00000000
00010000
01000000
00000000
01000000
00100000
00000000
,
11000000
00000000
01000000
00100000
00000000
00100000
00010000
00000000
,
10010000
00000000
10010000
00000000
00100000
10000000
01000000
00000000
,
10100000
01000000
00011000
00000100
,
00001010
00000000
00000001
00000000
00000110
00000000
00010000
00001000
,
00010000
00001100
00010000
01100000
,
10010000
00000000
00000000
00000000
10010000
00000000
00000000
01000000
00100000
00000000
00100000
00000000
10000000
00000000
01000000
00000000
,
00010000
00000000
00001000
00000010
00000001
00000000
00000001
00000100
,
00001000
00000000
00010000
00100000
10000000
01000000
10000000
00100000
,
01000000
00000000
01000000
00010000
00001000
00000000
00001000
00000010
,
00000110
00000000
00000000
00000000
00000110
00000000
00000000
00000000
00001000
00000000
00000001
00000000
00000010
00000000
00000001
00000100
,
00000001
00000000
00000001
00000010
00001000
00000000
00010000
01000000
,
10000000
00000000
10000000
00100000
00010000
00000000
00001100
00000000
,
00000001
00000010
00000100
00001000
00010000
00100000
01000000
10000000
,
10010000
01100000
10010000
01100000
,
10000000
01000000
00100000
00010000
00001000
00000100
00000010
00000001
,
00001001
00000110
00001001
00000110
,
00000001
00000100
00000010
00001000
00010000
01000000
00100000
10000000
,
11000000
00110000
11000000
00110000
,
10000000
00100000
01000000
00010000
00001000
00000010
00000100
00000001
,
00000011
00000010
00000110
00000010
,
00001001
00000000
00000000
00000000
;

//---------------dance-double - ----------------
#NOTES:
     dance-double:
     :
     Hard:
     16:
     0.942892,0.919634,0.185785,0.000000,1.276047,675.000000,656.000000,19.000000,0.000000,0.000000,0.000000,0.942892,0.919634,0.185785,0.000000,1.276047,675.000000,656.000000,19.000000,0.000000,0.000000,0.000000:
00000000
00000000
00000000
00000000
,
00010000
00001000
00100000
00001000
01000000
00001000
00010000
00000010
,
00010000
00000100
00010000
00001000
00100000
00001000
01000000
00001000
,
00010000
00000100
00010000
00001000
00000000
00001000
00100000
00001000
,
00011000
00000000
00000000
00000000
00000000
00000000
00000000
00000000
00000000
00000000
00000000
00000000
00011000
00000000
00000000
00000000
00000000
00000000
00000000
00000000
00000000
00000000
00000000
00000000
00001000
00000000
00000000
00000000
00000000
00000000
00100000
00000000
00000000
00010000
00000000
00000000
01000000
00000000
00000000
00000000
00000000
00000000
00010000
00000000
10000000
00000000
00010000
00000000
,
10000000
10010000
00100000
01100000
,
10000000
00000000
10010000
00000000
01000000
00000000
01100000
00010000
,
00001000
00001001
00000010
00000110
,
00001001
00000000
00000000
00000000
00001001
00000000
00000000
00000010
00000110
00000000
00000110
00000000
00000000
00000000
00000000
00000000
,
00000001
00000010
00000001
00000010
00000100
00001000
00000100
00001000
00000010
00010000
00000010
00010000
00001000
00100000
00001000
00100000
,
00010000
00000000
01000000
00000000
10000000
00000000
01000000
00000000
00010000
00000000
00100000
00010000
10000000
00000000
00100000
00000000
,
10000000
01000000
10000000
01000000
00100000
00010000
00100000
00010000
01000000
00001000
01000000
00001000
00010000
00000100
00010000
00000100
,
00001000
00000000
00000000
00000000
00000000
00000000
00000010
00000000
00000000
00000000
00000000
00000000
00000001
00000000
00000000
00000000
00000000
00000000
00001000
00000000
00000000
00000000
00000000
00000000
00000100
00000000
00000000
00000000
00000000
00000000
00000001
00000000
00000000
00000010
00000000
00000000
00000001
00000000
00000000
00000000
00000000
00000000
00001000
00000000
00000010
00000000
00001000
00000000
,
00000010
00000100
00000010
00000100
00000001
00001000
00000001
00001000
00000100
00010000
00000100
00010000
00001000
00010000
00001000
00010000
,
00100000
01000000
00010000
01000000
00100000
10000000
00010000
00000000
00000000
00000000
00100000
00001000
00100000
00001000
00010000
00000100
,
00000010
00000001
00001000
00000010
00000100
00000001
00000100
00000000
00000000
00000000
00000010
00001000
00000010
00001000
00000100
00010000
,
00001000
00000000
00000000
00100000
00000000
00000000
01000000
00000000
00000000
00010000
00000000
00000000
00001000
00000000
00000000
01000000
00000000
00000000
00001000
00000000
00000000
00000000
00000000
00000000
00000000
00000000
00000000
00000000
00000000
00000000
01000000
00000000
00000000
00100000
00000000
00000000
01000000
00000000
00000000
00000000
00000000
00000000
00100000
00000000
10000000
00000000
00100000
00000000
,
10000000
01000000
00100000
00010000
01000000
00100000
00010000
00001000
00100000
00010000
00001000
00000100
00010000
00001000
00000100
00000010
,
00001000
00000100
00000010
00000001
00000010
00000100
00001000
00000000
00000000
00000000
00000010
00000000
00000100
00000000
00000010
00000000
,
00001000
00000100
00000010
00000100
00001000
00010000
00100000
00000000
00000000
00000000
00100000
00000000
01000000
00000000
10000000
00000000
,
00010000
00100000
01000000
00100000
00010000
00001000
00000010
00000000
00000000
00000000
00000010
00000010
00001000
00000000
00000001
00000000
,
00000100
00000010
00000100
00000010
00010000
00000100
00001000
00000010
00010000
00001000
00010000
00001000
00100000
00010000
01000000
00100000
,
10000000
01000000
10000000
01000000
00100000
00010000
01000000
00100000
00010000
00001000
00010000
00000010
00001000
00000100
00001000
00000100
,
00010000
00001000
00010000
00001000
00000100
00000010
00000100
00000001
00001000
00000100
00001000
00000100
00000010
00000001
00001000
00000001
,
00000100
00000010
00000100
00000010
00000100
00000010
00000100
00000010
00000100
00000010
00000100
00000010
00001000
00000001
00000010
00000100
,
00001000
00000000
00000000
00000000
00000010
00010000
00001000
00000100
00000010
00000000
00000000
00000000
00010000
00000100
00001000
00010000
,
00100000
00000000
00000000
00000000
00010000
10000000
01000000
00100000
00010000
00000000
00100000
00000000
01000000
00000000
10000000
00000000
,
00100000
01000000
00100000
01000000
00001000
00010000
00001000
00010000
00100000
01000000
00100000
01000000
00001000
00010000
00001000
00010000
,
00000100
00000000
00000000
00001000
00000000
00000000
00010000
00000000
00000000
00100000
00000000
00000000
00010000
00000000
00000000
00001000
00000000
00000000
00000100
00000000
00000000
00001000
00000000
00000000
00000010
00000000
00000000
00000000
00000000
00000000
00000100
00000000
00000000
00000100
00000000
00000000
00000010
00000000
00000000
00000000
00000000
00000000
00001000
00000000
00000001
00000000
00001000
00000000
,
00000001
00000000
00000000
00000000
00010000
00000010
00000100
00001000
00010000
00000000
00000000
00000000
00001000
01000000
00100000
00010000
,
00001000
00000000
00000000
00000000
10000000
00010000
00100000
01000000
10000000
00000000
00010000
10000000
00000000
00000000
00010000
00100000
,
01000000
10000000
00100000
01000000
00010000
00100000
00001000
00010000
00000100
00010000
00001000
00100000
00010000
01000000
00100000
10000000
,
01000000
00000000
00110000
00000000
00001000
00000000
00000110
00000100
,
00000010
00001000
00000100
00010000
00001000
00100000
00010000
01000000
00010000
00100000
00001000
00010000
00000100
00001000
00000010
00000100
,
00000001
00000000
00000000
00000000
00000000
00000000
00000000
00000000
00000000
00000000
00000000
00000000
00001000
00000000
00000000
00000010
00000000
00000000
00001000
00000000
00000000
00000100
00000000
00000000
00010000
00000000
00000000
00000000
00000000
00000000
00010000
00000000
00000000
00001000
00000000
00000000
01000000
00000000
00000000
00000000
00000000
00000000
00100000
00000000
10000000
00000000
00100000
00000000
,
10000000
01000000
00100000
00010000
01000000
00100000
00010000
00001000
00100000
00010000
00001000
00000100
00010000
00001000
00000100
00000010
,
00001000
00000100
00000010
00000001
00000010
00000100
00001000
00000000
00000000
00000000
00000010
00000000
00000100
00000000
00000010
00000000
,
00001000
00000100
00000010
00000100
00001000
00010000
00100000
00000000
00000000
00000000
00100000
00000000
01000000
00000000
10000000
00000000
,
01010000
00000000
01000000
00000000
00011000
00000000
00001000
00000000
00000000
00000000
00000010
00000010
00001000
00000000
00000001
00000000
,
00000100
00000010
00000100
00000010
00010000
00000100
00001000
00000010
00010000
00001000
00010000
00001000
00100000
00010000
01000000
00100000
,
10000000
01000000
10000000
01000000
00100000
00010000
01000000
00100000
00010000
00001000
00010000
00000010
00001000
00000100
00001000
00000100
,
00010000
00001000
00010000
00001000
00000100
00000010
00000100
00000001
00001000
00000100
00001000
00000100
00000010
00000001
00001000
00000001
,
00000100
00000010
00000100
00000010
00000100
00000010
00000100
00000010
00000100
00000010
00000100
00000010
00001000
00000001
00000010
00000100
,
00001000
00000000
00000000
00000000
00000010
00010000
00001000
00000100
00000010
00000000
00000000
00000000
00010000
00000100
00001000
00010000
,
00100000
00000000
00000000
00000000
00010000
10000000
01000000
00100000
00010000
00000000
00100000
00000000
01000000
00000000
10000000
00000000
,
00100000
01000000
00100000
01000000
00001000
00010000
00001000
00010000
00100000
01000000
00100000
01000000
00001000
00010000
00001000
00010000
,
00000100
00000000
00000000
00001000
00000000
00000000
00010000
00000000
00000000
00100000
00000000
00000000
00010000
00000000
00000000
00001000
00000000
00000000
00000100
00000000
00000000
00001000
00000000
00000000
00000010
00000000
00000000
00000000
00000000
00000000
00000100
00000000
00000000
00000100
00000000
00000000
00000010
00000000
00000000
00000000
00000000
00000000
00001000
00000000
00000001
00000000
00001000
00000000
,
00000001
00000000
00000000
00000000
00010000
00000010
00000100
00001000
00010000
00000000
00000000
00000000
00001000
01000000
00100000
00010000
,
00001000
00000000
00000000
00000000
10000000
00010000
00100000
01000000
10000000
00000000
00010000
10000000
00000000
00000000
00010000
00100000
,
01000000
10000000
00100000
01000000
00010000
00100000
00001000
00010000
00000100
00010000
00001000
00100000
00010000
01000000
00100000
10000000
,
01000000
00000000
00110000
00000000
00001000
00000000
00000110
00000100
,
00000010
00001000
00000100
00010000
00001000
00100000
00010000
01000000
00010000
00100000
00001000
00010000
00000100
00001000
00000010
00000100
,
00000001
00000000
00000000
00000000
00001100
00000000
00000000
00000000
00010000
00000000
00000000
00001000
01000000
00000000
00100000
00000000
,
10000000
01000000
00100000
00010000
01000000
00100000
00010000
00001000
00100000
00010000
00001000
00000100
00010000
00001000
00000100
00000010
,
00001000
00000100
00000010
00000100
00010000
00000100
00000010
00000001
,
00000100
00000010
00000100
00001000
00010000
00000100
00001000
00010000
00100000
01000000
00100000
00010000
01000000
00100000
00010000
00001000
,
01000000
00000000
00000000
00000000
00000000
00000000
00100000
00000000
00000000
00000000
00000000
00000000
00010000
00000000
00000000
00000000
00000000
00000000
00001000
00000000
00000000
00010000
00001000
00010000
,
00000100
00000000
00000000
00000000
;

//---------------dance-double - ----------------
#NOTES:
     dance-double:
     :
     Challenge:
     20:
     1.349383,1.365516,0.166228,0.000000,2.669431,966.000000,949.000000,17.000000,0.000000,0.000000,0.000000,1.349383,1.365516,0.166228,0.000000,2.669431,966.000000,949.000000,17.000000,0.000000,0.000000,0.000000:
// measure 0
00000000
00000000
00000000
00000000
,  // measure 1
00010000
00001000
00100000
00001000
01000000
00001000
00010000
00000010
,  // measure 2
00010000
00000100
00010000
00001000
00100000
00001000
01000000
00001000
,  // measure 3
00010000
00000100
00010000
00001000
00000000
00001000
00100000
00001000
,  // measure 4
00011000
00000000
00000000
00000000
00000000
00000000
00000000
00000000
00011000
00000000
00000000
00000000
00000000
00000000
00000000
00000000
00001000
00000000
00000000
00000000
00100000
00000000
00010000
00000000
01000000
00000000
00000000
00000000
00010000
10000000
00010000
10000000
,  // measure 5
00010000
10010000
00100000
01100000
,  // measure 6
10000000
00000000
10010000
00000000
01000000
00000000
01100000
00010000
,  // measure 7
00001000
00001001
00000010
00000110
,  // measure 8
00001001
00000000
00000000
00000000
00000110
00000000
00000000
00001001
00001001
00000000
00000110
00000000
00000000
00000000
00000000
00000000
,  // measure 9
00000001
00000100
00000001
00000100
00000001
00000100
00000001
00001000
00000001
00001000
00000001
00001000
00000010
00000100
00000010
00000100
00000010
00000100
00001000
00010000
00001000
00010000
00001000
00010000
,  // measure 10
01000000
00000000
00100000
01000000
10000000
00000000
00100000
00000000
01000000
00000000
00100000
01000000
00010000
00000000
00100000
00000000
,  // measure 11
01000000
00100000
01000000
00100000
01000000
00100000
01000000
10000000
01000000
10000000
01000000
10000000
00100000
01000000
00100000
01000000
00100000
01000000
00001000
00010000
00001000
00010000
00001000
00010000
,  // measure 12
00000100
00000000
00000000
00000000
00000000
00000000
00000000
00000000
00001000
00000000
00000000
00000000
00000000
00000000
00000000
00000000
00000010
00000000
00000000
00000000
00000000
00000000
00000000
00000000
00000100
00000000
00000000
00000000
00000000
00000000
00000000
00000000
00000001
00000000
00000000
00000000
00000000
00000000
00000000
00000000
00000100
00000000
00000000
00000000
00000000
00000000
00000000
00000000
00000010
00000000
00000000
00000000
00000000
00000000
00000000
00000000
00001000
00000000
00000000
00000000
00000000
00000000
00000000
00000000
00000100
00000000
00000000
00000000
00000000
00000000
00000000
00000000
00001000
00000000
00000000
00000000
00000000
00000000
00000000
00000000
00000010
00000000
00000000
00000000
00000000
00000000
00000000
00000000
00000000
00000000
00000000
00000000
00000000
00000000
00000000
00000000
00000100
00000000
00000000
00000000
00000000
00000000
00000000
00000000
00000000
00000000
00000000
00000000
00000000
00000000
00000000
00000000
00000000
00000000
00000000
00000000
00000000
00000000
00000000
00000000
00000010
00000000
00000000
00000000
00000000
00000000
00000000
00000000
00000000
00000000
00000000
00000000
00000010
00000000
00000000
00000000
00000000
00000000
00000000
00000000
00000000
00000000
00000000
00000000
00000100
00000000
00000000
00000000
00000000
00000000
00000000
00000000
00000000
00000000
00000000
00000000
00000000
00000000
00000000
00000000
00000000
00000000
00000000
00000000
00000000
00000000
00000000
00000000
00000001
00000000
00000000
00000000
00000000
00000000
00001000
00000000
00000000
00000000
00000000
00000000
00000001
00000000
00000000
00000000
00000000
00000000
00001000
00000000
00000000
00000000
00000000
00000000
,  // measure 13
00000010
00000100
00000010
00000100
00000010
00000100
00000001
00001000
00000001
00001000
00000001
00001000
00000100
00000010
00000100
00000010
00000100
00000010
00001000
00010000
00001000
00010000
00001000
00010000
,  // measure 14
00100000
00000000
01000000
00000000
00010000
00000000
10000000
00000000
01000000
00000000
00100000
00000000
00010000
00000000
01000000
00000000
00100000
00000000
01000000
00000000
00010000
00000000
00000000
00000000
01000000
00000000
00000000
00000000
00000000
00000000
00010000
00000000
00000000
00100000
00000000
00000000
10000000
00000000
00000000
00000000
00000000
00000000
00100000
00000000
00000000
00000000
00000000
00000000
,  // measure 15
00010000
00000000
01000000
00000000
00010000
00000000
00100000
00000000
00001000
00000000
00010000
00000000
00000100
00000000
00001000
00000000
00000100
00000000
00000010
00000000
00000001
00000000
00000000
00000000
00000010
00000000
00000000
00000000
00000000
00000000
00000001
00000000
00000000
00000100
00000000
00000000
00001000
00000000
00000000
00000000
00000000
00000000
00000100
00000000
00000000
00000000
00000000
00000000
,  // measure 16
00000010
00000000
00000000
00000000
00000000
00000000
00000000
00000000
00001000
00000000
00000000
00000000
00000000
00000000
00000000
00000000
00000100
00000000
00000000
00000000
00000000
00000000
00000000
00000000
00000010
00000000
00000000
00000000
00000000
00000000
00000000
00000000
00000100
00000000
00000000
00000000
00000000
00000000
00000000
00000000
00001000
00000000
00000000
00000000
00000000
00000000
00000000
00000000
00010000
00000000
00000000
00000000
00000000
00000000
00000000
00000000
00100000
00000000
00000000
00000000
00000000
00000000
00000000
00000000
00001000
00000000
00000000
00000000
00000000
00000000
00000000
00000000
00010000
00000000
00000000
00000000
00000000
00000000
00000000
00000000
00001000
00000000
00000000
00000000
00000000
00000000
00000000
00000000
00000000
00000000
00000000
00000000
00000000
00000000
00000000
00000000
00100000
00000000
00000000
00000000
00000000
00000000
00000000
00000000
00000000
00000000
00000000
00000000
00000000
00000000
00000000
00000000
00000000
00000000
00000000
00000000
00000000
00000000
00000000
00000000
00010000
00000000
00000000
00000000
00000000
00000000
00000000
00000000
00000000
00000000
00000000
00000000
00010000
00000000
00000000
00000000
00000000
00000000
00000000
00000000
00000000
00000000
00000000
00000000
10000000
00000000
00000000
00000000
00000000
00000000
00000000
00000000
00000000
00000000
00000000
00000000
00000000
00000000
00000000
00000000
00000000
00000000
00000000
00000000
00000000
00000000
00000000
00000000
00100000
00000000
00000000
00000000
00000000
00000000
01000000
00000000
00000000
00000000
00000000
00000000
00100000
00000000
00000000
00000000
00000000
00000000
01000000
00000000
00000000
00000000
00000000
00000000
,  // measure 17
00010000
10000000
01000000
00100000
00010000
01000000
00100000
00010000
00001000
00100000
00010000
00001000
00000100
00010000
00001000
00000100
00000010
00001000
00000100
00000010
00000001
00000010
00000100
00001000
,  // measure 18
00000001
00000010
00001000
00000010
00000100
00001000
00000100
00010000
00001000
00010000
00001000
00000000
00000000
00000000
00000000
00010000
00100000
01000000
00100000
10000000
00010000
01000000
00010000
10000000
,  // measure 19
00100000
00000000
01000000
00000000
00100000
00000000
00010000
00000000
00001000
00000000
00010000
00000000
00001000
00000000
00000100
00000000
00000010
00000000
00000100
00000000
00000001
00000000
00000000
00000000
00001000
00000000
00000000
00000000
00000000
00000000
00000001
00000000
00000000
00000100
00000000
00000000
00001000
00000000
00000000
00000000
00000000
00000000
00000100
00000000
00000000
00000000
00000000
00000000
,  // measure 20
00000001
00000000
00000010
00000000
00001000
00000000
00010000
00000000
01000000
00000000
10000000
00000000
00100000
00000000
01000000
00000000
00100000
00000000
10000000
00000000
00010000
00000000
00000000
00000000
01000000
00000000
00000000
00000000
00000000
00000000
00100000
00000000
00000000
00100000
00000000
00000000
10000000
00000000
00000000
00000000
00000000
00000000
00010000
00000000
00000000
00000000
00000000
00000000
,  // measure 21
00100000
01000000
00100000
01000000
00100000
01000000
10000000
00010000
00100000
00010000
10000000
00100000
00010000
00001000
00010000
00001000
00010000
00001000
01000000
00010000
00100000
00001000
01000000
00100000
,  // measure 22
00010000
00000100
00010000
00000100
00010000
00000100
00001000
00000010
00000100
00000010
00010000
00001000
00000100
00000010
00000100
00000010
00000100
00000010
00001000
00000010
00000001
00001000
00000100
00000010
,  // measure 23
00010000
00001000
00010000
00001000
00100000
00010000
00001000
00000100
00000010
00000100
00000010
00000001
00001000
00000100
00001000
00000100
00010000
00001000
00100000
01000000
00100000
01000000
10000000
00010000
,  // measure 24
01000000
00100000
01000000
00100000
01000000
00100000
01000000
00100000
01000000
00100000
01000000
00100000
01000000
00100000
01000000
00100000
01000000
00100000
10000000
01000000
00100000
00010000
00100000
01000000
,  // measure 25
10000000
00000000
00000000
00000000
00000000
00000000
00001000
00010000
00100000
01000000
00100000
00010000
00001000
00000000
00000000
00000000
00000000
00000000
00001000
00000100
00000010
00000001
00000010
00000100
,  // measure 26
00001000
00000000
00000000
00000000
00000000
00000000
00010000
00001000
00000100
00000010
00000100
00001000
00010000
00000000
00000000
01000000
00000000
00000000
00100000
00000000
00000000
10000000
00000000
00000000
,  // measure 27
00100000
01000000
00100000
01000000
00100000
01000000
00001000
00010000
00001000
00010000
00001000
00010000
00100000
01000000
00100000
01000000
00100000
01000000
00001000
00010000
00001000
00010000
00001000
00010000
,  // measure 28
00000100
00000000
00000000
00000000
00000000
00000000
00000000
00000000
00001000
00000000
00000000
00000000
00000000
00000000
00000000
00000000
00010000
00000000
00000000
00000000
00000000
00000000
00000000
00000000
00100000
00000000
00000000
00000000
00000000
00000000
00000000
00000000
00010000
00000000
00000000
00000000
00000000
00000000
00000000
00000000
00001000
00000000
00000000
00000000
00000000
00000000
00000000
00000000
00000100
00000000
00000000
00000000
00000000
00000000
00000000
00000000
00001000
00000000
00000000
00000000
00000000
00000000
00000000
00000000
00000010
00000000
00000000
00000000
00000000
00000000
00000000
00000000
00000100
00000000
00000000
00000000
00000000
00000000
00000000
00000000
00000001
00000000
00000000
00000000
00000000
00000000
00000000
00000000
00000010
00000000
00000000
00000000
00000000
00000000
00000000
00000000
00000100
00000000
00000000
00000000
00000000
00000000
00000000
00000000
00000000
00000000
00000000
00000000
00000000
00000000
00000000
00000000
00000000
00000000
00000000
00000000
00000000
00000000
00000000
00000000
00000010
00000000
00000000
00000000
00000000
00000000
00000000
00000000
00000000
00000000
00000000
00000000
00000010
00000000
00000000
00000000
00000000
00000000
00000000
00000000
00000000
00000000
00000000
00000000
00000100
00000000
00000000
00000000
00000000
00000000
00000000
00000000
00000000
00000000
00000000
00000000
00000000
00000000
00000000
00000000
00000000
00000000
00000000
00000000
00000000
00000000
00000000
00000000
00001000
00000000
00000000
00000000
00000000
00000000
00000001
00000000
00000000
00000000
00000000
00000000
00001000
00000000
00000000
00000000
00000000
00000000
00000001
00000000
00000000
00000000
00000000
00000000
,  // measure 29
00001000
00000000
00000000
00000000
00000000
00000000
00000001
00000010
00000100
00001000
00000100
00000010
00000001
00000000
00000000
00000000
00000000
00000000
00010000
00001000
00000100
00000010
00000100
00001000
,  // measure 30
00010000
00000000
00000000
00000000
00000000
00000000
00010000
00100000
01000000
10000000
01000000
00100000
00010000
00000000
00000000
00000000
01000000
00100000
00000000
00000000
00000000
10000000
00010000
10000000
,  // measure 31
00100000
01000000
00010000
00100000
00001000
00010000
00000100
00001000
00000010
00001000
00000100
00010000
00001000
00100000
00010000
01000000
00100000
10000000
01000000
00100000
00010000
00100000
01000000
10000000
,  // measure 32
00010000
00000000
00011000
00000000
00000010
00000000
00000110
00000100
,  // measure 33
00000010
00001000
00000100
00010000
00001000
00100000
00010000
01000000
00100000
10000000
00100000
01000000
00010000
00100000
00001000
00010000
00000100
00001000
00000010
00000100
00000001
00000010
00000100
00001000
,  // measure 34
00000001
00000000
00000001
00000000
00001000
00000000
00000100
00000000
00000010
00000000
00000100
00000000
00001000
00000000
00010000
00001000
00010000
00000000
00000010
00000000
00000100
00000000
00010000
00000000
00001000
00000000
00010000
00000000
00100000
01000000
00100000
01000000
,  // measure 35
00010000
10000000
01000000
00100000
00010000
01000000
00100000
00010000
00001000
00100000
00010000
00001000
00000100
00010000
00001000
00000100
00000010
00001000
00000100
00000010
00000001
00000010
00000100
00001000
,  // measure 36
00000001
00000010
00001000
00000010
00000100
00001000
00000100
00010000
00001000
00010000
00001000
00000000
00000000
00000000
00000000
00010000
00100000
01000000
00100000
10000000
00010000
01000000
00010000
10000000
,  // measure 37
00100000
00000000
01000000
00000000
00100000
00000000
00010000
00000000
00001000
00000000
00010000
00000000
00001000
00000000
00000100
00000000
00000010
00000000
00000100
00000000
00000001
00000000
00000000
00000000
00001000
00000000
00000000
00000000
00000000
00000000
00000001
00000000
00000000
00000100
00000000
00000000
00001000
00000000
00000000
00000000
00000000
00000000
00000100
00000000
00000000
00000000
00000000
00000000
,  // measure 38
00000001
00000000
00000010
00000000
00000100
00000000
00001000
00000000
00010000
00000000
00100000
00000000
01000000
00000000
10000000
00000000
00010000
00000000
10000000
00000000
00010000
00000000
00000000
00000000
01000000
00000000
00000000
00000000
00000000
00000000
00100000
00000000
00000000
00100000
00000000
00000000
10000000
00000000
00000000
00000000
00000000
00000000
00010000
00000000
00000000
00000000
00000000
00000000
,  // measure 39
00100000
01000000
00100000
01000000
00100000
01000000
10000000
00010000
00100000
00010000
10000000
00100000
00010000
00001000
00010000
00001000
00010000
00001000
01000000
00010000
00100000
00001000
01000000
00100000
,  // measure 40
00010000
00000100
00010000
00000100
00010000
00000100
00001000
00000010
00000100
00000010
00010000
00001000
00000100
00000010
00000100
00000010
00000100
00000010
00001000
00000010
00000001
00001000
00000100
00000010
,  // measure 41
00010000
00001000
00010000
00001000
00100000
00010000
00001000
00000100
00000010
00000100
00000010
00000001
00001000
00000100
00001000
00000100
00010000
00001000
00100000
01000000
00100000
01000000
10000000
00010000
,  // measure 42
01000000
00100000
01000000
00100000
01000000
00100000
01000000
00100000
01000000
00100000
01000000
00100000
01000000
00100000
01000000
00100000
01000000
00100000
10000000
01000000
00100000
00010000
00100000
01000000
,  // measure 43
10000000
00000000
00000000
00000000
00000000
00000000
00001000
00010000
00100000
01000000
00100000
00010000
00001000
00000000
00000000
00000000
00000000
00000000
00001000
00000100
00000010
00000001
00000010
00000100
,  // measure 44
00001000
00000000
00000000
00000000
00000000
00000000
00010000
00001000
00000100
00000010
00000100
00001000
00010000
00000000
00000000
01000000
00000000
00000000
00100000
00000000
00000000
10000000
00000000
00000000
,  // measure 45
00100000
01000000
00100000
01000000
00100000
01000000
00001000
00010000
00001000
00010000
00001000
00010000
00100000
01000000
00100000
01000000
00100000
01000000
00001000
00010000
00001000
00010000
00001000
00010000
,  // measure 46
00000100
00000000
00000000
00000000
00000000
00000000
00000000
00000000
00001000
00000000
00000000
00000000
00000000
00000000
00000000
00000000
00010000
00000000
00000000
00000000
00000000
00000000
00000000
00000000
00100000
00000000
00000000
00000000
00000000
00000000
00000000
00000000
00010000
00000000
00000000
00000000
00000000
00000000
00000000
00000000
00001000
00000000
00000000
00000000
00000000
00000000
00000000
00000000
00000100
00000000
00000000
00000000
00000000
00000000
00000000
00000000
00001000
00000000
00000000
00000000
00000000
00000000
00000000
00000000
00000010
00000000
00000000
00000000
00000000
00000000
00000000
00000000
00000100
00000000
00000000
00000000
00000000
00000000
00000000
00000000
00000001
00000000
00000000
00000000
00000000
00000000
00000000
00000000
00000010
00000000
00000000
00000000
00000000
00000000
00000000
00000000
00000100
00000000
00000000
00000000
00000000
00000000
00000000
00000000
00000000
00000000
00000000
00000000
00000000
00000000
00000000
00000000
00000000
00000000
00000000
00000000
00000000
00000000
00000000
00000000
00000010
00000000
00000000
00000000
00000000
00000000
00000000
00000000
00000000
00000000
00000000
00000000
00000010
00000000
00000000
00000000
00000000
00000000
00000000
00000000
00000000
00000000
00000000
00000000
00000100
00000000
00000000
00000000
00000000
00000000
00000000
00000000
00000000
00000000
00000000
00000000
00000000
00000000
00000000
00000000
00000000
00000000
00000000
00000000
00000000
00000000
00000000
00000000
00001000
00000000
00000000
00000000
00000000
00000000
00000001
00000000
00000000
00000000
00000000
00000000
00001000
00000000
00000000
00000000
00000000
00000000
00000001
00000000
00000000
00000000
00000000
00000000
,  // measure 47
00001000
00000000
00000000
00000000
00000000
00000000
00000001
00000010
00000100
00001000
00000100
00000010
00000001
00000000
00000000
00000000
00000000
00000000
00010000
00001000
00000100
00000010
00000100
00001000
,  // measure 48
00010000
00000000
00000000
00000000
00000000
00000000
00010000
00100000
01000000
10000000
01000000
00100000
00010000
00000000
00000000
00000000
01000000
00100000
00000000
00000000
00000000
10000000
00010000
10000000
,  // measure 49
00100000
01000000
00010000
00100000
00001000
00010000
00000100
00001000
00000010
00001000
00000100
00010000
00001000
00100000
00010000
01000000
00100000
10000000
01000000
00100000
00010000
00100000
01000000
10000000
,  // measure 50
00010000
00000000
00011000
00000000
00000010
00000000
00000110
00000100
,  // measure 51
00000010
00001000
00000100
00010000
00001000
00100000
00010000
01000000
00100000
10000000
00100000
01000000
00010000
00100000
00001000
00010000
00000100
00001000
00000010
00000100
00000001
00000010
00000100
00001000
,  // measure 52
00000001
00000000
00000000
00000010
00000000
00000000
00001000
00000000
00000000
00000010
00000000
00000000
00001000
00000000
00000000
00010000
00000000
00000000
00100000
00000000
00000000
01000000
00000000
00000000
00100000
00000000
00000000
00000000
00000000
00000000
00000000
00000000
00100000
00000000
01000000
00000000
00000000
00000000
00000000
00000000
00000000
00000000
00010000
00000000
01000000
00000000
00010000
00000000
,  // measure 53
10000000
01000000
00100000
00010000
01000000
00100000
00010000
00001000
00100000
00010000
00001000
00000100
00010000
00001000
00000100
00000010
00001000
00000100
00000010
00000001
00000010
00000100
00001000
00000001
,  // measure 54
00000100
00000000
00000000
00000010
00000000
00000000
00000100
00000000
00000000
00010000
00000000
00000000
00000100
00000000
00000000
00000001
00000000
00000000
00000010
00000100
00000010
00000100
00001000
00000001
,  // measure 55
00000010
00000100
00001000
00010000
00001000
00000100
00001000
00010000
01000000
00100000
01000000
00001000
00010000
00000100
00000010
00000100
00001000
00010000
10000000
00100000
10000000
00010000
00100000
00010000
,  // measure 56
01000000
00000000
00000000
00000000
00000000
00000000
00000000
00000000
00100000
00000000
00000000
00000000
00010000
00000000
00010000
00000000
00001000
00000000
00000000
00000000
00000000
00000000
00000000
00000000
00010000
00000000
00000000
00000000
00001000
00010000
00001000
00010000
,  // measure 57
00000100
00000000
00000000
00000000
;
