#VERSION:0.83;
#TITLE:Lockdown;
#SUBTITLE:;
#ARTIST:SharaX;
#TITLETRANSLIT:;
#SUBTITLETRANSLIT:;
#ARTISTTRANSLIT:;
#GENRE:;
#ORIGIN:;
#CREDIT:;
#BANNER:Lockdown-bn.png;
#BACKGROUND:;
#PREVIEWVID:;
#JACKET:Lockdown-jacket.png;
#CDIMAGE:;
#DISCIMAGE:;
#LYRICSPATH:Lyrics.LRC;
#CDTITLE:cdtitle.png;
#MUSIC:Lockdown.mp3;
#OFFSET:-0.230930;
#SAMPLESTART:16.131001;
#SAMPLELENGTH:15.000000;
#SELECTABLE:YES;
#DISPLAYBPM:120.000000;
#BPMS:0.000=120.010,
16.000=120.280,
32.000=120.010;
#STOPS:;
#DELAYS:;
#WARPS:;
#TIMESIGNATURES:0.000=4=4;
#TICKCOUNTS:0.000=4;
#COMBOS:0.000=1;
#SPEEDS:0.000=1.000=0.000=0;
#SCROLLS:0.000=1.000;
#FAKES:;
#LABELS:0.000=Song Start;
#BGCHANGES:
;
#KEYSOUNDS:;
#ATTACKS:
;

//---------------dance-single - ----------------
#NOTEDATA:;
#CHARTNAME:;
#STEPSTYPE:dance-single;
#DESCRIPTION:;
#CHARTSTYLE:;
#DIFFICULTY:Beginner;
#METER:1;
#RADARVALUES:0.121243,0.149041,0.041400,0.006900,0.000000,123.000000,117.000000,6.000000,1.000000,0.000000,0.000000,0.000000,0.000000,0.000000,0.121243,0.149041,0.041400,0.006900,0.000000,123.000000,117.000000,6.000000,1.000000,0.000000,0.000000,0.000000,0.000000,0.000000;
#CREDIT:;
#NOTES:
0000
0000
0000
0000
,
0000
0000
0000
0000
,
0000
0000
0000
0000
,
0000
0000
0000
0000
,
1000
0000
1000
0000
,
1000
0000
0000
0000
,
0001
0000
0001
0000
,
0001
0000
0000
0000
,
0100
0000
0100
0000
,
0010
0000
0010
0000
,
1000
0000
1000
0000
,
0001
0000
1000
0000
,
0001
0000
0001
0000
,
0100
0000
0100
0000
,
0010
0000
0010
0000
,
0100
0000
0010
0000
,
1000
0000
1000
0000
,
0001
0000
0001
0000
,
0100
0000
0100
0000
,
0001
0000
1000
0000
,
0001
0000
0001
0000
,
0100
0000
0100
0000
,
0010
0000
0010
0000
,
1000
0000
0001
0000
,
1001
0000
0000
0000
,
1000
0000
0001
0000
,
1001
0000
0000
0000
,
0100
0000
0001
0000
,
0101
0000
0000
0000
,
0100
0000
0010
0000
,
0110
0000
0000
0000
,
0010
0000
0100
0000
,
0110
0000
0000
0000
,
1000
0000
0000
0000
,
0010
0000
0000
0000
,
1000
0000
0001
0000
,
0100
0000
0000
0000
,
0001
0000
0000
0000
,
1000
0000
0000
0000
,
0010
0000
1000
0000
,
0100
0000
0000
0000
,
0100
0000
0000
0000
,
0100
0000
0000
0000
,
0100
0000
1000
0000
,
0010
0000
0000
0000
,
0010
0000
0000
0000
,
0010
0000
0000
0000
,
0010
0000
1000
0000
,
0100
0000
0100
0000
,
1000
0000
1000
0000
,
0001
0000
0001
0000
,
0100
0000
0010
0000
,
1000
0000
1000
0000
,
0001
0000
0001
0000
,
1000
0000
1000
0000
,
0010
0000
0100
0000
,
1001
0000
0000
0000
,
0002
0000
0003
0000
,
1000
0000
1000
0000
,
0010
0000
0100
0000
,
0001
0000
0001
0000
,
0100
0000
0010
0000
,
1000
0000
1000
0000
,
0010
0000
0100
0000
,
0010
0000
0010
0000
,
1000
0000
0010
0000
,
0100
0000
0100
0000
,
0001
0000
0100
0000
,
0010
0000
0010
0000
,
1000
0000
0001
0000
,
0100
0000
0100
0000
,
0001
0000
1000
0000
,
0001
0000
0000
0000
;

//---------------dance-single - ----------------
#NOTEDATA:;
#CHARTNAME:;
#STEPSTYPE:dance-single;
#DESCRIPTION:;
#CHARTSTYLE:;
#DIFFICULTY:Easy;
#METER:4;
#RADARVALUES:0.221787,0.248401,0.096600,0.020700,0.000000,225.000000,211.000000,14.000000,3.000000,0.000000,0.000000,0.000000,0.000000,0.000000,0.221787,0.248401,0.096600,0.020700,0.000000,225.000000,211.000000,14.000000,3.000000,0.000000,0.000000,0.000000,0.000000,0.000000;
#CREDIT:;
#NOTES:
0000
0000
0000
0000
,
0000
0000
0000
0000
,
0000
0000
0000
0000
,
0000
0000
0000
0000
,
1000
1000
0001
0001
,
0100
0010
0200
0000
,
0310
0010
1000
1000
,
0001
0100
0020
0000
,
1030
0100
1000
0100
,
1000
0010
0100
0000
,
0001
0100
0001
0100
,
0010
1000
0001
0001
,
1000
0010
0100
0001
,
0010
0100
1000
0000
,
0010
1000
0100
1000
,
0010
0100
0001
0001
,
1000
0100
0010
0001
,
0010
0100
1000
0000
,
0001
0100
0010
1000
,
0100
1000
0010
0010
,
0100
0001
0100
0010
,
0100
0001
0010
0000
,
0001
0010
0001
0100
,
0010
1000
0001
1000
,
1001
0000
0110
0000
,
0100
0010
1010
0000
,
1100
0000
0011
0000
,
0100
0001
0101
0000
,
1001
0000
0011
0000
,
0010
0100
1100
0000
,
1010
0000
0101
0000
,
0100
0001
0011
0000
,
1000
0000
1000
0000
,
0001
0000
0001
0000
,
0100
0000
0100
0000
,
0010
0000
0010
1000
,
0001
0000
0001
0000
,
1000
0000
1000
0000
,
0100
0000
0100
0000
,
1000
0010
1000
0000
,
0001
0000
1000
0000
,
0001
0000
1000
0000
,
0010
0000
0100
0000
,
0010
0000
0100
0001
,
0010
0000
0100
0000
,
0010
0000
0100
0000
,
1000
0000
0100
0000
,
1000
0000
0100
0000
,
1000
0000
0001
0000
,
0100
1000
0100
0000
,
0001
0000
0010
0000
,
0100
0010
0100
1000
,
0010
0000
0100
0000
,
0001
0100
1000
0000
,
0100
0000
0010
0000
,
1000
0001
0010
0000
,
1001
0000
1001
0000
,
0002
0000
1003
0000
,
1000
0100
0010
0100
,
1000
0100
0010
0100
,
1000
0010
1000
0100
,
1000
0010
1000
0100
,
0010
0001
0010
0100
,
0010
0001
0010
0100
,
1000
0100
1000
0001
,
1000
0100
1000
0001
,
0010
0100
0010
0001
,
0010
1000
0010
0001
,
0100
1000
0100
0010
,
0100
1000
0100
0001
,
0010
1000
0010
0100
,
0010
0001
0010
0100
,
1000
0000
0000
0000
;

//---------------dance-single - ----------------
#NOTEDATA:;
#CHARTNAME:;
#STEPSTYPE:dance-single;
#DESCRIPTION:;
#CHARTSTYLE:;
#DIFFICULTY:Medium;
#METER:7;
#RADARVALUES:0.318387,0.347761,0.138001,0.096600,0.000000,323.000000,303.000000,20.000000,14.000000,0.000000,0.000000,0.000000,0.000000,0.000000,0.318387,0.347761,0.138001,0.096600,0.000000,323.000000,303.000000,20.000000,14.000000,0.000000,0.000000,0.000000,0.000000,0.000000;
#CREDIT:;
#NOTES:
0000
0000
0000
0000
,
0000
0000
0000
0000
,
0000
0000
0000
0000
,
0000
0000
0000
0000
,
1000
0100
1000
0000
0001
0100
0001
0000
,
0010
0100
1000
0000
0020
0000
0000
0000
,
1030
0010
0100
0000
0010
1000
0100
0000
,
1000
0001
0010
0000
0002
0000
0000
0000
,
1003
0100
1000
0100
,
0010
0001
0100
0000
0010
0000
1000
0000
,
0010
0100
0001
0000
0010
0000
0100
0000
,
1000
0100
0010
0000
0001
0001
0001
0000
,
1000
0010
0100
0010
,
1000
0010
0100
0000
0010
0000
1000
0000
,
0010
0100
0001
0000
1000
0000
0100
0000
,
0010
0001
1000
0000
0010
0010
0010
0000
,
1000
0100
1000
0100
,
0010
0001
0100
0000
0010
0000
1000
0000
,
0001
0100
0010
0000
0100
0000
0010
0000
,
1000
0010
0100
0000
0001
0010
0100
0000
,
1000
0000
0001
0000
0100
0001
1000
0000
,
0100
0000
0010
0000
0001
0100
0010
0000
,
1000
0000
0100
0000
1000
0010
0100
0000
,
0001
1000
0010
0000
1000
0001
0100
0000
,
1001
0010
1100
0010
,
0001
0100
1000
0100
0001
0000
1000
0000
,
0110
0001
0110
1000
,
0110
0001
1010
0100
,
1001
0010
1001
0100
,
1000
0100
0001
0100
1000
0000
0010
0000
,
0101
0010
1100
0010
,
0101
0010
1001
0010
,
0002
0100
0000
0100
0000
0100
0000
0100
,
0023
0001
0000
0100
0000
0001
0000
0100
,
0032
1000
0000
0010
0000
1000
0000
0010
,
0203
1000
0000
0010
0302
0100
0000
1000
,
0023
0100
0000
0001
0000
0100
0000
1000
,
0230
0010
0000
0001
0000
0010
0000
1000
,
0320
0100
0000
0001
0000
0100
0000
1000
,
0032
0010
0000
0100
0023
1000
0000
0100
,
0031
0000
1000
0000
,
0100
0000
0010
0000
,
0100
0000
1000
0000
,
0010
0000
0100
1000
,
0100
0000
0001
0000
,
1000
0000
0100
0000
,
0010
0000
0100
0000
,
1000
0000
0001
1000
,
1001
0000
0000
1000
0100
0000
0000
0000
,
0010
0001
0101
0000
,
1000
0000
0000
0001
0100
0000
0000
0000
,
0010
0000
1000
0000
0001
0100
1000
0100
,
0001
0000
0000
1000
0100
0000
0000
0000
,
0010
0001
1001
0000
,
0001
0000
0000
1000
0010
0000
0000
0000
,
1000
0000
0001
0100
1000
0100
0001
0000
,
1100
0000
0101
0000
,
1100
0101
2002
3003
,
1000
0100
0010
0000
0100
1000
0010
0000
,
0100
1000
0100
0001
,
0010
0001
0100
0000
0001
1000
0100
0000
,
0010
0100
1000
0100
,
1000
0010
0100
0000
0001
0100
0010
0000
,
1000
0001
0010
0100
,
1000
0100
0010
0000
0001
0010
0100
0000
,
0001
0100
1000
0010
,
0100
0001
0010
0000
0001
0100
0010
0000
,
0100
0001
0010
0100
,
0001
0100
1000
0000
0010
0100
1000
0000
,
0001
0010
0100
0001
,
1000
0100
0010
0000
0001
0100
1000
0000
,
0100
0010
1000
0001
,
0100
0000
0000
0000
;

//---------------dance-single - ----------------
#NOTEDATA:;
#CHARTNAME:;
#STEPSTYPE:dance-single;
#DESCRIPTION:;
#CHARTSTYLE:;
#DIFFICULTY:Hard;
#METER:11;
#RADARVALUES:0.544116,0.546482,0.234601,0.041400,0.169051,552.000000,518.000000,34.000000,6.000000,0.000000,0.000000,0.000000,0.000000,0.000000,0.544116,0.546482,0.234601,0.041400,0.169051,552.000000,518.000000,34.000000,6.000000,0.000000,0.000000,0.000000,0.000000,0.000000;
#CREDIT:;
#NOTES:
0000
0000
0000
0000
,
0000
0000
0000
0000
,
0000
0000
0000
0000
,
0000
0000
0000
0000
,
1000
1000
1000
0000
0001
0001
0001
0000
,
0100
0100
0001
0010
0100
0000
1000
0001
,
0100
0100
0100
0000
0010
0010
0010
0000
,
0100
0100
1000
0100
0001
0000
0010
0100
,
1000
0000
0010
0000
0100
0000
0001
0000
0010
0000
0000
0010
0100
0000
0001
0000
,
0100
0000
1000
0000
0010
0000
0100
0000
1000
0000
0000
0100
0001
0000
0010
0000
,
0100
0000
0001
0000
0100
0000
1000
0000
0010
0000
0000
0100
0001
0000
0100
0000
,
1000
0000
0100
0000
0001
0000
0010
0000
0100
1000
0100
0000
0110
0000
0000
0000
,
0001
0000
0100
0000
1000
0000
0100
0000
0001
0000
0000
0001
0010
0000
0000
0000
,
0100
0000
1000
0000
0100
0000
0010
0000
0001
0000
0000
0001
0100
0000
0000
0000
,
1000
0000
0100
0000
0001
0000
1000
0000
0010
0000
0000
0010
0100
0000
0000
0000
,
1000
0000
0100
0000
0001
0000
1000
0000
0100
0001
0100
0000
1000
0010
1000
0000
,
1001
0000
0100
0000
1000
0000
0100
0000
0010
0000
0000
0010
1000
0000
0000
0000
,
0100
0000
0001
0000
0100
0000
1000
0000
0001
0000
0000
0100
1000
0000
0000
0000
,
0100
0000
0010
0000
1000
0000
0001
0000
0010
0000
0000
0010
0100
0000
0000
0000
,
1000
0000
0001
0000
0100
0000
0010
0000
1000
0100
1000
0000
0001
0010
0001
0000
,
1010
0000
0010
0000
1000
0000
0001
0000
0010
0000
0000
0001
0100
0000
0010
0000
,
1000
0000
0100
0000
0010
0000
0100
0000
0001
0000
0000
0100
1000
0000
0010
0000
,
0100
0000
1000
0000
0100
0000
0001
0000
0010
0000
0000
0010
0001
0000
0100
0000
,
1000
0000
0100
0000
0001
0000
1000
0000
0001
0100
0001
0000
0100
0000
0000
0000
,
1010
1000
1100
0000
0110
0100
0101
0000
,
0010
0001
0100
1000
0100
0001
0010
0100
,
1100
0100
0110
0000
0011
0010
0110
0000
,
1000
0001
0100
1000
0100
0001
1000
0100
,
0110
0100
0101
0000
1100
0100
0110
0000
,
0001
0100
1000
0100
0001
0010
0100
1000
,
1010
0010
0011
0000
0011
0100
1100
0000
,
0010
0100
1000
0100
0001
1000
0100
0010
,
0002
0010
0000
1000
0000
0100
0000
0010
,
2003
0100
0000
0010
0000
0100
0000
0001
,
3020
0001
0000
0100
0000
1000
0000
0100
,
2030
0100
0000
0010
3002
0010
0000
0100
,
1003
0000
0010
0000
0100
0010
0100
0000
0000
0000
0001
1000
0010
0000
0100
0000
,
0001
0000
0010
0000
0001
0010
0001
0000
0000
0000
1000
0100
0001
0000
0100
0000
,
1000
0000
0010
0000
0100
0010
0100
0000
0000
0000
0001
0100
1000
0000
0100
0000
,
0010
1000
0010
0000
0100
0000
0001
0000
1000
0100
0001
0000
0100
0000
1000
0000
,
0010
0100
0001
0100
1000
0000
0100
0000
,
0001
0010
1000
0010
0001
0000
0100
0000
,
0001
1000
0100
0001
0100
0000
1000
0000
,
0001
0100
0001
1000
0100
0100
0100
0000
,
0001
0100
0010
0001
1000
0000
0010
0000
,
0100
0001
0100
1000
0100
0000
0010
0000
,
1000
0100
0010
0001
0100
0000
0001
0000
,
0100
0010
1000
0100
0010
0001
0100
0010
,
1000
0000
0100
0000
0010
0000
0001
0000
0000
0000
0000
0010
0100
0000
1000
0000
,
0100
0000
0010
0000
0001
0000
0010
0000
0000
0000
0000
0001
0010
0000
0100
0000
,
1000
0000
0100
0000
0010
0000
0100
0000
0000
0000
0000
1000
0001
0000
0010
0000
,
0100
0001
0100
1000
0010
0010
1000
1000
,
0100
0000
0001
0000
0100
0000
1000
0000
0000
0000
0000
0010
0100
0000
1000
0000
,
0100
0000
0001
0000
0010
0000
0001
0000
0000
0000
0000
0100
0001
0000
1000
0000
,
0100
0000
0010
0000
0001
0000
0100
0000
0000
0000
0000
0010
1000
0000
0100
0000
,
0010
0001
0100
1000
0100
0001
1000
0100
,
0010
0000
0000
0010
0001
0000
0100
0000
0010
1000
0010
0000
1000
0000
0100
0000
,
0010
0000
0000
0010
0001
0000
1000
0000
0120
0000
0100
0000
0130
0000
0000
0000
,
1001
0000
1000
0010
1000
0000
0100
0000
0110
0000
0010
0001
0010
0000
0100
0000
,
1000
0010
0001
0010
1000
0100
0010
0001
,
1001
0000
0100
0010
0100
0000
0001
0000
1010
0000
0100
0001
0100
0000
0010
0000
,
1000
0100
0010
0001
0100
1000
0100
0001
,
0011
0000
1000
0100
1000
0000
0010
0000
0101
0000
0010
0100
0010
0000
0001
0000
,
0100
1000
0100
0010
1000
0100
0010
0001
,
1100
0000
0010
0001
0010
0000
0100
0000
1010
0000
0100
0001
0100
0000
0010
0000
,
1000
0100
0010
0001
0010
0100
1000
0010
,
1100
0000
0001
0100
0010
0000
1000
0000
0110
0000
0001
0100
1000
0000
0100
0000
,
0001
1000
0100
0010
0100
1000
0010
0100
,
0101
0000
0010
1000
0100
0000
0010
0000
1001
0000
0100
0010
0001
0000
0100
0000
,
0010
1000
0100
0001
0100
1000
0010
0100
,
1100
0000
0001
0010
0100
0000
1000
0000
0101
0000
1000
0100
0010
0000
0100
0000
,
0001
0010
0001
1000
0100
0010
0001
1000
,
0010
0000
0000
0000
;

//---------------dance-single - ----------------
#NOTEDATA:;
#CHARTNAME:;
#STEPSTYPE:dance-single;
#DESCRIPTION:;
#CHARTSTYLE:;
#DIFFICULTY:Challenge;
#METER:11;
#RADARVALUES:0.397244,0.422282,0.117300,0.013800,0.010350,403.000000,386.000000,17.000000,2.000000,236.000000,0.000000,0.000000,0.000000,0.000000,0.397244,0.422282,0.117300,0.013800,0.010350,403.000000,386.000000,17.000000,2.000000,236.000000,0.000000,0.000000,0.000000,0.000000;
#CREDIT:;
#NOTES:
// measure 0
0000
0000
0000
0000
,  // measure 1
0000
0000
0000
0000
,  // measure 2
0000
0000
0000
0000
,  // measure 3
0000
0000
0000
0000
,  // measure 4
1000
1000
1000
0000
0001
0001
0001
0000
,  // measure 5
1000
1000
0010
0100
0010
0000
0100
0001
,  // measure 6
0010
0010
0010
0000
0001
0001
0001
0000
,  // measure 7
1000
1000
1000
0001
0100
0000
0010
1000
,  // measure 8
0100
1000
0010
0100
0010
0000
0100
0000
,  // measure 9
0001
1000
0001
0010
0100
0000
MMMM
0000
,  // measure 10
1000
0010
0100
0010
0100
0000
0001
0000
,  // measure 11
0010
0100
0010
0001
0100
0100
0010
MMMM
,  // measure 12
0001
1000
0100
1000
0010
0000
0100
0000
,  // measure 13
1000
0100
0001
1000
0100
0000
MMMM
0000
,  // measure 14
0001
0010
1000
0100
1000
0000
0100
0000
,  // measure 15
0010
1000
0010
0100
0001
0010
0001
MMMM
,  // measure 16
0010
1000
0001
0010
0001
0000
0100
0000
,  // measure 17
0001
0100
1000
0100
0010
0000
MMMM
0000
,  // measure 18
0010
0100
0001
0100
0010
0000
1000
0000
,  // measure 19
0100
1000
0010
0100
0001
0010
0001
MMMM
,  // measure 20
0001
1000
0010
0100
0010
0000
1000
0000
,  // measure 21
0100
0001
0100
1000
0010
0000
MMMM
0000
,  // measure 22
0010
1000
0010
0100
0001
0000
0100
0000
,  // measure 23
1000
0100
0010
1000
0001
0000
0010
0000
,  // measure 24
1001
MMMM
0110
0000
1001
MMMM
0110
0000
,  // measure 25
0100
0010
0100
0001
0100
0010
0100
0000
,  // measure 26
1010
MMMM
0110
0000
0110
MMMM
0101
0000
,  // measure 27
1000
0100
0010
0100
1000
0100
0010
0000
,  // measure 28
0101
MMMM
1001
0000
0101
MMMM
0110
0000
,  // measure 29
0100
0001
0100
1000
0100
0001
0010
0000
,  // measure 30
1100
MMMM
0110
0000
0011
MMMM
0110
0000
,  // measure 31
1000
0100
0001
0010
1000
0100
1000
0010
,  // measure 32
MMMM
0001
0000
0001
0000
0001
0000
0001
,  // measure 33
MMMM
1000
0000
1000
0000
1000
0000
1000
,  // measure 34
MMMM
0010
0000
0010
0000
0010
0000
0010
,  // measure 35
MMMM
0100
0000
0100
MMMM
0010
0000
0010
,  // measure 36
MMMM
1000
0000
1000
0000
1000
0000
1000
,  // measure 37
MMMM
0001
0000
0001
0000
0001
0000
0001
,  // measure 38
MMMM
0100
0000
0100
0000
0100
0000
0100
,  // measure 39
MMMM
0010
0000
0010
MMMM
1000
0000
1000
,  // measure 40
0010
0100
0001
0100
1000
0000
0100
0000
,  // measure 41
0001
0010
1000
0010
0001
0000
MMMM
0000
,  // measure 42
0001
1000
0100
0001
0100
0000
1000
0000
,  // measure 43
0001
0100
0001
1000
0100
0100
0100
MMMM
,  // measure 44
1000
0100
0010
0001
1000
0000
0010
0000
,  // measure 45
0100
0001
0100
1000
0100
0000
MMMM
0000
,  // measure 46
1000
0100
0010
0001
0100
0000
0001
0000
,  // measure 47
0100
0010
1000
0100
0010
0001
0100
0010
,  // measure 48
1000
0000
MMMM
0001
0100
0000
MMMM
0000
,  // measure 49
0001
0010
MMMM
1000
0100
0000
MMMM
0000
,  // measure 50
1000
0000
MMMM
0010
0100
0000
MMMM
0000
,  // measure 51
0001
0000
MMMM
0000
0100
1000
0100
0001
,  // measure 52
0100
0000
MMMM
0001
0100
0000
MMMM
0000
,  // measure 53
0001
1000
MMMM
0100
1000
0000
MMMM
0000
,  // measure 54
0010
0000
MMMM
0100
0001
0000
MMMM
0000
,  // measure 55
1000
0000
MMMM
0001
0100
0000
MMMM
0000
,  // measure 56
0010
0000
0000
0010
0001
0000
0100
0000
0010
1000
0010
0000
1000
0000
0100
0000
,  // measure 57
0010
0000
0000
0010
0001
0000
1000
0000
0220
0000
0330
0000
MMMM
0000
0000
0000
,  // measure 58
1000
0100
0010
MMMM
0001
0010
0100
MMMM
,  // measure 59
1000
0010
0100
0001
0010
0100
1000
0001
,  // measure 60
0100
1000
0100
MMMM
0010
0001
0010
MMMM
,  // measure 61
1000
0100
0010
0001
1000
0010
0100
0001
,  // measure 62
1000
0001
0010
MMMM
0100
1000
0010
MMMM
,  // measure 63
0100
0001
1000
0100
0010
0100
0001
0100
,  // measure 64
1000
0010
0100
MMMM
0001
0100
0010
MMMM
,  // measure 65
1000
0100
0010
0001
0100
0010
1000
0001
,  // measure 66
0010
0001
0100
MMMM
0010
1000
0100
MMMM
,  // measure 67
1000
0001
0100
0010
1000
0100
0001
0100
,  // measure 68
1000
0010
0001
MMMM
0010
0100
1000
MMMM
,  // measure 69
0100
0001
0100
1000
0100
0001
0010
0100
,  // measure 70
1000
0100
0001
MMMM
0100
0010
0001
MMMM
,  // measure 71
0100
1000
0001
0010
1000
MMMM
0001
0000
,  // measure 72
0100
0000
0000
0000
;

//---------------dance-double - ----------------
#NOTEDATA:;
#CHARTNAME:;
#STEPSTYPE:dance-double;
#DESCRIPTION:;
#CHARTSTYLE:;
#DIFFICULTY:Easy;
#METER:5;
#RADARVALUES:0.216858,0.223561,0.144901,0.020700,0.000000,220.000000,199.000000,21.000000,3.000000,0.000000,0.000000,0.000000,0.000000,0.000000,0.216858,0.223561,0.144901,0.020700,0.000000,220.000000,199.000000,21.000000,3.000000,0.000000,0.000000,0.000000,0.000000,0.000000;
#CREDIT:;
#NOTES:
00000000
00000000
00000000
00000000
,
00000000
00000000
00000000
00000000
,
00000000
00000000
00000000
00000000
,
00000000
00000000
00000000
00000000
,
00001000
00001000
00000001
00000001
,
00001000
00000100
00002000
00000000
,
00003100
00000100
00010000
00010000
,
00001000
00010000
00002000
00000000
,
00103000
00010000
01000000
00100000
,
10000000
01000000
00100000
00000000
,
00010000
00100000
00001000
00010000
,
00001000
00010000
00000100
00000010
,
00000001
00001000
00000001
00000100
,
00000010
00001000
00000100
00000000
,
00010000
00001000
00100000
00010000
,
01000000
00100000
10000000
10000000
,
00010000
01000000
00010000
00100000
,
00010000
01000000
00001000
00000000
,
00010000
00001000
00000100
00000010
,
00000100
00000001
00001000
00000001
,
00001000
00000100
00001000
00000010
,
00001000
00000100
00010000
00000000
,
00001000
00100000
00010000
00100000
,
00010000
01000000
00100000
00000000
,
10010000
00000000
00011000
00000000
,
00010000
00001000
00000100
00000000
,
00000101
00000000
00000011
00000000
,
00000010
00000100
00001000
00000000
,
00011000
00000000
00110000
00000000
,
10000000
01000000
00100000
00000000
,
00110000
00000000
00011000
00000000
,
00010000
00001000
00000100
00000000
,
00001001
00000000
00000000
00000000
,
00001100
00000000
00000000
00000000
,
00110000
00000000
00000000
00000000
,
00001100
00000000
00011000
00000000
,
00110000
00000000
00000000
00000000
,
10100000
00000000
00000000
00000000
,
01010000
00000000
00000000
00000000
,
00011000
00000000
00001100
00000000
,
00000001
00000000
00001000
00000000
,
00000001
00000000
00001000
00000000
,
00000100
00000000
00010000
00000000
,
00000100
00000000
00010000
00001000
,
00100000
00000000
01000000
00000000
,
00100000
00000000
01000000
00000000
,
10000000
00000000
00010000
00000000
,
01000000
00000000
00010000
00000000
,
10000000
00000000
00010000
00000000
,
00100000
00010000
00001000
00000000
,
00000100
00000000
00001000
00000000
,
00000010
00000000
00000100
00000001
,
00001000
00000000
00000100
00000000
,
00001000
00000000
00000100
00000000
,
00010000
00000000
00001000
00000000
,
00010000
00000000
00001000
00000000
,
00101000
00000000
00110000
00000000
,
10010000
00000000
02000000
00000000
,
03010000
10000000
00010000
10000000
,
01000000
00100000
01000000
00100000
,
00010000
00010000
01000000
01000000
,
00010000
00001000
00000010
00001000
,
00000001
00000001
00001000
00001000
,
00000100
00001000
00000010
00001000
,
00000100
00000100
00010000
00010000
,
00001000
00100000
00010000
01000000
,
00100000
00100000
01000000
01000000
,
00010000
00001000
00000010
00001000
,
00000100
00000100
00000010
00000010
,
00000001
00001000
00000100
00010000
,
00001000
00001000
00100000
00100000
,
01000000
10000000
00100000
01000000
,
00010000
00000000
00000000
00000000
;

//---------------dance-double - ----------------
#NOTEDATA:;
#CHARTNAME:;
#STEPSTYPE:dance-double;
#DESCRIPTION:;
#CHARTSTYLE:;
#DIFFICULTY:Medium;
#METER:7;
#RADARVALUES:0.282901,0.322921,0.131100,0.020700,0.000000,287.000000,268.000000,19.000000,3.000000,0.000000,0.000000,0.000000,0.000000,0.000000,0.282901,0.322921,0.131100,0.020700,0.000000,287.000000,268.000000,19.000000,3.000000,0.000000,0.000000,0.000000,0.000000,0.000000;
#CREDIT:;
#NOTES:
00000000
00000000
00000000
00000000
,
00000000
00000000
00000000
00000000
,
00000000
00000000
00000000
00000000
,
00000000
00000000
00000000
00000000
,
00000010
00001000
00000010
00000000
00001000
00000100
00001000
00000000
,
00000100
00010000
00000100
00000000
00100000
00010000
00100000
00000000
,
01000000
10000000
00100000
00000000
01000000
00010000
00100000
00000000
,
00010000
01000000
00100000
00000000
20000000
00000000
00000000
00000000
,
30010000
00100000
00010000
01000000
,
00010000
00100000
00010000
00000000
00001000
00000000
00000100
00000000
,
00001000
00000010
00000100
00000001
,
00000010
00000100
00001000
00000000
00000010
00000010
00000010
00000000
,
00010000
00001000
00100000
00010000
,
10000000
01000000
00100000
00000000
00010000
00000000
01000000
00000000
,
00000100
00010000
00000100
00001000
,
00000010
00000100
00000001
00000000
00001000
00001000
00001000
00000000
,
00000010
00001000
00000100
00010000
,
00001000
00100000
00001000
00000000
00010000
00000000
00001000
00000000
,
00100000
00010000
10000000
01000000
,
00100000
00010000
01000000
00000000
00001000
00010000
00000100
00000000
,
00001000
00000001
00000010
00000001
,
00001000
00000100
00010000
00000000
00000100
00000000
00001000
00000000
,
00000100
00010000
00001000
00000000
00100000
00000000
01000000
00000000
,
10000000
00100000
01000000
00000000
00010000
00000000
00100000
00000000
,
00110000
00000000
00011000
00000000
,
00011000
00000100
00001100
00000000
,
00000011
00000000
00001010
00000000
,
00001100
00001000
00011000
00000000
,
00110000
00000000
11000000
00000000
,
00110000
00001000
00001010
00000000
,
00000101
00000000
00001100
00000000
,
00010100
00001000
01010000
00000000
,
10000000
00000000
00000000
00000000
,
00001000
00000000
00000000
00000000
,
00100000
00000000
00000000
00000000
,
00000010
00000000
00010000
00000000
,
10000000
00000000
00000000
00000000
,
00010000
00000000
00000000
00000000
,
00001000
00000000
00000000
00000000
,
01000000
00000000
00001000
00000000
,
00010000
00001000
00010000
00000100
,
00010000
00001000
00100000
00000000
,
01000000
10000000
00010000
00100000
,
00001000
00100000
00010000
01000000
,
00001000
00010000
00000100
00001000
,
00000001
00001000
00000010
00000000
,
00001000
00000100
00010000
00001000
,
00100000
00001000
00010000
00001000
,
00100000
01000000
10000000
00000000
,
00010000
01000000
00010000
00000000
10000000
00000000
00000000
00000000
,
00010000
00001000
00000100
00000010
,
00000001
00000000
00000100
00000000
00000010
00001000
00000010
00001000
,
00000010
00010000
00001000
00100000
,
00010000
10000000
00010000
00000000
01000000
00000000
00000000
00000000
,
00010000
00001000
00000001
00000100
,
00000010
00001000
00000010
00000000
00000100
00000000
00000001
00000000
,
00001001
00000000
00000110
00000000
,
00001000
00010000
20020000
30030000
,
10000000
01000000
00100000
00000000
01000000
10000000
00100000
00000000
,
01000000
00010000
00001000
00000010
,
00001000
00000100
00010000
00000000
00000100
00001000
00000010
00000000
,
00000100
00000001
00000010
00000100
,
00001000
00010000
00100000
00000000
00010000
00100000
00001000
00000000
,
00010000
00001000
00100000
01000000
,
10000000
00100000
01000000
00000000
00010000
00100000
00001000
00000000
,
00010000
00000100
00001000
00000010
,
00000100
00000001
00000010
00000000
00000100
00001000
00000010
00000000
,
00001000
00000100
00010000
00001000
,
00100000
00010000
00001000
00000000
00001000
00010000
00100000
00000000
,
01000000
10000000
00100000
01000000
,
00010000
00100000
01000000
00000000
01000000
00100000
00010000
00000000
,
00001000
00000010
00000100
00000001
,
00001000
00000000
00000000
00000000
;

//---------------dance-double - ----------------
#NOTEDATA:;
#CHARTNAME:;
#STEPSTYPE:dance-double;
#DESCRIPTION:;
#CHARTSTYLE:;
#DIFFICULTY:Hard;
#METER:11;
#RADARVALUES:0.491873,0.496802,0.303601,0.069000,0.058650,499.000000,455.000000,44.000000,10.000000,0.000000,0.000000,0.000000,0.000000,0.000000,0.491873,0.496802,0.303601,0.069000,0.058650,499.000000,455.000000,44.000000,10.000000,0.000000,0.000000,0.000000,0.000000,0.000000;
#CREDIT:;
#NOTES:
00000000
00000000
00000000
00000000
,
00000000
00000000
00000000
00000000
,
00000000
00000000
00000000
00000000
,
00000000
00000000
00000000
00000000
,
00001000
00001000
00001000
00000000
00000100
00000100
00000100
00000000
,
00010000
00001000
00100000
00010000
01000000
00000000
00100000
10000000
,
01000000
01000000
01000000
00000000
10000000
10000000
10000000
00000000
,
01000000
00100000
00010000
00001000
00000100
00000000
00001000
00000010
,
00000100
00000000
00000001
00000000
00001000
00000000
00000100
00000000
00001000
00000000
00000000
00001000
00000100
00000000
00001000
00000000
,
00000100
00000000
00010000
00000000
00001000
00000000
00100000
00000000
00010000
00000000
00000000
00010000
00100000
00000000
00010000
00000000
,
01000000
00001000
00010000
00000100
00000010
00000000
00000001
00000000
,
00000100
00000000
00000010
00000000
00001000
00000000
00000100
00000000
00000010
00000001
00000010
00000000
00000100
00000000
00000000
00000000
,
00001000
00000000
00000100
00000000
00010000
00000000
00001000
00000000
00100000
00000000
00000000
00100000
00010000
00000000
01000000
00000000
,
00100000
00000000
10000000
00000000
01000000
00000000
00100000
00000000
00010000
00000000
00000000
00100000
00010000
00000000
00100000
00000000
,
00001000
00000000
00010000
00000000
00000100
00000000
00001000
00000000
00000010
00000000
00000000
00001000
00000100
00000000
00001000
00000000
,
00000010
00000100
00000001
00000010
00000100
00000100
00001000
00001000
,
00010000
00000000
00100000
00000000
00010000
00000000
01000000
00000000
00100000
00000000
00000000
00100000
10000000
00000000
01000000
00000000
,
00100000
00000000
00010000
00000000
01000000
00000000
00001000
00000000
00010000
00000000
00000000
00000100
00001000
00000000
00000100
00000000
,
00000010
00000000
00000001
00000000
00001000
00000000
00000010
00000000
00000100
00000000
00000000
00000001
00000010
00000000
00000100
00000000
,
00001000
00000100
00010000
00001000
00100000
00100000
01000000
01000000
,
10000000
00000000
00010000
00000000
00100000
00000000
00010000
00000000
01000000
00000000
00000000
01000000
00001000
00000000
00010000
00000000
,
00001000
00000000
00010000
00000000
00000100
00000000
00001000
00000000
00000010
00000000
00000000
00000100
00000001
00000000
00000010
00000000
,
00000100
00000000
00001000
00000000
00000100
00000000
00000010
00000000
00000100
00000000
00000000
00001000
00000100
00000000
00010000
00000000
,
00001000
00000000
00100000
00000000
00010000
00000000
00100000
00000000
01000000
00100000
01000000
00000000
00100000
00000000
00000000
00000000
,
01010000
00010000
00110000
00000000
00110000
00010000
00011000
00000000
,
00001000
00000100
00000010
00000001
00000100
00000000
00000010
00000000
,
00001100
00000100
00000110
00000000
00000011
00000100
00001100
00000000
,
00001000
00010000
00100000
00010000
10000000
01000000
10000000
00100000
,
01100000
01000000
01010000
00000000
00011000
00010000
00000110
00000000
,
00000010
00000001
00000100
00000010
00001000
00000100
00001000
00010000
,
00110000
00010000
01010000
00000000
01010000
01000000
01100000
00000000
,
10000000
01000000
00100000
00010000
00100000
00001000
00010000
00000100
,
00000020
00000001
00000000
00000001
00000000
00000001
00000000
00000001
,
00000230
00001000
00000000
00000010
00000000
00001000
00000000
00001000
,
00020300
00001000
00000000
00000100
00000000
00001000
00000000
00100000
,
00032000
00100000
00000000
01000000
00023000
00000100
00000000
00000010
,
00032000
00100000
00000000
01000000
00000000
00100000
00000000
00010000
,
00203000
00010000
00000000
00001000
00000000
00010000
00000000
00000100
,
00302000
00010000
00000000
00000100
00000000
00010000
00000000
00000100
,
00023000
00000100
00000000
00001000
00030020
00000100
00000000
00001000
,
00001030
00000100
00001000
00000100
,
00001000
00010000
00100000
01000000
10000000
00000000
01000000
00000000
,
10000000
00100000
01000000
00010000
,
10000000
01000000
00100000
00010000
00100000
00001000
00010000
00000000
,
00000100
00001000
00000100
00001000
,
00000100
00001000
00000010
00000100
00000001
00000000
00000010
00000000
,
00000100
00001000
00000010
00000100
,
00000001
00000010
00000100
00001000
00010000
00100000
01000000
10000000
,
00100000
01000000
00010000
00100000
00010000
00000000
01000000
00000000
,
00010000
00001000
00000100
00000010
00000001
00000000
00000100
00000000
,
00000010
00001000
00000001
00000010
00000100
00000000
00001000
00000000
,
00000010
00000100
00000010
00000100
00000001
00000010
00000100
00001000
,
00010000
01000000
00010000
10000000
01000000
00000000
00100000
00000000
,
00010000
00001000
00000100
00000010
00000001
00000000
00001000
00000000
,
00000010
00000100
00000001
00001000
00000100
00000000
00010000
00000000
,
00001000
00100000
00010000
10000000
00100000
00000000
01000000
00000000
,
00010000
00000000
00000000
00010000
10000000
00000000
01000000
00000000
00100000
00010000
00100000
00000000
00010000
00000000
00100000
00000000
,
00001000
00000000
00000000
00001000
00010000
00000000
00000100
00000000
00001000
00000010
00001000
00000000
00000001
00000000
00000000
00000000
,
00001100
00000100
00000110
00000000
00001100
00000100
00000110
00000000
,
00001000
00000100
00010000
00001000
00100000
00010000
10000000
00100000
,
01100000
00100000
01100000
00000000
01100000
01000000
01100000
00000000
,
00100000
00010000
00001000
00000100
00000010
00000001
00001000
00000010
,
00000110
00000010
00000110
00000000
00000011
00000001
00001001
00000000
,
00001000
00000100
00010000
00001000
00100000
00010000
10000000
00100000
,
01100000
00100000
01100000
00000000
01010000
00010000
00011000
00000000
,
00001000
00000100
00000010
00000001
00001000
00000010
00000100
00000010
,
00001010
00000010
00000110
00000000
00001100
00000100
00000110
00000000
,
00001000
00000100
00010000
00001000
00100000
00010000
10000000
00100000
,
01100000
01000000
01010000
00000000
00110000
00001000
00010100
00000000
,
00001000
00000100
00000010
00000001
00000100
00000010
00001000
00000100
,
00001100
00001000
00110000
00000000
00110000
00100000
11000000
00000000
,
10000000
00010000
01000000
00001000
00010000
00000000
00001000
00000000
,
00010000
00000000
00000000
00000000
;

//---------------dance-double - ----------------
#NOTEDATA:;
#CHARTNAME:;
#STEPSTYPE:dance-double;
#DESCRIPTION:;
#CHARTSTYLE:;
#DIFFICULTY:Challenge;
#METER:11;
#RADARVALUES:0.420902,0.471962,0.407102,0.000000,0.013800,427.000000,368.000000,59.000000,0.000000,368.000000,0.000000,0.000000,0.000000,0.000000,0.420902,0.471962,0.407102,0.000000,0.013800,427.000000,368.000000,59.000000,0.000000,368.000000,0.000000,0.000000,0.000000,0.000000;
#CREDIT:;
#NOTES:
00000000
00000000
00000000
00000000
,
00000000
00000000
00000000
00000000
,
00000000
00000000
00000000
00000000
,
00000000
00000000
00000000
00000000
,
00001000
00001000
00001000
00000000
00010000
00010000
00010000
00000000
,
10000000
01000000
00100000
00010000
00100000
00000000
01000000
10000000
,
00100000
00100000
00100000
00000000
00010000
00010000
00010000
00000000
,
00000100
00001000
00000010
00000100
00000001
00000000
00001000
00000100
,
00010000
00001000
00100000
01000000
10000000
00000000
00100000
00000000
,
01000000
00010000
00100000
00001000
00010000
00000000
MMMMMMMM
00000000
,
00000100
00001000
00000010
00000100
00000001
00000000
00000010
00000000
,
00000100
00001000
00010000
00100000
00001000
00001000
00010000
MMMMMMMM
,
00001000
00100000
01000000
10000000
00100000
00000000
01000000
00000000
,
00010000
00001000
00000010
00001000
00000001
00000000
MMMMMMMM
00000000
,
00000010
00001000
00000100
00010000
00001000
00000000
00100000
00000000
,
00010000
10000000
00010000
00100000
01000000
00100000
00001000
MMMMMMMM
,
00010000
00000100
00000001
00000100
00000010
00000000
00001000
00000000
,
00010000
00001000
00010000
00000100
00010000
00000000
MMMMMMMM
00000000
,
00001000
01000000
00100000
01000000
00010000
00000000
00100000
00000000
,
00010000
00001000
00000010
00000100
00000001
00000001
00000100
MMMMMMMM
,
00000001
00000010
00000100
00001000
00010000
00000000
00100000
00000000
,
00001000
00010000
00000100
00010000
00001000
00000000
MMMMMMMM
00000000
,
01000000
10000000
00010000
00100000
00010000
00000000
01000000
00000000
,
00001000
00010000
00000010
00000100
00000001
00000000
MMMMMMMM
00000000
,
00001100
MMMMMMMM
00000110
00000000
00001100
MMMMMMMM
00000110
00000000
,
00001000
00000100
00010000
00001000
00100000
00000000
MMMMMMMM
00000000
,
11000000
MMMMMMMM
00110000
00000000
11000000
MMMMMMMM
00110000
00000000
,
10000000
01000000
00100000
00010000
00001000
00000000
MMMMMMMM
00000000
,
00000101
MMMMMMMM
00001010
00000000
00001100
MMMMMMMM
00001010
00000000
,
00001000
00000100
00010000
00001000
00100000
00000000
MMMMMMMM
00000000
,
11000000
MMMMMMMM
00110000
00000000
11000000
MMMMMMMM
10100000
00000000
,
01000000
00010000
00100000
00001000
00010000
00000000
MMMMMMMM
00000000
,
00100000
00010000
00000000
00010000
00000000
10000000
00000000
10000000
,
MMMMMMMM
01000000
00000000
01000000
00000000
00010000
00000000
00010000
,
MMMMMMMM
00001000
00000000
00001000
00000000
00000010
00000000
00000010
,
MMMMMMMM
00000100
00000000
00000100
MMMMMMMM
00001000
00000000
00001000
,
MMMMMMMM
00000001
00000000
00000001
00000000
00001000
00000000
00001000
,
MMMMMMMM
00010000
00000000
00010000
00000000
10000000
00000000
10000000
,
MMMMMMMM
00100000
00000000
00100000
00000000
00010000
00000000
00010000
,
MMMMMMMM
00000100
00000000
00000100
MMMMMMMM
00001000
00000000
00001000
,
00000001
00001000
00000001
00000100
00000010
00000000
00001000
00000000
,
00000100
00001000
00000100
00001000
00000010
00000000
MMMMMMMM
00000000
,
00000100
00010000
00000100
00010000
00001000
00000000
00100000
00000000
,
00010000
01000000
00010000
01000000
00100000
00100000
10000000
00000000
,
01000000
00100000
01000000
00100000
00010000
00000000
00010000
00000000
,
01000000
00010000
01000000
00010000
00001000
00000000
MMMMMMMM
00000000
,
00000100
00001000
00000100
00001000
00000010
00000000
00000100
00000000
,
00000001
00001000
00000001
00001000
00000100
00000010
00000100
00000000
,
00001000
00000000
MMMMMMMM
00000100
00001000
00000000
00000100
00000000
,
00100000
00010000
00001000
00000010
00000100
00000000
00001001
00000000
,
00001000
00000000
MMMMMMMM
00000100
00001000
00000000
00000100
00000000
,
00010000
00001000
00100000
00010000
01000000
00000000
00011000
00000000
,
00001000
00000000
MMMMMMMM
00000001
00000100
00000000
00000010
00000000
,
00001000
00010000
00100000
00001000
00010000
00000000
00011000
00000000
,
00100000
00000000
MMMMMMMM
00010000
10000000
00000000
01000000
00000000
,
00100000
01000000
10000000
00010000
00100000
00001000
00010000
00000100
,
00001000
00000000
00000000
00001000
00000100
00000000
00000010
00000000
00000001
00000100
00000001
00000000
00000100
00000000
00000010
00000000
,
00001000
00000000
00000000
00001000
00010000
00000000
00100000
00000000
00010000
10000000
00010000
00000000
MMMMMMMM
00000000
00000000
00000000
,
11000000
MMMMMMMM
00110000
00000000
01010000
MMMMMMMM
10010000
00000000
,
00110000
00101000
00011000
00010100
,
00001100
MMMMMMMM
00001001
00000000
00000110
MMMMMMMM
00000101
00000000
,
00000011
00001100
00011000
00110000
,
00101000
MMMMMMMM
00110000
00000000
01100000
MMMMMMMM
11000000
00000000
,
01010000
10100000
01010000
00011000
,
00010100
MMMMMMMM
00001100
00000000
00001010
MMMMMMMM
00000101
00000000
,
00001001
00001010
00001100
00011000
,
00110000
MMMMMMMM
10010000
00000000
11000000
MMMMMMMM
00110000
00000000
,
00101000
00011000
00010100
00001010
,
00000001
00000100
00000001
00000100
00000010
00000100
00000010
00000100
,
00001000
00010000
00001000
00100000
00010000
10000000
01000000
00100000
,
00010000
01000000
00010000
01000000
10000000
01000000
10000000
01000000
,
00010000
00100000
00001000
00010000
00000100
00000010
00000001
00001000
,
00000010
00000000
00000000
00000000
;
