#TITLE:Joyeuse;
#SUBTITLE:;
#ARTIST:ke-ji;
#TITLETRANSLIT:;
#SUBTITLETRANSLIT:;
#ARTISTTRANSLIT:;
#GENRE:;
#CREDIT:;
#BANNER:Joyeuse-bn.png;
#BACKGROUND:Joyeuse-bg.png;
#LYRICSPATH:;
#CDTITLE:;
#MUSIC:Joyeuse.mp3;
#OFFSET:0.280000;
#SAMPLESTART:25.132998;
#SAMPLELENGTH:15.000000;
#SELECTABLE:YES;
#BPMS:0.000000=260.000000
,28.000000=274.000000
;
#STOPS:
;
#BGCHANGES:-8.000=JoyeuseVVD-bg.png=1.000=0=0=1=====,
99999=-nosongbg-=1.000=0=0=0 // don't automatically add -songbackground-
;
#KEYSOUNDS:;
#ATTACKS:;

//---------------dance-single - ----------------
#NOTES:
     dance-single:
     :
     Beginner:
     4:
     0.181958,0.330211,0.150438,0.200584,0.000000,127.000000,112.000000,15.000000,20.000000,0.000000,0.000000,0.181958,0.330211,0.150438,0.200584,0.000000,127.000000,112.000000,15.000000,20.000000,0.000000,0.000000:
0000
0000
0000
0000
,
1001
0000
0000
0000
,
0000
0000
0000
0000
,
1001
0000
0000
0000
,
0000
0000
0000
0000
,
0110
0000
0000
0000
,
1001
0000
0000
0000
,
0110
0000
0000
0000
,
0000
0000
1010
0000
,
0000
0011
0000
0000
,
1010
0000
0000
1001
,
0000
0000
0011
0000
,
0000
0000
0000
0000
,
0000
0000
0000
0000
,
0000
0000
0100
0100
,
0010
0010
0000
0000
,
0000
0000
0000
0000
,
0000
0000
0001
0000
,
0000
0001
0000
0000
,
0001
0000
0000
0001
,
0000
1000
0000
0000
0000
0000
0000
1000
,
0000
0000
0000
0000
0000
1000
0000
0000
,
0000
0000
0000
1000
0000
0000
0010
0000
,
0000
0000
0010
0000
,
0000
0010
0000
0000
,
0010
0000
0000
0100
0000
0000
0000
0000
,
0000
0100
0000
0000
0000
0000
0000
0100
,
0000
0000
0000
0000
0000
0100
0000
0000
,
0002
0000
0000
2003
,
0000
0000
0000
3010
,
0000
0000
0000
0000
,
0002
0000
0000
0000
,
0103
0000
0000
0000
,
0000
2000
0000
0000
,
0000
3010
0000
0000
,
0000
0000
0002
0000
,
0000
0000
0103
0000
,
0000
0000
0000
0000
0000
0210
0000
0000
,
0000
0000
0000
0000
,
0000
0000
0000
0310
,
0000
0000
1000
0000
,
0000
0100
0000
0000
,
0001
0000
0000
0010
,
0000
0000
0100
0000
,
0000
0001
0000
0000
,
0001
0000
0000
1000
,
0000
0000
0100
0000
,
0000
0001
0000
0000
,
0010
0000
0000
0001
,
0000
0000
0100
0000
,
0000
0020
0000
0000
,
0030
0000
0000
0200
,
0000
0000
0300
0000
,
0000
0001
0000
0000
,
0000
1000
0000
0100
,
0000
1000
0000
0000
,
0000
0110
0000
0000
,
0000
0001
0000
0000
,
0000
0100
0000
0001
,
0000
0100
0000
0000
,
0000
1001
0000
0000
,
0000
0010
0000
0000
,
0000
1000
0000
0000
,
0000
1000
0000
0000
,
0000
0010
0000
0000
,
0000
0001
0000
0000
,
0000
0100
0000
0000
,
0000
0020
0000
0000
,
0000
0000
0000
0030
,
0000
0200
0000
0000
,
0000
0000
0000
0300
,
0000
0001
0000
0000
,
0000
0001
0000
0000
,
0000
0001
0000
0000
,
0000
1000
0000
0000
,
0000
0010
0000
0000
,
0000
0010
0000
0000
,
0000
0010
0000
0010
,
0000
0010
0000
0000
,
0000
1000
0000
1000
,
0000
1000
0000
0000
,
0000
0001
0000
0000
,
0000
1000
0000
0000
,
0000
0010
0000
0000
,
0000
0100
0000
0000
,
0000
0001
0000
0001
,
0000
0001
0000
0001
,
0000
1000
0000
1000
,
0000
2000
0000
0000
,
0000
3010
0000
0000
,
0000
0000
0000
0002
,
0000
0000
2003
0000
,
0000
0000
3010
0000
,
0000
0000
0000
0002
,
0000
0000
0000
0103
,
0000
0000
0000
0000
,
2000
0000
0000
0000
,
3010
0000
0000
0000
,
0000
0002
0000
0000
,
0000
0103
0000
0000
,
0000
0000
0000
0220
0000
0000
0000
0000
,
0000
0000
0000
0000
,
0000
0000
0000
0000
,
0000
0000
0000
0000
,
0000
0030
0000
0000
0000
0000
0000
0000
,
0000
0000
0310
0000
,
0000
0000
2002
0000
,
0000
0000
0000
0000
,
0000
0000
0003
0000
,
0000
3000
0010
0100
;

//---------------dance-single - ----------------
#NOTES:
     dance-single:
     :
     Easy:
     10:
     0.394004,0.495316,0.240700,0.300876,0.005015,275.000000,251.000000,24.000000,30.000000,0.000000,0.000000,0.394004,0.495316,0.240700,0.300876,0.005015,275.000000,251.000000,24.000000,30.000000,0.000000,0.000000:
0000
0000
0000
0000
,
1001
0000
0000
0000
,
0001
0010
0100
0000
,
1001
0000
0000
0000
,
1000
0100
0010
0000
,
0110
0000
0000
0000
,
1001
0000
0000
0000
,
0011
0000
0001
0000
,
1000
0000
1010
0000
,
0000
0011
0000
0000
,
1010
0000
0000
1100
,
0000
0000
0101
0000
,
0010
0100
1000
0100
,
0010
0001
1000
0001
,
1000
0010
0100
0100
,
0100
0000
0100
0000
0000
1000
0000
0000
,
0010
0000
0000
1000
0000
0000
0010
0000
,
0000
1000
0000
0000
0002
0000
0000
0000
,
0000
0010
0000
0000
,
0010
0000
0000
0100
,
0000
0203
0000
0000
0000
0000
0000
0001
,
0000
0000
0000
0000
0000
0001
0000
0000
,
0000
0000
0000
0010
0000
0000
0320
0000
,
0000
0000
0100
0000
,
0000
0100
0000
0000
,
1000
0000
0000
2030
0000
0000
0000
0000
,
0000
0100
0000
0000
0000
0000
0000
0100
,
0000
0000
0000
0000
0000
0010
0000
0000
,
3020
0000
0000
0230
,
0010
0000
0000
0010
0300
0000
0001
0000
,
0010
0100
1000
0000
,
0020
0000
0100
0000
0000
0100
0030
0000
,
0001
1000
0001
0100
,
0000
0000
2000
0000
0100
0000
0000
0100
,
3000
0001
0100
0001
,
0010
0000
0002
0100
,
0000
0100
0003
0000
1000
0000
0100
0000
,
1000
0000
0010
0000
0000
0220
0000
0000
,
0000
0000
0000
0000
0000
0030
0000
0000
,
0000
0000
0000
0310
,
1000
0100
1000
0000
,
1000
0001
0010
0100
,
0010
0000
0010
0001
,
0100
0010
1000
0000
,
1000
0001
0000
0001
,
0100
0000
0100
0010
,
1000
0100
0020
0000
,
0000
0031
0200
0000
,
0310
0002
0000
1003
,
0100
0010
0100
0001
,
1000
0200
0000
0000
,
0310
0000
0000
0002
,
0000
0000
1003
0000
,
0000
0001
0000
0000
,
0100
0001
0100
0010
,
1000
0100
0000
0100
,
0000
1001
0000
0110
,
0000
0000
0001
0000
0000
1000
0000
0000
,
1000
0000
0001
0000
0000
0010
0000
0000
,
0010
0100
0000
1000
,
0000
0011
0000
1100
,
0000
0000
1000
0000
0000
0100
0000
0000
,
0010
0001
0000
0100
,
0000
0000
0001
0000
0000
0010
0000
0000
,
0100
1000
0000
0010
,
0000
1100
0000
0010
,
0000
0101
0000
2000
,
0000
0020
0000
0000
,
0000
0000
0000
3000
,
0000
0230
0000
0000
,
0000
0000
0000
0000
,
0310
0000
0110
0000
0000
1000
0000
0000
,
0100
0000
0010
0000
0000
0001
0000
0000
,
0010
0100
0000
0100
,
0000
0002
0000
0010
,
0000
1003
0100
1000
,
0000
0010
0100
0010
,
0000
1100
0000
0011
,
0000
1100
0000
0001
,
0000
0100
0010
0100
,
1000
0100
0010
0100
,
0000
0001
0010
0001
,
0100
0010
0001
0010
,
0000
1000
1000
0100
,
0100
1000
1000
0010
,
0010
0100
0001
0100
,
0010
0100
0001
0100
,
0010
1000
0001
1000
,
0010
2000
0000
0000
,
0000
0000
3001
0000
0000
0010
0000
0000
,
0100
0000
0000
1000
0000
0000
0020
0000
,
0000
0000
0230
0010
,
0000
0010
0300
0000
0001
0000
0010
0000
,
0100
1000
0000
0020
,
0100
0000
0000
0100
0030
0000
0001
0000
,
1000
0001
0100
0000
,
2000
0000
0100
0000
0000
0100
3000
0000
,
0001
0100
0001
0010
,
0000
0000
0002
0000
0100
0000
0000
0100
,
0003
1000
0100
1000
,
0010
0000
0000
0220
0000
0000
0000
0000
,
0000
0000
0000
0000
,
0000
0000
0000
0000
,
0000
0000
0000
0000
,
0000
0030
0000
0000
0000
0000
0000
0000
,
0000
0000
0000
0000
0000
0000
0310
0000
0100
0000
0000
0000
,
0000
0000
2002
0000
,
0000
0000
0000
0000
,
0000
0000
0003
0000
,
0000
0000
3010
0110
;

//---------------dance-single - ----------------
#NOTES:
     dance-single:
     :
     Medium:
     13:
     0.614646,0.715457,0.340992,0.220642,0.025073,429.000000,395.000000,34.000000,22.000000,0.000000,0.000000,0.614646,0.715457,0.340992,0.220642,0.025073,429.000000,395.000000,34.000000,22.000000,0.000000,0.000000:
0000
0000
0000
0000
,
1001
0000
0000
0000
,
0001
0010
0100
1000
,
1001
0000
0000
0000
,
1000
0100
0010
0001
,
1001
1000
0010
1000
,
1001
0010
0100
0010
,
1001
0010
0100
0010
,
0100
0001
0011
0100
,
1000
1100
1000
0001
,
1001
0010
0100
0110
,
0001
0010
0110
0100
,
1000
0001
1000
0010
,
0100
0001
0100
0100
,
0010
1000
1100
1100
,
1001
0000
0101
0000
0000
1000
0000
0000
,
0001
0000
0000
1000
0000
0000
0001
0000
,
0000
1000
0000
0000
0001
0000
0000
0001
,
0100
0001
0100
0000
0000
0100
0001
0100
,
0001
0000
0000
0000
0000
0000
0001
0000
0010
0000
0001
0000
0010
0000
0000
0010
,
0000
0100
0000
0000
0100
1000
0100
1000
,
0000
0000
1000
0100
1000
0100
0000
0000
,
0100
0000
0010
0000
0100
0000
0010
0000
0000
0001
0000
0000
0010
0000
0000
0000
,
0000
0100
0001
0100
0001
0000
0000
0100
,
1000
0100
1000
0000
0000
0100
0001
0100
,
0001
0000
0000
0100
0000
0000
1000
0000
0000
0000
0000
0000
0010
0000
0001
0000
,
0010
0001
0000
0000
0010
1000
0010
1000
,
0000
0000
0010
0001
0010
0001
1000
0100
,
0002
0000
0000
0103
,
0010
0100
0000
0010
0100
0000
0001
0000
,
1000
0000
0100
0010
0001
1000
0000
0000
,
0001
0000
0010
0100
0000
0010
0100
0000
,
1000
0000
0100
0000
0010
0100
1000
0001
,
0000
0000
0100
0000
1000
0100
0000
1000
,
0100
0000
0010
0000
1000
0000
0100
0001
,
0100
0010
0000
0000
0100
0000
0001
0100
,
0000
0001
0100
0000
0010
0000
0001
0000
,
0100
1000
0100
0010
0000
2002
0000
0000
,
0000
0000
0000
0000
,
0000
3003
0000
1001
,
0100
1000
0010
0100
,
0010
0101
0001
0010
,
0100
1000
0100
0011
,
0001
0010
0001
0000
1000
0000
0100
1000
,
0100
0020
0000
0100
,
0130
0000
0000
1000
0001
0000
0001
0000
,
0010
0000
0100
0000
1000
0000
0010
0001
,
0010
0000
0100
0000
0010
1000
0010
0000
,
0100
0010
0010
1000
,
0001
0100
0010
1000
,
0001
0000
0010
0001
0010
0001
0010
0001
,
0020
0000
0000
0000
0000
0000
0130
1000
,
0100
1000
0100
1000
0200
0000
0000
0000
,
0300
0002
0000
0000
,
1003
0100
0001
0010
,
0100
0002
0000
1000
,
0000
0103
0000
1010
,
0000
0000
0020
0000
0000
0031
0000
0000
,
0010
0000
2000
0000
0000
3100
0000
0000
,
0010
0002
0000
0100
,
0003
1002
0000
0013
,
0000
0000
2100
0000
0000
0010
3000
0000
,
0100
0010
0010
0100
,
0000
0000
1002
0000
0000
0010
0003
0000
,
0100
0010
0010
0100
,
0000
0000
0011
0000
0000
0100
0000
0000
,
1000
0000
1010
0000
0000
0100
0000
0000
,
0001
0010
0110
0001
,
1000
0010
0110
0100
,
0001
0010
0010
0100
,
0100
0000
1000
0000
0001
0000
0100
0010
,
0100
0000
0120
0000
0000
0001
0000
0000
,
0100
0000
0230
0000
0000
1000
0000
0000
,
0010
0310
0000
1000
,
0000
0100
1000
0001
,
0010
0011
0000
0100
,
1000
0011
0000
0100
,
1000
0011
0100
0011
,
1000
0011
0000
0100
,
1000
0000
0010
0000
0100
0001
0100
0000
,
0010
1000
0010
0000
0100
0001
0100
0000
,
0010
1000
1000
0100
,
0100
0001
0010
0100
,
0000
1000
0010
1000
,
0001
0010
0001
0010
,
0100
1000
0010
0001
,
0100
1000
0010
0001
,
0100
0000
0100
0000
0001
0000
0010
1000
,
0001
0200
0000
0000
,
0000
0000
0301
0000
0000
1000
0000
0000
,
0001
0000
0000
1000
0000
0000
0002
0000
,
0000
0000
0000
0000
0103
0000
0010
0100
,
0000
0010
0100
0000
0001
0000
1000
0000
,
0100
0010
0001
1000
0000
0000
0001
0000
,
0010
0100
0000
0010
0100
0000
1000
0000
,
0100
0000
0010
0100
1000
0001
0000
0000
,
0100
0000
1000
0100
0000
1000
0100
0000
,
0010
0000
1000
0000
0100
0001
0100
0010
,
0000
0000
0100
0000
0001
0100
0000
0001
,
0100
0000
0010
0000
0001
0000
0100
1000
,
0100
0010
0000
2002
0000
0000
0000
0000
,
0000
0000
0000
0000
,
0000
0000
0000
0000
,
0000
0000
0000
0000
,
0000
0003
0000
0000
0000
0000
0000
0000
,
0000
0000
0000
0000
0000
0000
3010
0000
0100
0000
0000
0000
,
0000
0000
2002
0000
,
0000
0000
0000
0000
,
0000
0000
0003
0000
,
0000
0000
0000
0000
0000
0000
3010
0000
0100
0010
0000
0000
;

//---------------dance-single - ----------------
#NOTES:
     dance-single:
     :
     Hard:
     16:
     0.816662,1.155738,0.531547,0.812364,0.250730,570.000000,517.000000,53.000000,81.000000,0.000000,0.000000,0.816662,1.155738,0.531547,0.812364,0.250730,570.000000,517.000000,53.000000,81.000000,0.000000,0.000000:
0000
0000
0000
0000
,
1001
0000
0000
0000
0001
0010
0100
0000
,
1000
1000
0010
0010
,
1001
0000
0000
0000
1000
0100
0010
0000
,
0001
0001
0100
0100
,
1001
0000
0010
0100
,
1001
0000
0100
0010
,
1001
0100
1000
0010
,
0100
0001
0011
0100
,
1000
1010
0001
0010
,
0011
0100
1000
1001
,
0100
0010
1001
0001
,
0010
0001
0010
0100
0010
0001
1000
0010
,
0100
0010
0001
0010
0100
0001
0100
1000
,
0100
0001
0010
0001
1001
0000
1001
0000
,
0110
0000
0110
0000
0000
0010
0000
0000
,
0010
0000
0000
0100
0000
0000
0100
0010
,
0100
0001
0010
0001
2000
0000
0000
3001
,
0100
0010
2000
0000
0000
3010
1000
0010
,
0200
0000
0000
0000
0000
0000
0310
0000
0001
0000
0010
0000
0100
0000
0000
0001
,
0000
2100
0000
0000
3001
0100
0010
0200
,
0000
0000
0310
0100
0010
2000
0000
0000
,
3100
0000
0001
0000
0100
0000
1000
0000
0000
0001
0000
0000
2100
0000
0000
0000
,
0000
3010
0100
0001
0020
0000
0000
0031
,
0100
0001
0020
0000
0000
0130
0001
0100
,
1000
0000
0000
0001
0000
0000
1200
0000
0000
0000
0000
0000
1300
0000
0100
0000
,
0010
0002
0000
0000
0103
0010
1000
0020
,
0000
0000
0130
1000
0100
0001
0010
0001
,
1000
1000
0001
1000
0001
1000
0002
0000
,
0103
0020
0000
0130
0020
0000
0031
1000
,
0100
0001
0010
0100
1000
0100
0000
0010
,
0002
0000
0013
0200
0000
0310
0200
0000
,
0301
0100
1000
0010
0100
0010
0001
1000
,
0000
0100
0020
0000
0031
2000
0000
3100
,
2000
0000
3100
0001
0010
0100
0010
0001
,
1000
0100
0000
0100
0020
0000
1030
0002
,
0000
0103
0002
0000
0103
0010
0100
1000
,
0001
0010
0100
1000
0000
0010
0100
0010
,
0100
0010
0100
0010
0100
0001
1000
0001
,
1000
0001
2000
0000
0000
3000
1010
0000
,
0100
0000
0001
0000
0011
0000
1000
0100
,
0001
0110
0100
1000
,
0110
0000
0001
0100
1000
0000
0110
0000
,
0001
0010
0011
0100
,
1000
0000
1001
0000
0010
0100
0010
0000
,
1001
0000
0100
0010
0100
0000
0020
0000
,
0032
0000
0000
0023
0000
0000
2030
0000
0000
3100
0010
0100
,
2000
3020
0032
0023
,
2030
3200
0302
0103
,
0100
1000
0100
0000
0010
0000
0010
0001
,
0010
0000
0000
0001
0100
0001
0100
0001
0100
0001
0100
0001
,
0200
0000
0000
0000
0000
0000
0000
0000
0000
0310
1000
0010
,
1000
0010
1000
0010
1000
0010
2000
0000
0000
0000
0000
0000
,
3000
0012
0000
0000
,
0203
0010
2300
3002
,
0023
2030
0000
0010
,
3000
0022
0033
2200
,
3300
0000
2000
0000
0000
0100
0000
0000
,
0001
0000
3020
0000
0000
0001
0000
0000
,
0100
2030
0000
0001
,
3000
2200
3300
0022
,
0033
0000
0002
0000
0000
0100
0000
0000
,
2003
0100
0100
3001
,
0010
0000
0020
0000
0000
0001
0000
0000
,
1030
2100
3000
0012
,
0003
0000
1010
0000
0000
0100
0000
0000
,
0001
0000
0011
0000
0000
0100
0000
0000
,
1000
0010
0101
0000
,
1010
0100
0101
0000
,
1010
0010
0100
0010
,
0100
0000
0001
0010
0001
0010
0001
0000
,
0100
0000
1010
0000
0100
0001
0000
0000
,
1000
0000
1010
0000
0001
0010
0000
0000
,
0100
1001
0000
0010
,
0000
0101
0010
0100
,
1000
0000
0000
0011
0000
0000
0000
1000
0000
0010
0000
0100
,
0000
0001
0000
0011
0000
0100
0000
1000
0000
0001
0000
0010
,
0000
0000
0100
0000
0000
0000
0011
0000
0000
0000
0000
0000
1000
0000
0000
0001
0000
0000
0011
0000
0000
0000
0000
0000
,
1000
0100
0011
0001
1000
0001
1000
0010
,
0100
0000
0000
0001
0000
0000
0020
0000
0000
0000
0000
0000
0031
0000
0010
0000
0001
0000
0020
0000
0000
0000
0000
0000
,
0031
0010
0001
0020
0000
0000
0031
0010
0001
0020
0000
0000
,
0031
0010
0100
0001
0100
1000
0010
0100
,
0010
1000
0100
0001
0100
1000
0001
0000
,
0000
0000
1000
0010
1000
0010
0100
0001
,
0100
0001
0010
0100
0010
0100
1000
0010
,
1000
0000
0000
0010
0000
0000
0100
0000
0001
0000
0100
0000
0001
0000
0000
0000
0000
0000
0001
0000
0100
0000
0001
0000
,
0100
0000
0000
1000
0010
1000
0010
0000
0000
0010
1000
0010
,
1000
0000
0000
1000
0001
1000
0001
0100
0010
0100
0001
1000
,
0010
0100
0010
2000
0000
0000
0000
0000
0000
0000
0000
0000
,
0000
3000
0011
0000
0000
1100
0000
0000
,
0011
0000
0000
1001
0000
0000
1000
1000
,
0001
1000
0001
1000
0002
0000
0103
0020
,
0000
0130
0020
0000
0031
1000
0100
0001
,
0010
0100
1000
0100
0000
0010
0002
0000
,
0013
0200
0000
0310
0200
0000
0301
0100
,
1000
0010
0100
0010
0001
1000
0000
0100
,
0020
0000
0031
2000
0000
3100
2000
0000
,
3100
0001
0010
0100
0010
0001
1000
0100
,
0000
0100
0020
0000
1030
0002
0000
0103
,
0002
0000
0103
0010
0100
1000
0001
0010
,
0100
1000
0000
0220
0000
0000
0000
0000
,
0000
0000
0000
0000
,
0000
0000
0000
0000
,
0000
0000
0000
0000
,
0000
0030
0000
0000
0000
0000
0000
0000
,
0000
0000
0000
0000
0000
0000
0301
1000
0001
0000
0000
0000
,
0000
0000
2002
0000
,
0000
0000
0000
0000
,
0000
0000
0003
0000
,
0000
0000
0000
0000
0000
0000
3001
1000
0010
0100
0000
0000
;

//---------------dance-double - ----------------
#NOTES:
     dance-double:
     :
     Easy:
     10:
     0.381109,0.495316,0.200584,0.300876,0.000000,266.000000,246.000000,20.000000,30.000000,0.000000,0.000000,0.381109,0.495316,0.200584,0.300876,0.000000,266.000000,246.000000,20.000000,30.000000,0.000000,0.000000:
00000000
00000000
00000000
00000000
,
01100000
00000000
00000000
00000000
,
01000000
00100000
00010000
00000000
,
00011000
00000000
00000000
00000000
,
00001000
00000100
00000010
00000000
,
00001001
00000000
00000000
00000000
,
00000110
00000000
00000000
00000000
,
00001001
00000000
00000000
00000000
,
00000001
00000000
00001001
00000000
,
00000000
00001100
00000000
00000000
,
00010100
00000000
00000000
00011000
,
00000000
00000000
01010000
00000000
,
01000000
00010000
00100000
01000000
,
10000000
01000000
00100000
00010000
,
10000000
00010000
01000000
01000000
,
01000000
00000000
01000000
00000000
00000000
01000000
00000000
00000000
,
00100000
00000000
00000000
01000000
00000000
00000000
00100000
00000000
,
00000000
01000000
00000000
00000000
00020000
00000000
00000000
00000000
,
00000000
00100000
00000000
00000000
,
00100000
00000000
00000000
00100000
,
00000000
00230000
00000000
00000000
00000000
00000000
00000000
00001000
,
00000000
00000000
00000000
00000000
00000000
00001000
00000000
00000000
,
00000000
00000000
00000000
00001000
00000000
00000000
00302000
00000000
,
00000000
00000000
00010000
00000000
,
00000000
00010000
00000000
00000000
,
00010000
00000000
00000000
00023000
00000000
00000000
00000000
00000000
,
00000000
00000010
00000000
00000000
00000000
00000000
00000000
00000010
,
00000000
00000000
00000000
00000000
00000000
00000010
00000000
00000000
,
00030020
00000000
00000000
00000230
,
00000010
00000000
00000000
00000010
00000300
00000000
00000001
00000000
,
00000010
00000100
00001000
00000000
,
02000000
00000000
00100000
00000000
00000000
00100000
03000000
00000000
,
10000000
01000000
00100000
00010000
,
00000000
00000000
00000200
00000000
00001000
00000000
00000000
00001000
,
00000300
00000001
00000010
00000100
,
00001000
00000000
02000000
00010000
,
00000000
00010000
03000000
00000000
10000000
00000000
01000000
00000000
,
00100000
00000000
00010000
00000000
00000000
00022000
00000000
00000000
,
00000000
00000000
00000000
00000000
,
00000000
00033000
00000000
00011000
,
00001000
00010000
00100000
00000000
,
00100000
01000000
00000000
01000000
,
00010000
00000000
00010000
10000000
,
00000000
10000000
01000000
00100000
,
00001000
00010000
00000000
00010000
,
00001000
00000000
00001000
00010000
,
00000100
00010000
00002000
00000000
,
00103000
00200000
00000000
00301000
,
00002000
00000000
00013000
00010000
,
00000100
00001000
00000010
00010000
,
00000010
00000200
00000000
00000000
,
00000310
00000000
00000000
00000002
,
00000000
00000000
00001003
00000000
,
00000000
00000001
00000000
00000000
,
00000100
00000010
00000100
00001000
,
00010000
00001000
00000000
00010000
,
00000000
00011000
00000000
01100000
,
00000000
00000000
10000000
00000000
00000000
00100000
00000000
00000000
,
00100000
00000000
10000000
00000000
00000000
01000000
00000000
00000000
,
01000000
00100000
00000000
01000000
,
00000000
01100000
00000000
00011000
,
00000000
00000000
00001000
00000000
00000000
00010000
00000000
00000000
,
00000100
00001000
00000000
00000010
,
00000000
00000000
00000100
00000000
00000000
00000001
00000000
00000000
,
00000010
00000100
00000000
00000100
,
00000000
00000000
00000010
00000000
00000000
00000001
00000000
00000000
,
00000100
00000000
00001000
00000000
00000000
00010000
00000000
00000000
,
00002000
00200000
00000000
00000000
,
00000000
00000000
00000000
00303000
,
00000000
02020000
00000000
00000000
,
00000000
00000000
00000000
03030000
,
00000000
00000000
00100000
00000000
00000000
10000000
00000000
00000000
,
10000000
00000000
00100000
00000000
00000000
01000000
00000000
00000000
,
01000000
00010000
00000000
00100000
,
00000000
00011000
00000000
00000000
,
00000000
00000100
00000000
00000100
,
00000100
00000010
00000000
00000010
,
00000000
00000100
00000100
00000010
,
00000010
00000001
00000001
00001000
,
00000000
00000010
00000100
00001000
,
00000000
00010000
00100000
01000000
,
00000000
00100000
00000000
10000000
,
00000000
00010000
01000000
00010000
,
00000000
00100000
01000000
00100000
,
00000000
00001000
00010000
00001000
,
00000000
00010000
00000100
00010000
,
00001000
00010000
00000100
00010000
,
00001000
00010000
00000010
00001000
,
00000100
00020000
00000000
00000000
,
00000000
00000000
00031000
00000000
00000000
00100000
00000000
00000000
,
00010000
00000000
00000000
00001000
00000000
00000000
00000020
00000000
,
00000000
00000000
00000230
00000010
,
00000000
00000010
00000300
00000000
00000001
00000000
00000010
00000000
,
00000100
00001000
00000000
02000000
,
00100000
00000000
00000000
00100000
03000000
00000000
10000000
00000000
,
01000000
00100000
00010000
00000000
,
00000200
00000000
00001000
00000000
00000000
00001000
00000300
00000000
,
00000001
00000010
00000100
00001000
,
00000000
00000000
02000000
00000000
00010000
00000000
00000000
00010000
,
03000000
10000000
01000000
00100000
,
00010000
00000000
00000000
00022000
00000000
00000000
00000000
00000000
,
00000000
00000000
00000000
00000000
,
00000000
00000000
00000000
00000000
,
00000000
00000000
00000000
00000000
,
00000000
00003000
00000000
00000000
00000000
00000000
00000000
00000000
,
00000000
00000000
00031000
00000000
,
00000000
00000000
00000220
00000000
,
00000000
00000000
00000000
00000000
,
00000000
00000000
00000030
00000000
,
00000000
00000000
00000310
00000100
;

//---------------dance-double - ----------------
#NOTES:
     dance-double:
     :
     Medium:
     13:
     0.583125,0.715457,0.391138,0.220642,0.025073,407.000000,368.000000,39.000000,22.000000,0.000000,0.000000,0.583125,0.715457,0.391138,0.220642,0.025073,407.000000,368.000000,39.000000,22.000000,0.000000,0.000000:
00000000
00000000
00000000
00000000
,
01100000
00000000
10000000
01000000
,
00100000
00010000
01000000
00100000
,
00011000
00000000
00010000
00001000
,
00000100
00000010
00001000
00000001
,
00001001
00000000
00000000
00000000
,
00000110
00000000
00000000
00000000
,
00001001
00000100
00001000
00010000
,
00001000
00100000
00110000
00001000
,
00010000
00001100
00010000
00100000
,
01010000
00001000
00010000
00001100
,
00010000
00100000
01010000
00100000
,
10000000
01000000
00010000
00001000
,
00010000
00100000
00010000
00001000
,
00000100
00001000
00011000
00011000
,
00011000
00000000
00011000
00000000
00000000
00001000
00000000
00000000
,
00010000
00000000
00000000
00001000
00000000
00000000
00010000
00000000
,
00000000
00100000
00000000
00000000
01100000
00000000
00000000
01000000
,
00000000
01000000
00100000
00000000
00000000
00010000
00000000
00010000
,
00001000
00000000
00000000
00000000
00000000
00000000
00000100
00000000
00000000
00000000
00000100
00000000
00000010
00000000
00000000
00000100
,
00000000
00001001
00000000
00000000
00000010
00000000
00000010
00000100
,
00000000
00000000
00001000
00000000
00001000
00010000
00000000
00000000
,
00100000
00000000
00000000
00000000
00100000
00000000
01000000
00000000
00000000
10000000
00000000
00000000
01010000
00000000
00000000
00000000
,
00000000
00010000
00000000
00010000
00001000
00000000
00000000
00010000
,
00000000
00010000
01000000
00000000
00000000
00010000
00000000
00010000
,
00001000
00000000
00000000
00000100
00000000
00000000
00001010
00000000
00000000
00000000
00000000
00000000
00001000
00000000
00000000
00000000
,
00001000
00010000
00000000
00000000
00001000
00000000
00001000
00000100
,
00000000
00000000
00001000
00000000
00001000
00010000
00100000
00010000
,
02000000
00000000
00000000
03100000
,
01000000
00100000
00000000
01000000
00100000
00000000
00010000
00000000
,
00001000
00000000
00000100
00000000
00000010
00001000
00000000
00000000
,
00000100
00000000
00000010
00000100
00000000
00000010
00000100
00000000
,
00001000
00000000
00000010
00000000
00000100
00000000
00001000
00010000
,
00000000
00000000
01000000
00000000
00010000
01000000
00000000
00010000
,
01000000
00010000
00001000
00000100
,
00000010
00001000
00000000
00000000
00000100
00000000
00000001
00000100
,
00000000
00000001
00000100
00000000
00001000
00000000
00010000
00000000
,
00100000
00000000
01000000
00100000
00000000
00022000
00000000
00000000
,
00000000
00000000
00000000
00000000
,
00000000
00033000
00000000
00011000
,
00010000
00100000
10100000
10000000
,
00010000
00110000
00001000
00010000
,
00010100
00000010
00000100
00000011
,
00000100
00001000
00011000
00010000
,
01000000
01100000
00000000
10010000
,
10010000
00000000
00000000
01000000
00100000
00000000
00100000
00000000
,
10000000
00000000
01000000
00000000
00010000
00000000
00001000
00010000
,
00001000
00000000
00000100
00000000
00001000
00010000
00001000
00000000
,
00100000
00000000
00001000
00010000
00001000
00000000
00000100
00000000
,
00000010
00001000
00000001
00000010
,
00001000
00000000
00010000
00001000
00010000
00001000
00010000
00001000
,
00200000
00000000
00000000
00000000
00000000
00000000
00301000
00010000
,
00001000
00010000
00001000
00010000
00000020
00000000
00000100
00000000
,
00000130
00000002
00000000
00000000
,
00000013
00000100
00001000
00000010
,
00000100
00002000
00000000
00010000
,
00003000
00101000
00000000
00010100
,
00000000
00000000
00200000
00000000
00000000
00310000
00000000
00000000
,
01000000
00000000
00200000
00000000
00000000
00310000
00000000
00000000
,
00100000
20000000
00000000
01000000
,
30000000
00110000
00000000
00001100
,
00000000
00000000
00000010
00000000
00000000
00000100
00000000
00000000
,
00000001
00000010
00000100
00000100
,
00000000
00000000
00010000
00000000
00000000
00100000
00000000
00000000
,
00010000
00000200
00000000
00002300
,
00000000
00000000
00013000
00000000
00000000
01000000
00000000
00000000
,
00100000
00000000
00001000
00000000
00000000
00000100
00000000
00000000
,
00020000
00002000
00000000
00000000
,
00000000
00000000
00000000
00033000
,
00000000
02200000
00000000
00000000
,
00000000
00000000
00000000
03300000
,
10000000
00000000
00010000
00000000
00000000
00010000
01000000
00000000
,
01000000
00000000
00100000
00000000
00000000
00100000
00010000
00000000
,
00010000
00100000
00000000
10000000
,
00000000
01010000
00000000
00010000
,
00000000
00100000
00010000
00001000
,
00000000
00000100
00001000
00010000
,
00000000
01010000
00010000
00011000
,
00001000
00000000
00001100
00000000
00000100
00000000
00000010
00000001
,
00000100
00000000
00000001
00000010
00001000
00000000
00010000
00001000
,
00010000
00000000
00100000
10000000
01000000
00000000
00100000
00010000
,
00100000
00001000
00010000
00100000
,
00010000
00000000
00001000
00000000
00000010
00000100
00001000
00000000
,
00000000
00000001
00000010
00000100
,
00001000
00010000
00100000
01000000
,
10000000
00000000
00100000
01000000
00100000
00000000
01000000
00010000
,
01000000
00000000
00010000
00100000
00010000
00000000
00100000
00001000
,
00100000
00000000
00001000
00010000
00001000
00000000
00010000
00000100
,
00001000
00000020
00000000
00000000
,
00000000
00000000
00000130
00000000
00000000
00000001
00000000
00000000
,
00000010
00000000
00000000
00001000
00000000
00000000
00020000
00000000
,
00000000
00000000
00000000
00000000
00130000
00000000
01000000
00100000
,
00000000
01000000
00100000
00000000
00010000
00000000
00001000
00000000
,
00000100
00000000
00000010
00001000
00000000
00000000
00000100
00000000
,
00000010
00000100
00000000
00000010
00000100
00000000
00001000
00000000
,
00000010
00000000
00000100
00000000
00001000
00010000
00000000
00000000
,
01000000
00000000
00010000
01000000
00000000
00010000
01000000
00000000
,
00010000
00000000
00001000
00000000
00000100
00000000
00000010
00001000
,
00000000
00000000
00000100
00000000
00000001
00000100
00000000
00000001
,
00000100
00001000
00010000
00100000
,
01000000
00100000
00000000
00022000
00000000
00000000
00000000
00000000
,
00000000
00000000
00000000
00000000
,
00000000
00000000
00000000
00000000
,
00000000
00000000
00000000
00000000
,
00000000
00003000
00000000
00000000
00000000
00000000
00000000
00000000
,
00000000
00000000
00000000
00000000
00000000
00000000
00031000
00000000
00010000
00000000
00000000
00000000
,
00000000
00000000
00000220
00000000
,
00000000
00000000
00000000
00000000
,
00000000
00000000
00000030
00000000
,
00000000
00000000
00000000
00000000
00000000
00000000
00000310
00000000
00000100
00000010
00000000
00000000
;

//---------------dance-double - ----------------
#NOTES:
     dance-double:
     :
     Hard:
     16:
     0.746458,0.990633,0.421226,0.702043,0.175511,521.000000,479.000000,42.000000,70.000000,0.000000,0.000000,0.746458,0.990633,0.421226,0.702043,0.175511,521.000000,479.000000,42.000000,70.000000,0.000000,0.000000:
00000000
00000000
00000000
00000000
,
01100000
00000000
00000000
00000000
10000000
01000000
00100000
00000000
,
00010000
00010000
00001000
00001000
,
00000110
00000000
00000000
00000000
00000001
00000010
00000100
00000000
,
00001000
00001000
00010000
00010000
,
01100000
00000000
10000000
00010000
,
01100000
00000000
00100000
01000000
,
10010000
01000000
00100000
00010000
,
00001000
00010000
00001100
00001000
,
00010000
00110000
00001000
00010000
,
00001010
00001000
00010000
00110000
,
00001000
00010000
00001100
00000010
,
00000100
00000000
00000001
00000010
00000100
00000010
00000001
00000010
,
00000100
00001000
00010000
00001000
00000100
00001000
00010000
01000000
,
00100000
10000000
00010000
01000000
01100000
00000000
01100000
00000000
,
01100000
00000000
01100000
00000000
00000000
00100000
00000000
00000000
,
01000000
00000000
00000000
00010000
00000000
00000000
10000000
00010000
,
10000000
00100000
01000000
00100000
20000000
00000000
00000000
31000000
,
00010000
01000000
00020000
00000000
00000000
00031000
00010000
00001000
,
00020000
00000000
00000000
00000000
00000000
00000000
00030010
00000000
00000100
00000000
00000010
00000000
00000100
00000000
00000000
00000010
,
00000000
00001002
00000000
00000000
00000103
00001000
00000100
00002000
,
00000000
00000000
00013000
00001000
00010000
00002000
00000000
00000000
,
01003000
00000000
00100000
00000000
01000000
00000000
00100000
00000000
00000000
01000000
00000000
00000000
20010000
00000000
00000000
00000000
,
00000000
31000000
00100000
00010000
00200000
00000000
00000000
00310000
,
00001000
00000100
00002000
00000000
00000000
00003100
00000010
00000001
,
00000010
00000000
00000000
00000100
00000000
00000000
00002001
00000000
00000000
00000000
00000000
00000000
00003010
00000000
00000100
00000000
,
00001000
00000200
00000000
00000000
00001300
00010000
00100000
00020000
,
00000000
00000000
00130000
01000000
10000000
01000000
00010000
10000000
,
00200000
00000000
00000000
02300000
,
13000000
02000000
00000000
13000000
02000000
00000000
03100000
00010000
,
00100000
00010000
00001000
00000100
00000001
00000010
00000100
00000000
,
00000020
00000000
00001030
00000020
00000000
00001030
00000020
00000000
,
00000130
00001000
00000100
00001000
00010000
01000000
00100000
10000000
,
00000000
00000000
10020000
00000000
00031000
00020000
00000000
00031000
,
00020000
00000000
00130000
00001000
00100000
00010000
01000000
00010000
,
00001000
00000010
00000100
00000000
00002001
00000000
00013000
00002000
,
00000000
00013000
00002000
00000000
00003010
00010000
00000010
00001000
,
00000100
00001000
00010000
00100000
00000000
00022000
00000000
00000000
,
00000000
00000000
00000000
00000000
,
00000000
00033000
00000000
00011000
,
00010000
00000000
00100000
00000000
11000000
00000000
00100000
00010000
,
00001000
00011000
00001000
00000010
,
00000101
00000000
00000100
00001000
00010000
00000000
00011000
00000000
,
00001000
00010000
00101000
00001000
,
00010000
00000000
00011000
00000000
00010000
00000100
00010000
00000000
,
00001100
00000000
00000010
00000001
00000010
00000000
00002000
00000000
,
00003020
00000000
00000000
00000032
00000000
00000000
00000023
00000000
00000000
00000130
00010000
00001000
,
00020000
00032000
00203000
00302000
,
00023000
00030020
00020030
00031000
,
00001000
01000000
00001000
00000000
00010000
00000000
00010000
00000100
,
00010000
00000000
00000000
00001000
00100000
00001000
00100000
00001000
00100000
00001000
00100000
00001000
,
00200000
00000000
00000000
00000000
00000000
00000000
00000000
00000000
00000000
00310000
10000000
00010000
,
10000000
00010000
10000000
00010000
10000000
00010000
20000000
00000000
00000000
00000000
00000000
00000000
,
30000000
02100000
00000000
00000000
,
03010000
01000000
00100000
00010000
,
00001000
00200000
00000000
00010000
,
00300000
00011000
00000000
00000110
,
00000000
00000000
00000001
00000000
00000010
00001000
00000000
00000000
,
00010000
00000000
00000100
00000000
00000010
00000001
00000000
00000000
,
00000100
00002000
00000000
00010000
,
00003000
00101000
00000000
00010100
,
00000000
00000000
00000010
00000000
00000000
00000100
00000000
00000000
,
00001000
00010000
00100000
00100000
,
00000000
00000000
01000000
00000000
00000000
00010000
00000000
00000000
,
00001000
00000100
00000010
00000010
,
00000000
00000000
00000001
00000000
00000010
00000100
00000000
00000000
,
00001000
00000000
00000010
00000000
00001000
00010000
00000000
00000000
,
00200000
00002000
00000000
00000000
,
00000000
00000000
00000000
00303000
,
00000000
02200000
00000000
00000000
,
00000000
00000000
00000000
03300000
,
10000000
00000000
10000000
00000000
00010000
00100000
00000000
00000000
,
01000000
00000000
10000000
00000000
10000000
00010000
00000000
00000000
,
00100000
02000000
00000000
10000000
,
00000000
03100000
00010000
00001000
,
00000100
00000000
00000000
00000010
00000000
00000001
00000000
00000100
00000000
00000001
00000000
00000100
,
00000000
00000010
00000000
00001010
00000000
00001000
00000000
00010000
00000000
00100000
00000000
00010000
,
00000000
00000000
01000000
00000000
00000000
00000000
01100000
00000000
00000000
00000000
00000000
00000000
10000000
00000000
00000000
00100000
00000000
00000000
00010000
00000000
00000000
00000000
00000000
00000000
,
00001000
00000100
00000001
00000100
00000001
00000010
00000100
00001000
,
00000100
00000000
00000000
00001000
00000000
00000000
00000020
00000000
00000000
00000000
00000000
00000000
00001030
00000000
00000010
00000000
00001000
00000000
00000020
00000000
00000000
00000000
00000000
00000000
,
00001030
00000010
00001000
00000020
00000000
00000000
00001030
00000010
00001000
00000020
00000000
00000000
,
00000130
00000010
00001000
00000100
00001000
00000010
00000100
00001000
,
00010000
00001000
00100000
00010000
00100000
01000000
00100000
00000000
,
00000000
00000000
00010000
01000000
00010000
01000000
00010000
00100000
,
00010000
00100000
00010000
00001000
00010000
00001000
00000100
00001000
,
00000100
00001000
00000010
00000100
00001000
00000100
00000010
00000100
,
00001000
00000100
00000010
00000100
00001000
00000100
00000010
00000100
,
00001000
00010000
00001000
01000000
00100000
01000000
00010000
01000000
,
00100000
01000000
00020000
00000000
00000000
00000000
00000000
00000000
,
00000000
00000000
01030000
00000000
00000000
10010000
00000000
00000000
,
01000000
00000000
00000000
01100000
00000000
00000000
00200000
00000000
,
00000000
00000000
00000000
00000000
02300000
00000000
13000000
02000000
,
00000000
13000000
02000000
00000000
03100000
00010000
00100000
00010000
,
00001000
00000100
00000001
00000010
00000100
00000000
00000020
00000000
,
00001030
00000020
00000000
00001030
00000020
00000000
00000130
00001000
,
00000100
00001000
00010000
01000000
00100000
10000000
00000000
00000000
,
10020000
00000000
00031000
00020000
00000000
00031000
00020000
00000000
,
00130000
00001000
00100000
00010000
01000000
00010000
00001000
00000010
,
00000100
00000000
00002001
00000000
00013000
00002000
00000000
00013000
,
00002000
00000000
00003010
00010000
00000010
00001000
00000100
00001000
,
00010000
00100000
00000000
00022000
00000000
00000000
00000000
00000000
,
00000000
00000000
00000000
00000000
,
00000000
00000000
00000000
00000000
,
00000000
00000000
00000000
00000000
,
00000000
00003000
00000000
00000000
00000000
00000000
00000000
00000000
,
00000000
00000000
00000000
00000000
00000000
00000000
00031000
00010000
00001000
00000000
00000000
00000000
,
00000000
00000000
00000220
00000000
,
00000000
00000000
00000000
00000000
,
00000000
00000000
00000030
00000000
,
00000000
00000000
00000000
00000000
00000000
00000000
00000301
00001000
00000010
00000100
00000000
00000000
;

//---------------dance-single - ----------------
#NOTES:
     dance-single:
     :
     Challenge:
     18:
     1.040170,1.375879,0.631839,0.712072,0.762218,726.000000,663.000000,63.000000,71.000000,0.000000,0.000000,1.040170,1.375879,0.631839,0.712072,0.762218,726.000000,663.000000,63.000000,71.000000,0.000000,0.000000:
0000
0000
0000
0000
,
1001
0010
0100
0010
0001
1000
0100
0010
,
0001
1000
0010
1000
0100
1000
0100
1000
,
1001
0010
0100
0010
0001
1000
0100
0010
,
0001
1000
0010
1000
0100
1000
0100
1000
,
1001
0010
0100
0010
0100
1000
0010
0100
,
1001
0100
0010
0100
0010
0001
0100
0010
,
1001
1000
0100
0010
0001
0010
0100
1000
0100
0010
0001
0010
,
0200
0000
1300
0000
0101
0100
1000
0100
,
1000
0000
1100
0100
0001
0100
0001
0000
,
1010
0010
0100
0010
0001
0000
0011
0010
,
0100
0010
1000
0000
0011
0001
0100
0010
,
1000
1000
0001
0001
1000
0010
0100
0001
,
1000
0010
0100
0001
0010
0100
1000
0100
,
0010
0001
0010
1000
1010
0000
0011
0000
,
1100
0000
0201
0000
0000
0320
0000
0000
,
2030
0000
0000
3002
0000
0000
1003
0001
,
1000
0001
1000
0001
2001
0000
0000
0001
,
0001
0001
0001
0000
0000
0100
0100
0100
,
0100
0000
0000
0000
0000
0000
0001
0000
0001
0000
0001
0000
3001
0000
0000
1000
,
0000
1002
0000
0000
1000
1000
1000
1000
,
0000
0000
0100
0100
0100
0100
0000
0000
,
1000
0000
1000
0000
1000
0000
1003
0000
0000
0001
0000
0000
2001
0000
0000
0000
,
0000
0100
0100
0100
0100
0000
0000
0001
,
0001
0001
0001
0000
0000
0100
0100
0100
,
3100
0000
0000
1000
0000
0000
1002
0000
0000
0000
0000
0000
0100
0000
0100
0000
,
0100
0100
0000
0000
1000
1000
1000
1000
,
0000
0000
0100
0100
0100
0103
0010
1000
,
0100
0100
0100
0010
0010
0010
1002
0000
,
0010
0100
0000
0010
0103
0001
0010
1000
,
0010
0000
0000
0001
0000
0000
0100
0000
1000
0000
0100
0000
0001
0000
0010
0000
0100
0000
1000
0000
0000
0000
0000
0000
,
2001
0000
0100
0010
0000
0100
3010
1000
,
0100
0000
0000
0001
0000
0000
0100
0000
0000
1000
0000
0000
0010
0000
0001
0000
0010
0000
1000
0000
0100
0000
0010
0000
,
0001
0000
1200
0000
0001
1000
0000
0001
,
1300
0000
0000
0001
0000
0000
0010
0000
0000
1000
0000
0000
0010
0000
0000
0001
0000
0000
0100
0000
1000
0000
0100
0000
,
0001
0000
0010
0000
0100
0000
1000
0000
0000
0000
0000
0000
0021
0000
0000
0000
0000
0000
1000
0000
0000
0001
0000
0000
,
0000
1000
0031
1000
0100
0001
0100
1000
,
0010
0000
0001
0000
0010
0000
1000
0000
0100
0000
0010
0000
0001
0000
0000
1000
0000
0010
0000
1000
0000
0001
0000
0010
,
0000
0001
0000
1000
0000
0100
0000
1000
0000
0001
0000
0100
0000
0001
0000
1000
0000
0010
0000
0100
0000
0001
0000
0010
,
0000
0100
0000
1000
0000
0020
0000
0200
0000
0000
0000
0000
0000
0000
0000
0330
0000
0000
1001
0000
0000
0000
0000
0000
,
0100
0000
0010
0000
1001
0000
1000
0100
,
0001
0000
1001
0000
0001
0100
1000
0000
,
1001
0000
0010
1000
0100
0000
1001
0000
,
1000
0100
0001
0000
1010
0000
0001
0100
,
1000
0000
0011
0001
0100
0001
0100
0000
,
1010
1000
0100
1000
0100
0000
0020
0000
,
0032
0000
0000
0203
0000
0000
0320
0000
0000
0031
0010
0100
,
1000
1200
0001
0310
,
1200
0001
1300
0002
,
0023
0230
2300
3020
,
0130
0000
0000
0001
0100
0001
0100
1000
0100
1000
0100
1000
,
0200
0000
0000
0000
0000
0000
0310
0000
0000
1000
0100
1000
,
0100
0000
0100
0001
0100
0001
0200
0000
0000
1000
0000
0000
,
0301
0012
0000
0000
,
0203
0010
2300
3002
,
0023
2030
0000
0010
,
3000
0022
0033
2200
,
3300
0000
2000
0000
0000
0100
0000
0000
,
0001
0000
3020
0000
0000
0001
0000
0000
,
0100
2030
0000
0001
,
3000
2200
3300
0022
,
0033
0000
0002
0000
0000
0100
0000
0000
,
2003
0100
0100
3001
,
0010
0000
0020
0000
0000
0001
0000
0000
,
1030
2100
3000
0012
,
0003
0000
2000
0000
0000
0100
0000
0000
,
0001
0000
3020
0000
0000
0001
0000
0000
,
0130
0010
1001
0100
,
0010
1001
0100
0001
,
1100
0021
0000
0000
,
0130
0000
1000
0010
1000
0010
1000
0000
,
0001
0000
0101
0000
1000
0010
0000
0000
,
0001
0000
0101
0000
1000
0010
0000
0000
,
1000
1200
0000
0001
,
0000
0320
0032
2003
,
3100
0000
0000
1001
0000
0001
0000
1000
0000
0100
0000
0010
,
0000
0001
0000
1001
0000
1000
0000
0010
0000
0001
0000
1000
,
0000
0000
0100
0000
0000
0000
1001
0000
0000
0000
0000
0000
0001
0000
0000
1000
0000
0000
1001
0000
0000
0000
0000
0000
,
1000
0000
0000
0001
0000
0000
1001
0000
0000
1000
0000
0000
0001
0000
0010
0000
0100
0000
1000
0000
0100
0000
0010
0000
,
0001
0010
0001
0200
0000
0000
0301
0010
0001
0200
0000
0000
,
0301
0010
0001
0200
0000
0000
0301
0010
0001
0200
0000
0000
,
0301
0010
0001
1000
0100
0001
0100
1000
0010
0100
0001
0100
,
0010
1000
0100
0010
0100
0001
0100
1000
0001
0200
0000
0000
,
0000
0000
0301
0001
0010
0010
0100
0100
,
1000
1000
0001
0010
0100
1000
0001
0010
,
0100
0000
0000
1000
0000
0000
0001
0000
0100
0000
0010
0000
1000
0000
0001
0000
0010
0000
0100
0000
1000
0000
0001
0000
,
0100
0010
1000
0001
0010
0100
1000
0100
0010
0001
0010
0100
,
1000
0010
1000
0001
0010
0001
1000
0100
1000
0001
0100
0001
,
1000
0010
1000
0002
0000
0000
0000
0000
0000
0000
0000
0000
,
0003
0000
1001
0000
0100
0110
0000
0001
,
1001
0000
0100
0101
0001
0010
0110
0100
,
0100
0010
0010
0010
1002
0000
0010
0100
,
0000
0010
0103
0001
0010
1000
0010
0001
,
0100
1000
0100
0001
0010
0100
1000
0000
0000
2001
0000
0000
,
0100
0010
0000
0100
3010
1000
0100
0001
,
0100
0000
0000
1000
0000
0000
0010
0000
0001
0000
0010
0000
1000
0000
0100
0000
0010
0000
0001
0000
0000
0000
0000
0000
,
1200
0000
0001
1000
0000
0001
1300
0001
,
0010
0000
0000
1000
0000
0000
0010
0000
0000
0001
0000
0000
0100
0000
1000
0000
0100
0000
0001
0000
0010
0000
0100
0000
,
1000
0000
0021
0000
1000
0001
0000
1000
,
0031
0000
0000
1000
0000
0000
0100
0000
0000
0001
0000
0000
0100
0000
0000
1000
0000
0000
0010
0000
0001
0000
0010
0000
,
1000
0000
0100
0000
0010
0000
0001
0000
0000
1000
0000
0010
0000
1000
0000
0001
0000
0010
0000
0001
0000
1000
0000
0100
,
0000
1000
0000
0001
0000
0100
0000
0001
0000
1000
0000
0010
0000
0100
0000
0001
0000
0010
0000
0100
0000
1000
0000
0010
,
0000
0100
0000
0001
0000
0000
0010
0000
0000
0100
0000
0000
1000
0000
0000
0100
0000
0000
0010
0000
0000
0100
0000
0000
,
1000
0000
0010
0000
0001
0000
1000
0000
0100
0000
0001
0000
0010
0000
0100
0000
1000
0000
0100
0000
0000
1000
0000
0000
,
0020
0200
0000
0000
0000
0000
0000
0000
,
0000
0000
0000
0000
0000
0000
0330
0000
0000
0000
0000
0010
0000
0100
0000
1001
0000
0000
0000
0000
0000
0000
0000
0000
,
0000
0000
2002
0000
,
0000
0000
0000
0000
,
0000
0000
0000
0000
,
0000
0000
0000
3000
0000
0000
1003
0001
1000
1001
0000
0000
;

//---------------dance-double - ----------------
#NOTES:
     dance-double:
     :
     Challenge:
     18:
     1.002918,1.375879,0.591722,0.842452,0.787291,700.000000,641.000000,59.000000,84.000000,0.000000,0.000000,1.002918,1.375879,0.591722,0.842452,0.787291,700.000000,641.000000,59.000000,84.000000,0.000000,0.000000:
// measure 0
00000000
00000000
00000000
00000000
,  // measure 1
01100000
00100000
10000000
01000000
00100000
00010000
10000000
00100000
,  // measure 2
02000000
03200000
00320000
00031000
,  // measure 3
00000110
00000010
00001000
00000100
00000010
00000001
00001000
00000100
,  // measure 4
00000020
00000230
00002300
00013000
,  // measure 5
01100000
00100000
01000000
00100000
01000000
00000000
00100000
00000000
,  // measure 6
10010000
10000000
00010000
10000000
00010000
00000000
10000000
00000000
,  // measure 7
10010000
00010000
01000000
00100000
10000000
01000000
00100000
00010000
10000000
00020000
00000000
00000000
,  // measure 8
02030000
00000000
03100000
00000000
00110000
00010000
00001000
00000100
,  // measure 9
00000010
00000000
00001010
00001000
00010000
01000000
00100000
00000000
,  // measure 10
01100000
01000000
00010000
00001000
00000010
00000000
00000110
00000100
,  // measure 11
00001000
00010000
00100000
00000000
10010000
10000000
01000000
00010000
,  // measure 12
10000000
00100000
00010000
00001000
00010000
01000000
00010000
00001000
,  // measure 13
00000100
00000010
00000001
00001000
00000100
00000001
00000100
00001000
,  // measure 14
00000010
00000100
00001000
00010000
00011000
00000000
01010000
00000000
,  // measure 15
00011000
00000000
00002100
00000000
00000000
00023000
00000000
00000000
,  // measure 16
00230000
00000000
00000000
02300000
00000000
00000000
13000000
00010000
,  // measure 17
10000000
00010000
10000000
00010000
20010000
00000000
00000000
00100000
,  // measure 18
00100000
30100000
02000000
00000000
00000000
00010000
00010000
03010000
,  // measure 19
00200000
00000000
00000000
00000000
00000000
00000000
00001000
00000000
00001000
00000000
00301000
00000000
00010000
00000000
00000000
00000010
,  // measure 20
00000000
00001002
00000000
00000000
00000100
00000100
00000103
00000020
,  // measure 21
00000000
00000000
00001000
00001000
00001030
00000200
00000000
00000000
,  // measure 22
00010000
00000000
00010000
00000000
00010300
00000000
00001000
00000000
00000000
00100000
00000000
00000000
20010000
00000000
00000000
00000000
,  // measure 23
00000000
00100000
00100000
30100000
02000000
00000000
00000000
00010000
,  // measure 24
00010000
03010000
00200000
00000000
00000000
00001000
00001000
00301000
,  // measure 25
00010000
00000000
00000000
00000010
00000000
00000000
00001002
00000000
00000000
00000000
00000000
00000000
00000100
00000000
00000100
00000000
,  // measure 26
00000103
00000020
00000000
00000000
00001000
00001000
00001030
00000200
,  // measure 27
00000000
00000000
00010000
00010000
00010300
00001000
00010000
00100000
,  // measure 28
01000000
01000000
01000000
00100000
00100000
00100000
12000000
00000000
,  // measure 29
00001000
00001000
00000000
00100000
00100000
00000000
13000000
00010000
,  // measure 30
01000000
00000000
00000000
00100000
00000000
00000000
00010000
00000000
00001000
00000000
00010000
00000000
00001000
00000000
00000010
00000000
00000100
00000000
00000010
00000000
00000000
00000000
00000000
00000000
,  // measure 31
00000201
00000000
00010000
00010000
00000000
00000010
00000010
00000000
,  // measure 32
00000301
00000000
00000000
00001000
00000000
00000000
00000100
00000000
00000000
00000010
00000000
00000000
00001000
00000000
00010000
00000000
00001000
00000000
00010000
00000000
00100000
00000000
01000000
00000000
,  // measure 33
00100000
00000000
12000000
00000000
00001000
00010000
00000000
00100000
,  // measure 34
10000000
00000000
00000000
00000000
00000000
00000000
03010000
00000000
00000000
01000000
00000000
00000000
00100000
00000000
00000000
01000000
00000000
00000000
00010000
00000000
00001000
00000000
00010000
00000000
,  // measure 35
00001000
00000000
00000010
00000000
00000100
00000000
00000010
00000000
00000000
00000000
00000000
00000000
00000201
00000000
00000000
00000000
00000000
00000000
00010000
00000000
00000000
00001000
00000000
00000000
,  // measure 36
00000000
00000010
00000001
00000000
00001300
00000100
00000010
00000100
,  // measure 37
00001000
00000000
00010000
00000000
00001000
00000000
00010000
00000000
00100000
00000000
01000000
00000000
00100000
00000000
00000000
10000000
00000000
01000000
00000000
00100000
00000000
00010000
00000000
01000000
,  // measure 38
00000000
00100000
00000000
00010000
00000000
00001000
00000000
00100000
00000000
00010000
00000000
00001000
00000000
00000100
00000000
00010000
00000000
00001000
00000000
00000100
00000000
00000010
00000000
00001000
,  // measure 39
00000000
00000100
00000000
00000010
00000000
00000002
00000000
00002000
00000000
00000000
00000000
00000000
00000000
00000000
00000000
00003003
00000000
00000000
00001001
00000000
00000000
00000000
00000000
00000000
,  // measure 40
00001000
00000100
00010100
00010000
,  // measure 41
00100000
01100000
10000000
01000000
,  // measure 42
00011000
00000000
00100000
00010000
00001000
00000000
00000110
00000000
,  // measure 43
00001000
00010000
00100000
00000000
11000000
00000000
00100000
00010000
,  // measure 44
00001000
00001001
00000010
00000100
,  // measure 45
00001001
00000000
00001000
00100000
01000000
00000000
00020000
00000000
,  // measure 46
20030000
00000000
00000000
30200000
00000000
00000000
00320000
00000000
00000000
00031000
00010000
00001000
,  // measure 47
00000200
00000000
00000000
00000302
00000000
00000000
00000013
00000001
00001000
00000100
00001000
00000010
,  // measure 48
00020000
02030000
03100000
10010000
,  // measure 49
10000000
00010000
10000000
00000000
00011000
00000000
00001000
00010000
,  // measure 50
00001000
00000000
00000000
00010000
00000100
00010000
00001000
00010000
01000000
00010000
01000000
00010000
,  // measure 51
00002000
00000000
00000000
00000000
00000000
00000000
00103000
00000000
00000000
00001000
01000000
00001000
,  // measure 52
00010000
00001000
00000100
00001000
00000100
00001000
00020000
00000000
00000000
00000010
00000000
00000000
,  // measure 53
00030010
00002001
00000000
00000000
,  // measure 54
00003002
00000023
00000100
00000032
,  // measure 55
00002003
00023000
00000000
00001000
,  // measure 56
00030000
22000000
33000000
00220000
,  // measure 57
00330000
00000000
02000000
00000000
00000000
00010000
00000000
00000000
,  // measure 58
10000000
00000000
03200000
00000000
00000000
10000000
00000000
00000000
,  // measure 59
00301000
00020000
00000000
00001000
,  // measure 60
00030000
00002200
00003300
00000022
,  // measure 61
00000033
00000000
00000200
00000000
00000000
00001000
00000000
00000000
,  // measure 62
00000310
00010000
00001000
00001000
,  // measure 63
01000000
00000000
02000000
00000000
00000000
00010000
00000000
00000000
,  // measure 64
03100000
21000000
30000000
00120000
,  // measure 65
00030000
00000000
02000000
00000000
00000000
00100000
00000000
00000000
,  // measure 66
00010000
00000000
03002000
00000000
00000000
00000100
00000000
00000000
,  // measure 67
00013000
00000020
00000100
00000000
,  // measure 68
00010000
00001000
00000100
00000000
,  // measure 69
00010030
00020200
00000000
00000000
,  // measure 70
00030300
00000000
00001000
00000001
00001000
00000001
00001000
00000000
,  // measure 71
00000100
00000000
00000110
00000000
00001000
00010000
00000000
00000000
,  // measure 72
00000100
00000000
00000110
00000000
00001000
00010000
00000000
00000000
,  // measure 73
00000010
00020010
00000000
00000100
,  // measure 74
00000000
00032000
00023000
00230000
,  // measure 75
01300000
00000000
00000000
01100000
00000000
00100000
00000000
10000000
00000000
01000000
00000000
00010000
,  // measure 76
00000000
00001000
00000000
00011000
00000000
00010000
00000000
00000100
00000000
00000010
00000000
00000001
,  // measure 77
00000000
00000000
00000100
00000000
00000000
00000000
00001001
00000000
00000000
00000000
00000000
00000000
00000010
00000000
00000000
00000100
00000000
00000000
00001100
00000000
00000000
00000000
00000000
00000000
,  // measure 78
00001000
00000000
00000000
00100000
00000000
00000000
00101000
00000000
00000000
00001000
00000000
00000000
00010000
00000000
00001000
00000000
00100000
00000000
00010000
00000000
10000000
00000000
01000000
00000000
,  // measure 79
00100000
00010000
00100000
00002000
00000000
00000000
00103000
00010000
00100000
00002000
00000000
00000000
,  // measure 80
00103000
00010000
00100000
00002000
00000000
00000000
00103000
00010000
00100000
00002000
00000000
00000000
,  // measure 81
00103000
00010000
00100000
00001000
00010000
00001000
00100000
00010000
01000000
00100000
10000000
01000000
,  // measure 82
00100000
00010000
00100000
01000000
00100000
00010000
00001000
00010000
00001000
00000200
00000000
00000000
,  // measure 83
00000300
00000000
00000010
00000010
00000001
00000001
00000100
00000100
,  // measure 84
00001000
00001000
00010000
00100000
10000000
01000000
00010000
00001000
,  // measure 85
00010000
00000000
00000000
00001000
00000000
00000000
00000100
00000000
00000010
00000000
00000100
00000000
00000010
00000000
00000100
00000000
00000010
00000000
00010000
00000000
00000100
00000000
00010000
00000000
,  // measure 86
00000100
00010000
00000100
00001000
00010000
00001000
00010000
00001000
00010000
01000000
00100000
01000000
,  // measure 87
00100000
01000000
00100000
10000000
00100000
00010000
00001000
00000100
00000001
00000010
00000001
00000100
,  // measure 88
00001000
00010000
00001000
02000000
00000000
00000000
00000000
00000000
00000000
00000000
00000000
00000000
,  // measure 89
03000000
00000000
00011000
00000000
00000010
00001010
00000000
00100000
,  // measure 90
00101000
00000000
01000000
11000000
00100000
00010000
01000000
01000000
,  // measure 91
01000000
00100000
00100000
00100000
12000000
00000000
00001000
00001000
,  // measure 92
00000000
00100000
00100000
00000000
13000000
00010000
01000000
00100000
,  // measure 93
00010000
00001000
00010000
00001000
00000010
00000100
00000010
00000000
00000000
00000201
00000000
00000000
,  // measure 94
00010000
00010000
00000000
00000010
00000010
00000000
00000301
00001000
,  // measure 95
00000100
00000000
00000000
00000010
00000000
00000000
00001000
00000000
00010000
00000000
00001000
00000000
00010000
00000000
00100000
00000000
01000000
00000000
00100000
00000000
00000000
00000000
00000000
00000000
,  // measure 96
12000000
00000000
00001000
00010000
00000000
00100000
10000000
00000000
,  // measure 97
03010000
00000000
00000000
01000000
00000000
00000000
00100000
00000000
00000000
01000000
00000000
00000000
00010000
00000000
00001000
00000000
00010000
00000000
00001000
00000000
00000010
00000000
00000100
00000000
,  // measure 98
00000010
00000000
00000201
00000000
00010000
00001000
00000000
00000010
,  // measure 99
00000001
00000000
00000000
00000000
00000000
00000000
00001300
00000000
00000000
00000100
00000000
00000000
00000010
00000000
00000000
00000100
00000000
00000000
00001000
00000000
00010000
00000000
00001000
00000000
,  // measure 100
00010000
00000000
00100000
00000000
01000000
00000000
00100000
00000000
00000000
10000000
00000000
01000000
00000000
00100000
00000000
00010000
00000000
01000000
00000000
00100000
00000000
00010000
00000000
00001000
,  // measure 101
00000000
00100000
00000000
00010000
00000000
00001000
00000000
00000100
00000000
00010000
00000000
00001000
00000000
00000100
00000000
00000010
00000000
00001000
00000000
00000100
00000000
00000010
00000000
00000001
,  // measure 102
00000000
00000010
00000000
00000100
00000000
00001000
00000000
00000010
00000000
00000100
00000000
00000000
00000001
00000000
00000000
00000100
00000000
00000000
00000001
00000000
00000000
00001000
00000000
00000000
,  // measure 103
00000100
00000000
00001000
00000000
00000100
00000000
00001000
00000000
00010000
00000000
00001000
00000000
00010000
00000000
00100000
00000000
01000000
00000000
00100000
00000000
00000000
00001000
00000000
00000000
,  // measure 104
02000000
00200000
00000000
00000000
00000000
00000000
00000000
00000000
,  // measure 105
00000000
00000000
00000000
00000000
00000000
00000000
03300000
00000000
00000000
00000000
00000000
00100000
00000000
01000000
00000000
10010000
00000000
00000000
00000000
00000000
00000000
00000000
00000000
00000000
,  // measure 106
00000000
00000000
00000220
00000000
,  // measure 107
00000000
00000000
00000000
00000000
,  // measure 108
00000000
00000000
00000000
00000000
,  // measure 109
00000000
00000000
00000000
00000000
00000000
00000000
00000000
00000000
00000000
00000300
00000000
00000000
00001030
00000000
00000001
00000000
00001000
00000000
00001001
00000000
00000000
00000000
00000000
00000000
;
