#VERSION:0.83;
#TITLE:JUST GOLD;
#SUBTITLE:;
#ARTIST:MandoPony;
#TITLETRANSLIT:;
#SUBTITLETRANSLIT:;
#ARTISTTRANSLIT:;
#GENRE:;
#ORIGIN:;
#CREDIT:;
#BANNER:JUST GOLD-bn.png;
#BACKGROUND:JUST GOLD-bg.png;
#PREVIEWVID:;
#JACKET:JUST GOLD-jacket.png;
#CDIMAGE:;
#DISCIMAGE:1.png;
#LYRICSPATH:;
#CDTITLE:;
#MUSIC:JUST GOLD.mp3;
#OFFSET:-0.432999;
#SAMPLESTART:20.619995;
#SAMPLELENGTH:15.000000;
#SELECTABLE:YES;
#DISPLAYBPM:101.000000;
#BPMS:0.000=101.020,
140.000=100.660,
146.000=101.020;
#STOPS:;
#DELAYS:;
#WARPS:;
#TIMESIGNATURES:0.000=4=4;
#TICKCOUNTS:0.000=4;
#COMBOS:0.000=1;
#SPEEDS:0.000=1.000=0.000=0;
#SCROLLS:0.000=1.000;
#FAKES:;
#LABELS:0.000=Song Start;
#BGCHANGES:0.000=1372_JumpBack.avi=0.800=1=0=1===CrossFade==,
16.000=1475-JumpBack.avi=1.000=1=0=1===CrossFade==,
34.000=mv_cmn_n_no.avi=1.000=0=0=1=====,
50.000=246_JumpBack_NTSC_DV.avi=0.800=1=0=1===CrossFade==,
66.000=JUST GOLD-bg.png=1.000=0=0=1=====,
66.250=black.png=1.000=1=0=1===CrossFade==,
70.000=626_JumpBack.avi=0.800=0=0=1=====,
86.000=617_JumpBack.avi=0.800=0=0=1=====,
102.000=1025b_JumpBack.avi=1.000=0=0=1=====,
118.000=1475-JumpBack.avi=1.000=0=0=1=====,
126.000=mv_cmn_n_no.avi=1.000=1=0=1===CrossFade==,
132.000=JUST GOLD-bg.png=1.000=0=0=1===CrossFade_Fastest==,
134.000=246_JumpBack_NTSC_DV.avi=0.800=1=0=1===CrossFade==,
142.000=626_JumpBack.avi=1.000=1=0=1===CrossFade==,
146.000=1377_JumpBack.avi=1.000=0=0=1===CrossFade_Faster==,
150.000=mv_cmn_n_no.avi=1.000=0=0=1=====,
166.000=246_JumpBack_NTSC_DV.avi=0.800=0=0=1=====,
182.000=617_JumpBack.avi=0.800=1=0=1===CrossFade==,
198.000=626_JumpBack.avi=0.800=1=0=1===CrossFade==,
210.000=1372_JumpBack.avi=0.800=0=0=1===CrossFade_Fastest==,
214.000=JUST GOLD-bg.png=1.000=1=0=1===CrossFade==,
214.250=black.png=1.000=1=0=1===CrossFade==,
99999=-nosongbg-=1.000=0=0=0 // don't automatically add -songbackground-
;
#BGCHANGES2:31.000=white flash=1.000=0=0=1=====,
32.000=white flash=1.000=0=0=1=====,
33.000=white flash=1.000=0=0=1=====,
34.000=white flash=1.000=0=0=1=====,
54.000=1.png=1.000=0=0=1=====,
55.000=2.png=1.000=0=0=1=====,
56.000=3.png=1.000=0=0=1=====,
57.000=4.png=1.000=0=0=1=====,
58.000=5.png=1.000=0=0=1=====,
58.250=space.png=1.000=0=0=1=====,
66.000=white flash=1.000=0=0=1=====,
70.000=white flash=1.000=0=0=1=====,
86.000=white flash=1.000=0=0=1=====,
102.000=white flash=1.000=0=0=1=====,
118.000=white flash=1.000=0=0=1=====,
132.750=itsme.png=1.000=0=0=1=====,
134.000=itsme2.png=1.000=0=0=1=====,
134.250=space.png=1.000=0=0=1=====,
150.000=white flash=1.000=0=0=1=====,
166.000=white flash=1.000=0=0=1=====,
170.000=1.png=1.000=0=0=1=====,
171.000=2.png=1.000=0=0=1=====,
172.000=3.png=1.000=0=0=1=====,
173.000=4.png=1.000=0=0=1=====,
174.000=5.png=1.000=0=0=1=====,
174.250=space.png=1.000=0=0=1=====,
202.000=1.png=1.000=0=0=1=====,
203.000=2.png=1.000=0=0=1=====,
204.000=3.png=1.000=0=0=1=====,
205.000=4.png=1.000=0=0=1=====,
206.000=5.png=1.000=0=0=1=====,
206.250=space.png=1.000=0=0=1=====,
214.000=white flash=1.000=0=0=1=====,
;
#KEYSOUNDS:;
#ATTACKS:
;

//---------------dance-single - ----------------
#NOTEDATA:;
#CHARTNAME:;
#STEPSTYPE:dance-single;
#DESCRIPTION:;
#CHARTSTYLE:;
#DIFFICULTY:Beginner;
#METER:2;
#RADARVALUES:0.104881,0.122486,0.014983,0.157321,0.000000,98.000000,96.000000,2.000000,21.000000,0.000000,0.000000,0.000000,0.000000,0.000000,0.104881,0.122486,0.014983,0.157321,0.000000,98.000000,96.000000,2.000000,21.000000,0.000000,0.000000,0.000000,0.000000,0.000000;
#CREDIT:;
#DISPLAYBPM:101.000000;
#NOTES:
0000
0000
0000
0000
,
0000
0000
0000
0000
,
0000
0000
0000
0000
,
0000
0000
0000
0000
,
1000
0000
0000
0000
,
0001
0000
0000
0000
,
1000
0000
0000
0000
,
0001
0000
0000
0010
,
0000
0010
1000
0000
,
0001
0000
1000
0000
,
0002
0000
0103
0000
,
0010
0000
0100
0000
,
0020
0000
1030
0000
,
0100
0000
0010
0000
,
0002
0000
1003
0000
,
0001
0000
0100
0000
,
0020
0000
2030
0000
,
0000
3001
1000
0000
,
0001
0000
0100
0000
,
0001
0000
1000
0000
,
0001
0000
1000
0000
,
0020
0000
0130
0000
,
0010
0000
0100
0000
,
0001
0000
0100
0000
,
0010
0000
0100
0000
,
0020
0000
1030
0000
,
0100
0000
1000
0000
,
0010
0000
0200
0000
,
0301
0000
2000
0000
,
3001
0000
0100
0000
,
0010
0000
1000
0000
,
0001
0000
2000
0000
,
3010
0000
2000
0000
,
3001
0000
1000
0000
,
0001
0000
1000
0000
,
0020
0000
0130
0000
,
0001
0000
2002
0000
,
3003
0000
1000
0000
,
1000
0000
1000
0000
,
0020
0030
0100
0000
,
0100
0000
0100
0000
,
0020
0030
1000
0000
,
0001
0000
0200
0000
,
0310
0000
1000
0000
,
0001
0000
2000
0000
,
3002
0000
0103
0000
,
0100
0000
0010
0000
,
0010
0000
1000
0000
,
1000
0000
0001
0000
,
0001
0000
0100
0000
,
0001
0000
1000
0000
,
0010
0000
1000
0000
,
0001
0000
0100
0000
,
0010
0000
2002
0000
,
0000
0000
3003
0000
;

//---------------dance-single - ----------------
#NOTEDATA:;
#CHARTNAME:;
#STEPSTYPE:dance-single;
#DESCRIPTION:;
#CHARTSTYLE:;
#DIFFICULTY:Easy;
#METER:4;
#RADARVALUES:0.187287,0.204143,0.029966,0.292168,0.000000,175.000000,171.000000,4.000000,39.000000,0.000000,0.000000,0.000000,0.000000,0.000000,0.187287,0.204143,0.029966,0.292168,0.000000,175.000000,171.000000,4.000000,39.000000,0.000000,0.000000,0.000000,0.000000,0.000000;
#CREDIT:;
#DISPLAYBPM:101.000000;
#NOTES:
0000
0000
0000
0000
,
0000
0000
0000
0000
,
0000
0000
0000
0000
,
0000
0000
0000
0000
,
2000
0000
3020
0000
,
0230
0000
0301
0000
,
0002
0000
0203
0000
,
0320
0000
1030
0001
,
1000
0001
0100
0010
,
0100
0001
1000
0001
,
1000
1000
0010
1000
,
0010
0100
0001
0100
,
0010
0010
1000
0001
,
0010
0001
0200
0320
,
2030
3002
0103
0001
,
1000
0010
0200
0301
,
2000
3010
2000
0000
,
0000
3010
0001
0100
,
0002
0003
1000
0100
,
2000
3000
0001
1000
,
0020
0030
1000
0001
,
0010
0000
0001
1000
,
0200
0300
1000
0001
,
2000
3000
0001
0100
,
0020
0030
1000
0100
,
2000
3000
0001
0001
,
0010
0100
1000
1000
,
0001
0000
0100
0010
,
1000
0001
0100
0001
,
0020
0030
0001
0001
,
1000
0100
0010
0010
,
0001
0100
0010
0010
,
1000
1001
0002
0000
,
0100
0103
0110
0100
,
0001
1000
0010
0100
,
0002
0000
1003
0010
,
0100
0001
2002
0000
,
3003
0000
1000
0100
,
0010
0001
0010
0100
,
2000
3010
1000
0010
,
0100
0001
1000
0010
,
0200
0301
0010
0100
,
1000
0010
0200
0302
,
2003
3002
0013
0001
,
0100
0010
2000
3001
,
0200
0310
1000
0000
,
1000
0100
0010
0000
,
0010
0001
0100
0000
,
0100
0001
1000
0000
,
1000
0001
0100
0010
,
1000
0100
2000
3020
,
0230
0302
1003
0001
,
0010
0001
0010
0100
,
1000
0010
0220
0000
,
0000
0000
0330
0000
;

//---------------dance-single - ----------------
#NOTEDATA:;
#CHARTNAME:;
#STEPSTYPE:dance-single;
#DESCRIPTION:;
#CHARTSTYLE:;
#DIFFICULTY:Medium;
#METER:7;
#RADARVALUES:0.253640,0.285800,0.097389,0.239727,0.000000,237.000000,224.000000,13.000000,32.000000,0.000000,0.000000,0.000000,0.000000,0.000000,0.253640,0.285800,0.097389,0.239727,0.000000,237.000000,224.000000,13.000000,32.000000,0.000000,0.000000,0.000000,0.000000,0.000000;
#CREDIT:;
#DISPLAYBPM:101.000000;
#NOTES:
0000
0000
0000
0000
,
0000
0000
0000
0000
,
0000
0000
0000
0000
,
0000
0000
0000
0000
,
2000
0000
3010
0100
,
0002
0023
0230
1300
,
0020
0000
1030
0001
,
0200
0000
0302
1003
,
0001
0000
1000
0010
0100
0000
0001
0000
,
0100
0010
0100
0001
,
0010
0100
2000
0000
3010
0000
1000
0000
,
0100
1000
0010
0100
,
0001
0100
0020
0000
1030
0000
0001
0000
,
0010
0100
2000
3020
,
0230
0302
1003
0010
,
0100
0001
0010
0110
,
1000
0010
0100
0000
0102
0000
0010
0000
,
0000
1003
0001
0000
1001
0000
1000
0010
,
0100
0010
1000
0100
,
1000
0001
0010
0000
0100
0000
1000
0000
,
0010
0100
0001
0000
0010
0000
0001
0000
,
1000
1000
0001
0001
0100
0000
0010
0000
,
0100
0000
0001
1000
0010
0000
1000
0000
,
0001
0000
0010
0100
1000
0000
0010
0000
,
0100
0000
0010
0100
0002
0000
2003
0000
,
3001
0000
1001
0000
0001
0000
0001
1000
,
0100
0000
0010
0000
0001
0100
0001
0000
,
1000
1000
0010
0000
0100
0001
0100
0000
,
0010
1000
0100
0010
,
1001
0000
0110
0000
1000
0000
1000
0010
,
0100
0000
0100
0000
0001
0010
0100
0000
,
1000
1000
0010
0000
1000
0001
0010
0000
,
0100
1000
0010
0100
,
0101
1010
2000
0100
,
0010
0001
3020
0100
,
0230
0000
0302
1000
,
1000
0000
0103
0000
0001
1000
0001
1000
,
0010
0110
1000
0100
,
0010
0100
1000
0010
,
0100
0001
0020
0000
0031
0000
1000
0000
,
0001
0010
0001
0100
,
0010
1000
0200
0000
1300
0000
0010
0000
,
0100
0001
0020
2030
,
3200
0302
1003
0001
,
0010
0100
1000
0000
0010
0000
0110
0000
,
1000
0001
0010
0000
0200
0000
1000
0000
,
0000
1000
0320
0001
,
0100
0001
0032
0100
,
0000
0100
0203
0010
,
0001
0000
0010
0000
0310
1000
0100
0000
,
1000
0000
0010
0000
0100
0001
0010
0000
,
0100
1000
0010
0000
1001
0000
1000
0000
,
0001
1000
0010
0000
0100
0001
0100
0000
,
0010
0110
2002
0000
,
0000
0000
3003
0000
;

//---------------dance-single - ----------------
#NOTEDATA:;
#CHARTNAME:;
#STEPSTYPE:dance-single;
#DESCRIPTION:;
#CHARTSTYLE:;
#DIFFICULTY:Hard;
#METER:10;
#RADARVALUES:0.421663,0.469528,0.202270,0.239727,0.089898,394.000000,367.000000,27.000000,32.000000,0.000000,0.000000,0.000000,0.000000,0.000000,0.421663,0.469528,0.202270,0.239727,0.089898,394.000000,367.000000,27.000000,32.000000,0.000000,0.000000,0.000000,0.000000,0.000000;
#CREDIT:;
#DISPLAYBPM:101.000000;
#NOTES:
0000
0000
0000
0000
,
0000
0000
0000
0000
,
0000
0000
0000
0000
,
0000
0000
0000
0000
,
2000
0100
3000
1000
0001
0100
0010
1000
,
0002
0203
0320
2030
,
3200
0010
0300
0001
0100
0010
1000
0001
,
1001
0000
1000
0000
1001
0000
0100
0110
,
0010
0000
1010
0000
1000
0100
0010
0001
0010
0000
0100
0000
0010
0000
0001
0000
,
1000
0010
0001
0010
1000
0100
0010
0001
,
0100
0010
0200
0000
0301
1000
0100
0010
,
0001
0100
0010
0100
1000
0100
0010
1000
,
1100
0000
0011
0000
0001
0010
1000
0010
,
0100
1000
0010
0001
0200
0000
2300
0000
,
3020
0000
0230
0000
0301
1000
0010
0001
,
0010
0100
0001
0010
0100
1000
1010
0000
,
0100
0000
0001
0000
0011
0000
0000
0000
1001
0000
1000
0010
0100
0000
0002
0000
,
0000
1000
1003
0000
1001
0000
1000
0100
,
0010
0000
0011
0000
0001
0100
0010
1000
,
0100
0100
0010
0001
1001
0000
1010
0000
,
0010
0100
0001
0000
0010
0100
1000
0010
,
0100
0100
0001
0001
0110
0010
0001
0100
,
0020
0000
1030
0100
0010
0100
1000
0010
,
0100
0000
0001
0100
0001
0000
1000
0000
0100
0000
0010
0000
0100
0000
1000
0000
,
0020
0100
0130
0000
0110
0000
1001
0000
,
0110
0000
0001
1000
0100
0000
0000
0000
0010
0000
0001
0010
0100
0000
1000
0010
,
0100
0000
0001
0010
0100
0000
1000
0100
0010
0000
0001
0000
0100
0000
0010
0000
,
1000
0002
1003
0000
0010
1000
0010
0100
,
0001
0010
1000
0010
0001
0100
0010
1000
,
0001
0000
0101
0000
0110
0000
0000
0000
0001
0000
1000
0100
0010
0000
0001
0100
,
0010
0000
1000
0100
0010
0000
0100
0010
0001
0000
0100
0000
0010
0000
1000
0000
,
0100
0020
0031
0000
1000
0010
0100
1000
,
0100
0001
0010
0001
1000
0100
0010
0001
,
1000
1001
0101
0000
2000
0000
3010
0100
,
0002
0000
0013
0100
1000
0010
0100
0001
,
0020
0000
0000
0000
0000
0001
0000
0000
0130
0000
1000
0000
0010
0000
0100
0000
,
0001
0000
0000
0000
1000
0000
0100
0000
1000
0010
1000
0010
0100
0001
0100
0001
,
0010
0110
1000
1010
0100
0001
0010
1000
,
0010
0001
0100
1000
0100
0001
0010
1000
,
0020
0000
0032
0000
1003
0100
0001
0100
,
1000
0010
0001
0010
1000
0100
0001
0100
,
2000
0000
3020
0000
0130
0001
0010
1000
,
0100
0001
0010
1000
0200
0000
0320
0000
,
2030
0000
3002
0000
1003
0100
0010
0100
,
0010
1000
0010
0001
0100
0001
0101
0000
,
1000
0000
0010
0000
0110
0000
0000
0000
1000
0000
0010
0100
0010
0000
1000
0000
,
0100
0000
0010
0000
0001
0000
0100
0000
0010
0000
1000
0100
0010
0000
0001
0000
,
0100
0000
0020
0000
0000
0000
0130
0000
0001
0000
0010
0100
0010
0000
0001
0000
,
1000
0000
0010
0000
0100
0000
0001
0000
1000
0000
0100
0010
0001
0000
1000
0000
,
0001
0000
0010
0000
0200
0000
0000
0000
1300
0000
0010
0100
0010
0000
0100
0000
,
0001
0000
0010
0000
1000
0000
0010
0000
0100
0000
1000
0010
1000
0000
0001
0000
,
0010
0001
0100
0010
1000
0100
0010
0001
,
0100
1000
0100
0002
0000
0103
0010
1000
,
0100
0010
0001
1001
0220
0000
0000
0000
,
0000
0000
0330
0000
;

//---------------dance-double - ----------------
#NOTEDATA:;
#CHARTNAME:;
#STEPSTYPE:dance-double;
#DESCRIPTION:;
#CHARTSTYLE:;
#DIFFICULTY:Easy;
#METER:4;
#RADARVALUES:0.193708,0.204143,0.037457,0.284676,0.000000,181.000000,176.000000,5.000000,38.000000,0.000000,0.000000,0.000000,0.000000,0.000000,0.193708,0.204143,0.037457,0.284676,0.000000,181.000000,176.000000,5.000000,38.000000,0.000000,0.000000,0.000000,0.000000,0.000000;
#CREDIT:;
#DISPLAYBPM:101.000000;
#NOTES:
00000000
00000000
00000000
00000000
,
00000000
00000000
00000000
00000000
,
00000000
00000000
00000000
00000000
,
00000000
00000000
00000000
00000000
,
20000000
00000000
30020000
00000000
,
02030000
00000000
03010000
00000000
,
00002000
00000000
00003020
00000000
,
00000230
00000000
00000310
00001000
,
00010000
10000000
00100000
01000000
,
00100000
01000000
00010000
10000000
,
00100000
00100000
01000000
00010000
,
00001000
00000010
00000100
00000001
,
00000100
00000100
00000010
00001000
,
00000100
00010000
00002000
00023000
,
00032000
00203000
00301000
01000000
,
00010000
10000000
00200000
01300000
,
00020000
10030000
00200000
00000000
,
00000000
01300000
00010000
00001000
,
00020000
00030000
00000100
00001000
,
00000200
00000300
00001000
00000010
,
00000200
00000300
00000010
00001000
,
00000100
00000100
00011000
00001000
,
00200000
00300000
00010000
10000000
,
00200000
00300000
10000000
00100000
,
02000000
03000000
00001000
00010000
,
00011000
00000000
00001000
00010000
,
00001000
00100000
00001000
01000000
,
00010000
10000000
00100000
01000000
,
00010000
10000000
00100000
01000000
,
00020000
00030000
00001000
00000100
,
00001000
00000010
00001000
00000100
,
00010000
00000010
00001000
00000100
,
00010000
01000000
00100000
01000000
,
20000000
30010000
00010000
00001000
,
00010000
00001000
00200000
00000000
,
00301000
00000000
00010000
00000100
,
00010000
00000100
00200000
00000000
,
00310000
00011000
00001000
00000100
,
00000010
00000001
00000010
00000100
,
00001000
00001000
00010000
00100000
,
01000000
10000000
01000000
00100000
,
00010000
00010000
00001000
00000001
,
00000100
00000010
00002000
00003200
,
00020300
00032000
00013000
00001000
,
00100000
00010000
20000000
30100000
,
20000000
30010000
00101000
00001000
,
00010000
00000100
00100000
00001000
,
00020000
00030000
00000010
00001000
,
00000100
00010000
00000100
00001000
,
00000020
00000030
00001000
00000100
,
00001000
00000010
00002000
00003200
,
00020300
00032000
00103000
00010000
,
01000000
00200000
00300000
01000000
,
00001000
00010000
00022000
00000000
,
00000000
00000000
00033000
00000000
;

//---------------dance-double - ----------------
#NOTEDATA:;
#CHARTNAME:;
#STEPSTYPE:dance-double;
#DESCRIPTION:;
#CHARTSTYLE:;
#DIFFICULTY:Medium;
#METER:7;
#RADARVALUES:0.251500,0.285800,0.104881,0.307151,0.000000,235.000000,221.000000,14.000000,41.000000,0.000000,0.000000,0.000000,0.000000,0.000000,0.251500,0.285800,0.104881,0.307151,0.000000,235.000000,221.000000,14.000000,41.000000,0.000000,0.000000,0.000000,0.000000,0.000000;
#CREDIT:;
#DISPLAYBPM:101.000000;
#NOTES:
00000000
00000000
00000000
00000000
,
00000000
00000000
00000000
00000000
,
00000000
00000000
00000000
00000000
,
00000000
00000000
00000000
00000000
,
00020000
00000000
00031000
00100000
,
00002000
00023000
00030200
00002300
,
00003010
00000000
00000100
00000010
,
00000200
00000300
00000020
00010030
,
00001000
00000000
00100000
00001000
00010000
00000000
00001000
00000000
,
00100000
00001000
01000000
00010000
,
10000000
01000000
00100000
00000000
00010000
00000000
00001000
00000000
,
00010000
00000100
00010000
00000010
,
00001000
00000100
00000010
00000000
00000001
00000000
00000100
00000000
,
00000001
00001000
00000200
00002300
,
00003020
00000230
00000310
00001000
,
00000100
00010000
00001000
00101000
,
00010000
00001000
00000100
00000000
00021000
00000000
00001000
00000000
,
00000000
00031000
00010000
00000000
00101000
00000000
00100000
00010000
,
01000000
00010000
01000000
00100000
,
01000000
00010000
00100000
00000000
00010000
00000000
01000000
00000000
,
00001000
00010000
00000100
00010000
,
00001000
00001000
00010000
00010000
00000010
00000000
00000100
00000000
,
00000010
00001000
00000100
00001000
,
00000100
00010000
00000100
00000000
00010000
00000000
00001000
00000000
,
00100000
00100000
00010000
00000000
01010000
00000000
11000000
00000000
,
10000000
10000000
00010000
00000000
02000000
00000000
03100000
01000000
,
00020000
00000000
00130000
00010000
01000000
00000000
00010000
00000000
,
01000000
00010000
00100000
00001000
,
00010000
00000100
00010000
00001000
,
00011000
00000000
00010100
00000000
00001000
00000010
00000200
00000000
,
00000301
00000100
00000020
00000000
00001030
00000000
00000100
00000000
,
00010100
00011000
00100000
00001000
,
00100000
00010000
00100000
00000000
00001000
00000000
00010000
00000000
,
00011000
00102000
20003000
01000000
,
00100000
00010000
30002000
00010000
,
00023000
00000000
00030200
00001000
,
00010000
00000000
00001000
00000000
00010300
00001000
00100000
00001000
,
00010000
00010100
00000010
00000100
,
00000001
00001000
00000100
00010000
,
00001000
00100000
00010000
00000000
01000000
00000000
00100000
00000000
,
10000000
00010000
01000000
00001000
,
00010000
00000100
00010000
00000000
00000010
00000000
00001000
00000000
,
00000001
00000010
00000200
00020300
,
00230000
20300000
31000000
10000000
,
00100000
01000000
00010000
00000000
00100000
00000000
00101000
00000000
,
00010000
00000100
00001000
00000000
00000020
00000000
00001000
00000000
,
00000100
00001000
00020030
00032000
,
00023000
00032000
00203000
00010000
,
01000000
00010000
00302000
00023000
,
00030020
00000230
00000301
00000100
,
00000001
00001000
00000100
00000000
00020000
00000000
00032000
00000000
,
00203000
00320000
10030000
00100000
,
10000000
00010000
01000000
00000000
00100000
01000000
00010000
00000000
,
00100000
00001000
00010000
00000000
00022000
00000000
00000000
00000000
,
00000000
00000000
00033000
00000000
;

//---------------dance-double - ----------------
#NOTEDATA:;
#CHARTNAME:;
#STEPSTYPE:dance-double;
#DESCRIPTION:;
#CHARTSTYLE:;
#DIFFICULTY:Hard;
#METER:10;
#RADARVALUES:0.401329,0.469528,0.149830,0.307151,0.082406,375.000000,355.000000,20.000000,41.000000,0.000000,0.000000,0.000000,0.000000,0.000000,0.401329,0.469528,0.149830,0.307151,0.082406,375.000000,355.000000,20.000000,41.000000,0.000000,0.000000,0.000000,0.000000,0.000000;
#CREDIT:;
#DISPLAYBPM:101.000000;
#NOTES:
// measure 0
00000000
00000000
00000000
00000000
,  // measure 1
00000000
00000000
00000000
00000000
,  // measure 2
00000000
00000000
00000000
00000000
,  // measure 3
00000000
00000000
00000000
00000000
,  // measure 4
00020000
00001000
00000000
00031000
00010000
00000100
00001000
00000010
,  // measure 5
00000200
00000302
00002003
00003020
,  // measure 6
00020030
00001000
00000000
00031000
00010000
00001000
01000000
00010000
,  // measure 7
00200000
00000000
00000000
00000000
00300000
00000000
00000000
00000000
00200000
00000000
00000000
00300000
01000000
00000000
01100000
00000000
,  // measure 8
00010000
00000000
00110000
00000000
00001000
00010000
00001000
00010000
00001000
00000000
00100000
00000000
00010000
00000000
01000000
00000000
,  // measure 9
00010000
00100000
00010000
01000000
00001000
00010000
00000100
00001000
,  // measure 10
00000100
00001000
00000020
00000000
00000130
00000001
00001000
00000010
,  // measure 11
00001000
00000100
00010000
00001000
00100000
00010000
10000000
00010000
,  // measure 12
02000000
00000000
03020000
00000000
00130000
00001000
00010000
00001000
,  // measure 13
00100000
00001000
00010000
00000100
00002000
00000000
00003020
00000000
,  // measure 14
00020030
00000000
00030200
00000000
00100300
00010000
10000000
00010000
,  // measure 15
10000000
00100000
01000000
00100000
01000000
00010000
01010000
00000000
,  // measure 16
00100000
00000000
00001000
00000000
00011000
00000000
00000000
00000000
00101000
00000000
00001000
00100000
00001000
00000000
00020000
00000000
,  // measure 17
00000000
00000100
00030100
00000000
00011000
00000000
00100000
00010000
,  // measure 18
00100000
00000000
01100000
00000000
10000000
00100000
01000000
00010000
,  // measure 19
00100000
00010000
00010000
01000000
00100000
00000000
10100000
00000000
,  // measure 20
10000000
01000000
00100000
00000000
00010000
00001000
00000100
00000010
,  // measure 21
00000001
00000001
00001000
00001000
00001010
00000010
00001000
00000100
,  // measure 22
00020000
00000000
00031000
00100000
00010000
01000000
00010000
00100000
,  // measure 23
00001000
00000000
00010000
00001000
00010000
00000000
00000010
00000000
00010000
00000000
00000100
00000000
00010000
00000000
00001000
00000000
,  // measure 24
02000000
00001000
03001000
00000000
00010000
00001000
00010000
00001000
,  // measure 25
00020000
00000000
00000100
00000000
00030100
00000000
00000000
00000000
00110000
00000000
00100000
00001000
00010000
00000000
00001000
00010000
,  // measure 26
00000100
00000000
00010000
00000100
00010000
00000000
00001000
00100000
00001000
00000000
00100000
00000000
00010000
00000000
10000000
00000000
,  // measure 27
00100000
10100000
10010000
00000000
00010000
01000000
00100000
10000000
,  // measure 28
00010000
01000000
00100000
01000000
00010000
00001000
00000100
00000010
,  // measure 29
00000002
00000000
00000100
00000000
00000103
00000000
00000000
00000000
00010010
00000000
00001000
00000100
00000010
00000000
00000100
00001000
,  // measure 30
00000010
00000000
00000100
00000001
00001000
00000000
00000100
00001000
00000100
00000000
00010000
00000000
00001000
00000000
00100000
00000000
,  // measure 31
00010000
01010000
01001000
00000000
00001000
00010000
00000100
00010000
,  // measure 32
00001000
00100000
00010000
10000000
00100000
10000000
01000000
00100000
,  // measure 33
00002000
00010000
00013000
00000000
00021000
00000000
00001000
00000000
,  // measure 34
00000100
00001000
00032000
00100000
,  // measure 35
00203000
00000000
00000000
00000000
00000000
00010000
00000000
00000000
00320000
00000000
00000000
00000000
01000000
00000000
00000000
00000000
,  // measure 36
10000000
00000000
00000000
00000000
00100000
00000000
00000000
00000000
01030000
00010000
01000000
00010000
00100000
00001000
00100000
00001000
,  // measure 37
00010000
00010100
00000100
00001100
00000001
00000010
00000100
00001000
,  // measure 38
00010000
00100000
01000000
10000000
01000000
00100000
00010000
00001000
,  // measure 39
00000100
00000010
00000002
00000000
00000013
00000100
00001000
00000100
,  // measure 40
00010000
00001000
00100000
00010000
01000000
00100000
10000000
01000000
,  // measure 41
00200000
00000000
00320000
00000000
01030000
00001000
00010000
00000100
,  // measure 42
00001000
00000001
00000010
00000100
00020000
00000000
00030200
00000000
,  // measure 43
00002300
00000000
00023000
00000000
01030000
00010000
00001000
00000100
,  // measure 44
00001000
00000010
00010000
00000100
00010000
00001000
00110000
00000000
,  // measure 45
00100000
00000000
01000000
00000000
11000000
00000000
00000000
00000000
10000000
00000000
00010000
00100000
00010000
00000000
00100000
00000000
,  // measure 46
00001000
00000000
00010000
00000000
00000100
00000000
00001000
00000000
00000001
00000000
00000010
00000100
00001000
00000000
00000010
00000000
,  // measure 47
00001000
00000000
00000200
00000000
00000000
00000000
00010300
00000000
00001000
00000000
00100000
00001000
00100000
00000000
00010000
00000000
,  // measure 48
00100000
00000000
01000000
00000000
10000000
00000000
00100000
00000000
01000000
00000000
00010000
00100000
00010000
00000000
00100000
00000000
,  // measure 49
00002000
00000000
00000000
00000000
00013000
00000000
00000000
00000000
00000100
00000000
00010000
00001000
00010000
00000000
00001000
00000000
,  // measure 50
00100000
00001000
00010000
00000100
00002000
00000000
00003200
00000000
,  // measure 51
00000302
00000000
00000023
00000000
00001030
00010000
00100000
00010000
,  // measure 52
10000000
00100000
01000000
00020000
00000000
10030000
01000000
00100000
,  // measure 53
00001000
00010000
00000010
00020000
00002000
00000000
00000000
00000000
,  // measure 54
00000000
00000000
00033000
00000000
;
