#TITLE:I got no time;
#SUBTITLE:;
#ARTIST:The Living Tombstone;
#TITLETRANSLIT:;
#SUBTITLETRANSLIT:;
#ARTISTTRANSLIT:;
#GENRE:;
#CREDIT:;
#BANNER:I got no time-bn.png;
#BACKGROUND:;
#LYRICSPATH:;
#CDTITLE:cdtitle.png;
#MUSIC:I got no time.mp3;
#OFFSET:2.542727;
#SAMPLESTART:5.332001;
#SAMPLELENGTH:15.000000;
#LASTBEATHINT:250.928696;
#SELECTABLE:YES;
#BPMS:0.000000=90.010002
;
#STOPS:
;
#BGCHANGES:4.000=I got no time.avi=1.000=1=0=0=StretchNoLoop==CrossFade==,
99999=-nosongbg-=1.000=0=0=0 // don't automatically add -songbackground-
;
#KEYSOUNDS:;
#ATTACKS:;

//---------------dance-single - ----------------
#NOTES:
     dance-single:
     :
     Beginner:
     1:
     0.087571,0.105340,0.000000,0.160688,0.000000,103.000000,103.000000,0.000000,27.000000,0.000000,0.000000,0.087571,0.105340,0.000000,0.160688,0.000000,103.000000,103.000000,0.000000,27.000000,0.000000,0.000000:
0000
0000
0000
0000
,
0000
0000
0000
0000
,
0000
0000
0000
0000
,
1000
0000
0001
0000
,
1000
0000
0010
0000
,
1000
0000
0100
0000
,
0010
0000
0100
0000
,
0010
0000
0001
0000
,
1000
0000
0010
0000
,
0100
0000
0001
0000
,
1000
0000
0001
0000
,
0100
0000
0100
0000
,
0010
0000
0010
0000
,
1000
0000
1000
0000
,
0001
0000
0001
0000
,
1000
0000
1000
0000
,
0010
0000
0010
0000
,
0100
0000
0100
0000
,
0001
0000
0001
0000
,
2000
0000
3000
0010
,
0200
0000
0300
0001
,
0020
0000
0030
0100
,
2000
0000
3000
0010
,
0200
0000
0300
0001
,
2000
0000
3000
0010
,
0000
0000
0100
0001
,
0020
0000
0030
0000
,
1000
0000
0001
0000
,
0100
0001
0100
0000
,
0010
0000
1000
0000
,
0010
0100
0010
0000
,
1000
0000
0001
0000
,
0010
0001
0010
0000
,
0001
0000
0100
0000
,
0010
1000
0010
0000
,
0100
0000
0100
0000
,
0001
0000
0001
0000
,
1000
0000
1000
0000
,
0001
0000
0001
0000
,
0100
0000
0010
0000
,
1000
0000
0010
0000
,
0100
0000
0001
0000
,
1000
0000
0001
0000
,
2000
0000
0000
0000
,
3002
0000
0000
0000
,
0203
0000
0000
0000
,
0302
0000
0000
0000
,
0023
0000
0032
0000
,
2003
0000
3020
0000
,
0230
0000
0000
0000
,
0320
0000
0030
0000
,
2000
0000
0000
0000
,
3020
0000
0000
0000
,
0230
0000
0000
0000
,
0320
0000
0000
0000
,
2030
0000
3002
0000
,
0203
0000
0302
0000
,
2003
0000
0000
0000
,
0002
0000
0000
0000
,
3003
0000
0000
0000
;

//---------------dance-single - ----------------
#NOTES:
     dance-single:
     :
     Easy:
     3:
     0.144535,0.158010,0.059514,0.297571,0.000000,170.000000,160.000000,10.000000,50.000000,0.000000,0.000000,0.144535,0.158010,0.059514,0.297571,0.000000,170.000000,160.000000,10.000000,50.000000,0.000000,0.000000:
0000
0000
0000
0000
,
0000
0000
0000
0000
,
0000
0000
0000
0000
,
1001
0000
0110
0000
,
1000
0100
0010
0000
,
0101
0000
1010
0000
,
0001
0100
0010
0000
,
1001
0000
1001
0000
,
0100
0001
1000
0000
,
1100
0000
0101
0000
,
0010
0001
1000
0000
,
0002
0000
0203
0000
,
0320
1000
2030
0000
,
3200
0000
2300
0000
,
3002
0100
0203
0000
,
0310
0010
1000
1000
,
0100
1000
0010
0001
,
0100
0100
1000
1000
,
0001
0010
0200
0300
,
1020
0000
0230
0000
,
0302
0000
1003
0100
,
0020
0000
0230
0000
,
2300
0000
3001
0100
,
2000
0000
3200
0000
,
0320
0000
1030
0100
,
0020
0000
0032
0000
,
2003
0000
3010
0000
,
1000
0001
1000
0001
,
0100
0010
0100
0010
,
0100
0001
0100
1000
,
0010
0001
1000
0000
,
0001
0100
0001
0100
,
0010
1000
0010
1000
,
0100
1000
0010
0001
,
0010
0100
0001
0000
,
2000
0000
3020
0000
,
0230
0000
0320
0000
,
2030
0000
3200
0000
,
0302
0000
0203
0000
,
1300
1000
0001
0001
,
0100
0010
1000
0001
,
0010
0010
0100
0100
,
1000
0010
0001
0000
,
0002
0000
0100
0100
,
0203
0000
0010
0010
,
0320
0000
1000
1000
,
2030
0000
0001
0001
,
3002
0000
2003
0000
,
3020
0000
0130
0001
,
0200
0000
0320
0000
,
2030
0000
3001
1001
,
2000
0000
0010
0010
,
3020
0000
1000
1000
,
0230
0000
0010
0010
,
0302
0000
0100
0100
,
2003
0000
3002
0000
,
2003
0000
3001
0100
,
0020
0000
2030
0000
,
3200
0000
0020
0000
,
0330
0000
0000
0000
;

//---------------dance-double - ----------------
#NOTES:
     dance-double:
     :
     Easy:
     3:
     0.124980,0.158010,0.005951,0.345183,0.000000,147.000000,146.000000,1.000000,58.000000,0.000000,0.000000,0.124980,0.158010,0.005951,0.345183,0.000000,147.000000,146.000000,1.000000,58.000000,0.000000,0.000000:
00000000
00000000
00000000
00000000
,
00000000
00000000
00000000
00000000
,
00000000
00000000
00000000
00000000
,
00100000
00000000
00010000
00000000
,
10000000
00100000
00010000
00000000
,
00001000
00000000
00100000
00000000
,
00010000
00100000
00001000
00000000
,
00010000
00000000
00000100
00000000
,
00001000
00000001
00000100
00000000
,
00000010
00000000
00001000
00000000
,
00000100
00001000
00010000
00000000
,
02000000
00000000
03020000
00000000
,
00032000
00000000
00003200
00000000
,
00002300
00000000
00003002
00000000
,
00000203
00000000
00000320
00000000
,
00001030
00001000
00010000
00010000
,
10000000
10000000
01000000
01000000
,
00100000
00100000
00010000
00010000
,
00001000
00001000
00000020
00000030
,
00000002
00000000
00000000
00000000
,
00002003
00000000
00003100
00001000
,
00000200
00000000
00020300
00000000
,
00230000
00000000
10300000
01000000
,
00200000
00000000
00320000
00000000
,
00032000
00000000
00003010
00000100
,
00000002
00000000
00002003
00000000
,
00003200
00000000
00000300
00000000
,
00010000
00010000
00001000
00001000
,
00010000
00000100
00000010
00000000
,
00000001
00000001
00000010
00000010
,
00000100
00010000
00001000
00000000
,
00010000
00010000
00001000
00001000
,
00100000
00010000
01000000
00000000
,
00100000
00100000
00010000
00010000
,
00001000
01000000
00010000
00000000
,
20000000
00000000
30200000
00000000
,
00320000
00000000
00032000
00000000
,
00003200
00000000
00000320
00000000
,
00002030
00000000
00003001
00000000
,
00000001
00000001
00000100
00000100
,
00001000
00001000
00010000
00010000
,
01000000
01000000
10000000
10000000
,
00010000
00010000
00002000
00003000
,
00001002
00000000
00002003
00000000
,
00023000
00000000
02030000
00000000
,
03020000
00000000
00230000
00000000
,
00302000
00000000
00023000
00031000
,
00000020
00000000
00000230
00000000
,
00002300
00000000
00003002
00000000
,
00002003
00000000
02003000
00000000
,
03200000
00000000
00310000
00001000
,
00000200
00000000
00020300
00000000
,
00032000
00000000
00203000
00000000
,
02300000
00000000
23000000
00000000
,
30200000
00000000
01300000
00010000
,
00002000
00000000
00003002
00000000
,
00002003
00000000
00003002
00000000
,
00000023
00000000
00002030
00000000
,
00023000
00000000
00002000
00000000
,
00033000
00000000
00000000
00000000
;

//---------------dance-single - ----------------
#NOTES:
     dance-single:
     :
     Medium:
     6:
     0.235506,0.298464,0.047611,0.285668,0.000000,277.000000,269.000000,8.000000,48.000000,0.000000,0.000000,0.235506,0.298464,0.047611,0.285668,0.000000,277.000000,269.000000,8.000000,48.000000,0.000000,0.000000:
0000
0000
0000
0000
,
0000
0000
0000
0000
,
0000
0000
0000
0000
,
0001
0100
0000
0001
0100
0010
0000
1000
,
0100
0010
0001
1000
0010
0000
0100
0010
,
1000
1000
0100
0010
0001
0001
0010
0100
,
1000
0001
0100
0010
0100
0000
1001
0000
,
0001
0100
0000
0001
0100
0010
0000
0100
,
0001
0010
0100
1000
0100
0000
1000
0010
,
0100
0100
1000
0100
0001
0001
0010
0100
,
0010
0001
1000
0010
0100
0000
0110
0000
,
2000
0000
3020
0000
,
0230
0001
0320
0000
,
2030
0000
3200
0000
,
0320
0001
0230
0000
,
1300
0010
1000
0000
0001
0100
0001
0000
,
0010
0100
1000
0000
0100
0010
0001
0000
,
0100
1000
0100
0000
0001
1000
0001
0000
,
1000
0100
0010
0001
1000
0000
0000
0000
,
1002
0100
0100
0100
,
0203
0010
0010
0001
,
0320
1000
0100
1000
,
0230
1000
0010
0010
,
0302
0010
2003
0100
,
3020
0100
2030
0100
,
3002
0010
1000
0100
,
0203
0010
0310
0000
,
1000
0100
0000
1000
0100
0010
0000
0100
,
1000
0001
0010
0100
1000
0000
0001
0100
,
1000
1000
0100
0001
0010
0010
0100
0001
,
0100
1000
0010
0100
0010
0000
1001
0000
,
0100
0010
0000
0100
0010
1000
0000
0010
,
0100
0001
0010
0100
1000
0000
0001
0100
,
0001
0001
0010
0100
0001
0001
0100
0010
,
0001
0100
0010
1000
0001
0000
1001
0000
,
0200
0000
0320
0000
,
2030
0000
3200
0320
,
0032
0000
2003
0000
,
3002
0000
2003
3002
,
0013
0100
1000
0000
0100
1000
0010
0000
,
0100
0001
0010
0000
0001
0010
0100
0000
,
1000
0010
0001
0000
0001
0010
1000
0000
,
1000
0100
0010
0001
0100
0000
0000
0000
,
1002
0010
0010
0010
,
2003
0010
0010
0010
,
3002
0010
0010
1000
,
0203
0001
0001
1000
,
0302
0010
0023
0100
,
0230
1000
2300
0010
,
3002
0100
1000
0010
,
0023
0100
0031
1001
,
0020
0001
1000
0001
,
2030
0001
0100
0001
,
3200
0001
0010
0001
,
2300
0010
0100
0010
,
3002
0010
2003
0100
,
3002
0010
2003
0100
,
3020
0001
0100
0001
,
2030
0001
3001
0000
,
0110
0000
0000
0000
;

//---------------dance-double - ----------------
#NOTES:
     dance-double:
     :
     Medium:
     6:
     0.206599,0.263351,0.059514,0.303523,0.000000,243.000000,233.000000,10.000000,51.000000,0.000000,0.000000,0.206599,0.263351,0.059514,0.303523,0.000000,243.000000,233.000000,10.000000,51.000000,0.000000,0.000000:
00000000
00000000
00000000
00000000
,
00000000
00000000
00000000
00000000
,
00000000
00000000
00000000
00000000
,
10000000
10000000
00000000
00000000
00010000
00010000
00000000
00000000
,
10000000
01000000
00100000
00010000
00001000
00000000
00001010
00000000
,
00000010
00000010
00001000
00000000
00000001
00000001
00001000
00000000
,
00000100
00001000
00000010
00001000
00000100
00000000
00011000
00000000
,
00010000
00010000
00000000
00000000
00001000
00001000
00000000
00000000
,
00010000
00001000
00100000
00010000
10000000
00000000
00000000
00000000
,
00100000
00100000
01000000
00000000
00100000
00100000
00010000
00000000
,
00100000
00010000
00001000
00010000
00000100
00000000
00001001
00000000
,
00000002
00000000
00000203
00000000
,
00000320
00000000
00002030
00010000
,
00003200
00000000
00020300
00000000
,
00032000
00000000
00203000
00010000
,
00301000
00000000
00010000
00000000
00001000
00010000
00000100
00000000
,
00010000
00000000
00001000
00000000
00010000
00100000
00010000
00000000
,
00001000
00100000
00010000
00000000
10000000
01000000
00100000
00000000
,
00010000
00100000
00001000
00010000
00000100
00000000
00000000
00000000
,
00001002
00000010
00001000
00000100
,
00002003
00000010
00000001
00000100
,
00023000
00001000
00100000
01000000
,
20030000
00100000
01000000
30020000
,
00032000
00000100
00003002
00000100
,
00002003
00000010
00003002
00000010
,
00002003
00000100
00000010
00000001
,
00023000
00100000
00031000
00000000
,
00000001
00001000
00000000
00000001
00001000
00000001
00000000
00000001
,
00000010
00000100
00001000
00010000
00100000
00000000
10010000
00000000
,
10000000
10000000
00100000
00000000
00010000
00010000
00100000
00000000
,
10000000
00100000
01000000
00010000
00001000
00000000
00001001
00000000
,
00000001
00001000
00000000
00000001
00001000
00000010
00000000
00001000
,
00000001
00000010
00000100
00001000
00010000
00000000
00110000
00000000
,
00100000
00100000
00001000
00000000
00100000
00100000
10000000
00000000
,
00100000
00010000
00001000
00000010
00001000
00000000
00001001
00000000
,
00000002
00000000
00000203
00000000
,
00002300
00000000
00023000
00001000
,
00230000
00000000
20300000
00000000
,
32000000
00000000
23000000
00010000
,
30010000
00000000
00100000
00000000
00010000
00001000
00000010
00000000
,
00000100
00000000
00000001
00000000
00001000
00000010
00010000
00000000
,
00001000
00000000
00010000
00000000
00000100
00010000
00100000
00000000
,
10000000
01000000
00100000
00001000
00010000
00000000
00000000
00000000
,
00012000
00000000
00010000
00010000
,
00203000
00000000
00001000
00010000
,
00302000
00000000
00003020
00000000
,
00000032
00000000
00000103
00000010
,
00002000
00000000
00023000
00000000
,
20030000
00000000
00100000
00010000
,
30200000
00320000
00000000
00001000
,
00032000
00000000
00013000
00000100
,
00020000
00001000
00000100
00001000
,
00030200
00001000
00000010
00000001
,
00002300
00000010
00003200
00000010
,
00002300
00000010
00003200
00000010
,
00002300
00000000
00023000
00000000
,
20030000
00000000
30200000
00010000
,
02300000
03020000
00000000
00100000
,
00032000
00000100
00013000
00000000
,
00011000
00000000
00000000
00000000
;

//---------------dance-single - ----------------
#NOTES:
     dance-single:
     :
     Hard:
     12:
     0.535628,0.544258,0.113077,0.065466,0.645730,630.000000,611.000000,19.000000,11.000000,0.000000,0.000000,0.535628,0.544258,0.113077,0.065466,0.645730,630.000000,611.000000,19.000000,11.000000,0.000000,0.000000:
0000
0000
0000
0000
,
0000
0000
0000
0000
,
0000
0000
0000
0000
,
1000
0100
0010
0000
0000
0001
1000
0010
0100
0010
1000
0000
0000
0010
0100
0001
,
0010
0100
1000
0100
0010
0001
0100
0010
0100
0000
0000
0000
1001
0000
0001
0010
,
0100
1000
0010
0001
0010
1000
0100
0010
0001
0010
0100
1000
0010
0100
0010
0100
,
0001
0010
0001
1000
0100
1000
0010
0100
0001
0000
0000
0000
1001
0000
1000
0010
,
0100
0001
0100
0000
0000
0100
0001
1000
0010
0100
0010
0000
0000
1000
0010
0100
,
0001
0010
0100
1000
0100
0010
0001
0010
0100
0000
0000
0000
1001
0000
1000
0010
,
0100
0001
0100
1000
0100
0001
0010
0100
1000
0010
1000
0001
0100
1000
0100
0001
,
0010
0100
1000
0100
0010
0001
0010
0100
1000
0000
0000
0000
0110
0000
0001
0100
,
0000
0001
0200
0000
0000
0000
0310
1000
0000
0010
2000
0000
0000
0000
3100
1000
,
0000
0010
0200
0000
0000
0000
0301
0100
0010
0000
0000
0000
1001
0000
0001
1000
,
0000
0100
0020
0000
0000
0000
0031
0010
0000
0100
2000
0000
0000
0000
3010
0100
,
0000
1000
0200
0000
0000
0000
0301
0100
0010
0000
0000
0000
1001
0000
0001
1000
,
0001
0010
0001
0010
0100
0010
0100
0010
,
0001
0010
0100
0010
0001
1000
0010
0100
,
0001
0010
0001
0010
0100
0010
0100
0010
,
0001
0100
1000
0100
0001
1000
0010
0200
0000
0000
0000
0000
0300
0000
0000
0000
,
0001
0000
1000
0000
0001
0100
0010
0000
1000
0000
0001
0000
1000
0010
0100
0000
,
0001
0000
1000
0000
0001
0100
0010
0000
1000
0000
0001
0000
1000
0010
0100
0000
,
0001
0010
0100
0000
1000
0000
0010
0100
0000
0001
0100
0000
0010
1000
0100
0000
,
1000
0000
0010
1000
0000
0010
0100
0000
0010
0001
0000
1000
0100
0000
1001
0000
,
0001
0000
0100
0000
0001
0100
0010
0000
1000
0000
0100
0000
1000
0100
0010
0000
,
0001
0000
0100
0000
1000
0100
0010
0000
1000
0000
0100
0000
0001
0010
0100
0000
,
0010
1000
0100
0000
0010
0000
0001
0010
0000
0100
1000
0000
0010
0100
1000
0000
,
0100
0001
0010
0100
1000
0001
1000
0010
0100
0000
0000
0000
0000
0000
0000
0000
,
1000
0100
1000
0000
0000
1000
0100
1000
0010
1000
0010
0000
0000
1000
0100
0010
,
0001
0010
0001
0100
1000
0100
0001
0010
0001
0000
0000
0000
1001
0000
0010
1000
,
0100
0010
0100
0010
0001
1000
0010
0001
0010
0100
0010
0100
0001
0010
0100
1000
,
0010
0100
1000
0100
0001
0010
0100
1000
0001
0000
0000
0000
1001
0000
1000
0001
,
0010
0001
0010
0000
0000
0001
0010
0100
1000
0100
1000
0000
0000
0001
1000
0001
,
1000
0010
0100
1000
0100
0001
0010
0100
1000
0000
0000
0000
1001
0000
1000
0001
,
0100
1000
0100
0001
0010
0001
0010
0001
0100
1000
0100
0001
0010
0001
0010
0001
,
0010
0100
1000
0010
0100
1000
0100
0001
0010
0000
0000
0000
0101
0000
0001
1000
,
0000
0010
0100
0000
1000
0000
0100
0010
0000
0100
0010
0000
0001
0000
0010
1000
,
0001
0010
0001
0010
0100
1000
0100
0010
0001
0000
0000
0000
1001
0000
1000
0010
,
0000
0100
0010
0000
0100
0000
0001
0100
0000
0010
0100
0000
0001
0000
1000
0100
,
0010
0001
0010
0001
1000
0010
0100
0001
1000
0000
0000
0000
1001
0000
1000
0001
,
0100
0010
0100
0010
0100
1000
0100
1000
,
0010
0001
0010
0001
0010
1000
0010
1000
,
0010
0001
1000
0000
0010
0000
0001
0000
0010
1000
0100
0000
0001
0000
0100
0000
,
1000
0001
1000
0001
0100
0010
0100
0020
0000
0000
0000
0000
0030
0000
0000
0000
,
1000
0000
0001
0000
1000
0001
0010
0000
0001
0000
1000
0000
0001
1000
0010
0000
,
0100
0000
0010
0000
0100
0001
0010
0000
0100
0000
0010
0000
0100
1000
0010
0000
,
0100
0010
1000
0000
0100
0000
0010
0001
0000
0010
0001
0000
0100
0010
0100
0000
,
1000
0000
0100
0001
0000
0100
0001
0000
0100
0001
0000
1000
0100
0000
0110
0000
,
0010
0000
0001
0000
1000
0010
0001
0000
0010
0000
1000
0000
0001
0010
1000
0000
,
0010
0000
0001
0000
0100
1000
0100
0000
0001
0000
0010
0000
0100
0001
0100
0000
,
0010
0001
0010
0000
0100
0000
1000
0010
0000
0100
1000
0000
0100
0001
0010
0000
,
0001
1000
0001
0100
1000
0100
1000
0100
0001
0000
0011
0000
0101
0000
1001
0000
,
1000
0001
0100
0000
0001
0000
1000
0100
0001
0100
0010
0000
0100
0000
1000
0010
,
0100
0001
0100
0000
0001
0000
1000
0010
0100
0010
0100
0000
0001
0000
0100
0001
,
1000
0001
0010
0000
0100
0000
1000
0100
0010
0001
0010
0000
0100
0000
1000
0010
,
0001
0010
0100
0000
0010
0000
1000
0001
0100
0010
1000
0000
0101
0000
1001
0000
,
0001
0000
0100
0000
0001
0100
1000
0100
0010
0000
1000
0000
0100
0010
1000
0010
,
0001
0000
0100
0000
0010
1000
0100
1000
0010
0000
1000
0000
0001
0100
0010
0100
,
0001
0000
1000
0100
0001
0000
0001
0100
1000
0000
1000
0010
0001
0000
0001
0010
,
1000
0010
1000
0001
0010
0100
0010
0100
1000
0000
0002
0000
0023
0000
0230
0000
,
1300
0000
0000
0000
;

//---------------dance-double - ----------------
#NOTES:
     dance-double:
     :
     Hard:
     12:
     0.485466,0.491588,0.220203,0.059514,0.401721,571.000000,534.000000,37.000000,10.000000,0.000000,0.000000,0.485466,0.491588,0.220203,0.059514,0.401721,571.000000,534.000000,37.000000,10.000000,0.000000,0.000000:
00000000
00000000
00000000
00000000
,
00000000
00000000
00000000
00000000
,
00000000
00000000
00000000
00000000
,
10000000
01000000
00100000
00000000
00010000
00000000
10000000
00000000
01000000
00100000
00010000
00000000
10000000
00000000
01000000
00000000
,
00100000
00010000
00100000
00001000
00010000
00000100
00001000
00000010
00001000
00000000
00000000
00000000
00001001
00000000
00000000
00000000
,
00001000
00000100
00000001
00000100
00001000
00000000
00001010
00000000
00001000
00000100
00000010
00001000
00010000
00000000
00011000
00000000
,
00100000
00010000
00100000
00010000
01000000
00001000
00010000
00001000
00100000
00000000
00000000
00000000
10010000
00000000
10000000
00000000
,
01000000
00100000
00010000
00000000
01000000
00000000
00100000
00000000
00010000
00001000
00010000
00000000
00000100
00000000
00001000
00000000
,
00000010
00001000
00000100
00000010
00000001
00000010
00000100
00001000
00010000
00000000
00000000
00000000
00110000
00000000
00100000
00000000
,
00001000
00010000
00000100
00001000
00000010
00000000
00000101
00000000
00000010
00000100
00001000
00010000
00100000
00000000
00110000
00000000
,
00100000
00001000
00010000
00000100
00100000
00010000
00100000
00010000
00100000
00000000
00000000
00000000
00011000
00000000
00010000
00000100
,
00000000
00001000
00000010
00000000
00000100
00000000
00000001
00001000
00000000
00000001
00001000
00000000
00000100
00000000
00010000
00001000
,
00000000
00010000
00001000
00000000
00100000
00000000
01000000
00100000
00000000
01000000
00100000
00000000
00010000
00000000
00001000
00000100
,
00000000
00001000
00000100
00000000
00000010
00000000
00001000
00010000
00000000
00001000
00010000
00000000
00000100
00000000
00000010
00000001
,
00000000
00000010
00000001
00000000
00001000
00000000
00010000
00100000
00010000
00000000
00000000
00000000
10010000
00000000
10000000
01000000
,
00100000
00010000
00100000
00010000
00001000
00010000
00100000
01000000
,
00100000
00010000
00100000
00001000
00010000
00001000
00010000
00100000
,
00010000
00001000
00010000
00001000
00010000
00000100
00010000
00000100
,
00001000
00000100
00001000
00000100
00000010
00000001
00000010
00000200
00000000
00000000
00000000
00000000
00000300
00000000
00000000
00000000
,
00011000
00000000
00100000
00000000
00010000
00100000
00010000
00000000
10000000
00000000
00100000
00000000
10000000
00100000
10000000
00000000
,
00010000
00000000
00001000
00000000
00010000
00001000
00010000
00000000
00100000
00000000
00001000
00000000
00100000
00001000
00010000
00000000
,
00000100
00001100
00000000
00001001
00000010
00001010
00000000
00001100
,
00001000
00000000
00010000
10000000
00000000
00010000
10000000
00000000
00100000
01000000
00010000
00000000
00100000
00000000
00011000
00000000
,
00010000
00000000
00000100
00000000
00010000
00001000
00010000
00000000
00000100
00000000
00000010
00000000
00000100
00010000
00001000
00000000
,
00010000
00000000
00100000
00000000
00010000
00001000
00010000
00000000
00000100
00000000
00000010
00000000
00000001
00001000
00000001
00000000
,
00000100
00000101
00000000
00001100
00001000
00011000
00000000
10010000
,
10000000
00000000
00100000
01000000
00010000
00100000
00001000
00010000
00000100
00000000
00000000
00000000
00000000
00000000
00000000
00000000
,
00100000
00010000
00001000
00000000
00000100
00000000
00001000
00000000
00000010
00000100
00000010
00000000
00000100
00000000
00000001
00000000
,
00000010
00000100
00001000
00010000
00100000
00010000
00001000
00000100
00001000
00000000
00000000
00000000
00001010
00000000
00001000
00000000
,
00010000
10000000
00010000
10000000
00100000
00000000
00110000
00000000
00010000
00001000
00010000
00001000
00010000
00000000
00001100
00000000
,
00000010
00000100
00000010
00000001
00001000
00000010
00000100
00000001
00001000
00000000
00000000
00000000
00011000
00000000
00100000
00000000
,
00010000
10000000
00100000
00000000
00010000
00000000
00001000
00000000
00010000
00100000
00010000
00000000
00001000
00000000
00010000
00000000
,
00000100
00000010
00000100
00000010
00000001
00000010
00000001
00001000
00000100
00000000
00000000
00000000
00011000
00000000
00100000
00000000
,
00010000
01000000
00100000
10000000
01000000
00000000
00110000
00000000
00100000
00001000
00010000
00000100
00001000
00000000
00001100
00000000
,
00001000
00000100
00010000
00001000
00010000
00100000
00010000
00001000
00010000
00000000
00000000
00000000
00000100
00000000
00000000
00000000
,
00020000
00001000
00031000
00000000
00000200
00001000
00001300
00000000
,
00200000
00010000
00310000
00000000
00000200
00000010
00000310
00000000
,
00000200
00001000
00001300
00000000
00200000
00010000
00310000
00000000
,
20000000
00010000
30010000
00000000
00002000
00000100
00003100
00000000
,
00001001
00001000
00000100
00001000
00010000
00001000
00000100
00010000
,
00100000
00010000
00100000
00010000
00001000
00010000
00100000
10000000
,
00010000
00100000
00010000
00100000
00001000
00010000
00100000
00010000
,
00001000
00010000
00001000
00010000
00000100
00001000
00000010
00000200
00000000
00000000
00000000
00000000
00000300
00000000
00000000
00000000
,
00011000
00000000
00010000
00001000
00010000
00000000
00100000
00000000
00010000
00000000
00001000
00000000
00010000
00001000
00010000
00000000
,
00001000
00000000
00000010
00000000
00001000
00010000
00001000
00000000
00010000
00000000
00100000
00000000
00010000
00001000
00010000
00000000
,
00001000
00010000
00100000
00000000
00010000
00000000
00001000
00010000
00000000
00000100
00000010
00000000
00000001
00001000
00000001
00000000
,
00001000
00000000
00000100
00010000
00000000
00100000
00010000
00000000
00001000
00010000
00000000
00000100
00010000
00000000
00000110
00000000
,
00000001
00000000
00001000
00000000
00000010
00000100
00000001
00000000
00000010
00000000
00000100
00000000
00001000
00010000
00100000
00000000
,
00001000
00000000
00010000
00000000
01000000
00010000
00001000
00000000
00010000
00000000
00000100
00000000
00010000
00000010
00001000
00000000
,
00000001
00000000
00000010
00000000
00000100
00001000
00010000
00000000
00100000
00000000
00010000
00000000
00001000
00000100
00001000
00000000
,
00010000
00000000
00100000
00000000
00010000
10000000
00000000
00100000
00000000
00000000
01100000
00000000
01010000
00000000
00110000
00000000
,
00100000
00000000
00010000
00000000
00001000
00000100
00001000
00000000
00000010
00000000
00000100
00000000
00000001
00000010
00000100
00000000
,
00001000
00000000
00000010
00000000
00001000
00010000
00001000
00000000
00000100
00000000
00000010
00000000
00001000
00010000
01000000
00000000
,
00100000
00010000
01000000
00000000
00100000
00000000
00010000
00001000
00000000
00001000
00000100
00000000
00000100
00000010
00000100
00000000
,
00000001
00000000
00000010
00000100
00000000
00001000
00010000
00000000
00100000
01000000
00000000
10000000
00100000
00000000
10010000
00000000
,
00100000
00010000
00001000
00000010
00001010
00001000
00010000
00100000
,
10100000
00000000
00100000
00000000
00010000
00000000
00001000
00000000
00001010
00000000
00001000
00000000
00000100
00000010
00000001
00000000
,
00000010
00000000
00000100
00001000
00010000
00000000
00100000
10000000
00100000
00000000
00010000
00001000
00000100
00000000
00010000
00001000
,
00010000
00000000
00100000
00010000
00001000
00000000
00010000
00000100
00000010
00000001
00000010
00000100
00001000
00000000
00100000
00000000
,
00011000
00000000
00000000
00000000
;
