#TITLE:Halloween Is Chaos;
#SUBTITLE:;
#ARTIST:RoughSketch feat. 北小路ヒスイ;
#TITLETRANSLIT:;
#SUBTITLETRANSLIT:;
#ARTISTTRANSLIT:;
#GENRE:;
#CREDIT:;
#BANNER:Halloween Is Chaos-bn.jpg;
#BACKGROUND:Halloween Is Chaos-bg.jpg;
#LYRICSPATH:;
#CDTITLE:;
#MUSIC:Halloween Is Chaos.mp3;
#OFFSET:0.062000;
#SAMPLESTART:49.467007;
#SAMPLELENGTH:15.000000;
#SELECTABLE:YES;
#BPMS:0.000000=197.000000
;
#STOPS:
;
#BGCHANGES:2.000=Halloween Is Chaos.mp4=1.000=0=0=0=StretchNoLoop====,
99999=-nosongbg-=1.000=0=0=0 // don't automatically add -songbackground-
;
#KEYSOUNDS:;
#ATTACKS:;

//---------------dance-single - ----------------
#NOTES:
     dance-single:
     :
     Medium:
     12:
     0.505653,0.716932,0.465931,0.165330,0.007515,471.000000,409.000000,62.000000,22.000000,0.000000,0.000000,0.505653,0.716932,0.465931,0.165330,0.007515,471.000000,409.000000,62.000000,22.000000,0.000000,0.000000:
0000
0000
0000
0000
,
0000
0000
0000
0000
,
0000
0000
0000
0000
,
0000
0000
0000
0000
,
0000
0000
0000
0000
,
1000
1000
0001
0001
,
1000
1000
0001
0001
,
0100
0010
0100
0010
0100
0010
0100
0010
,
0200
0000
0000
0000
,
0310
0000
0010
0000
,
1000
0000
1000
0000
,
0100
0000
0001
0000
,
0010
0100
1000
0000
,
0001
0000
0001
0000
,
1000
0000
1000
0000
,
0001
0000
0100
0001
,
1000
0000
0010
0000
,
0001
0000
0001
0000
,
1000
0000
1000
0000
,
0100
0000
0001
0000
,
0100
0010
1000
0000
,
0010
0000
0010
0000
,
0100
0000
0100
0000
,
0001
0000
1000
0100
,
0020
0000
0030
0000
,
2000
3000
0002
0003
,
0100
0000
0001
0100
1000
0000
0000
0000
,
0011
0100
1010
0100
,
1001
0000
0001
0010
0100
0000
0000
0000
,
1001
0000
0110
0000
,
1001
0000
1000
0100
0010
0000
0001
0000
,
0200
0000
0000
0000
,
0300
0000
0000
0110
,
1001
0000
0011
0000
,
1001
0000
0001
0100
1000
0000
0100
0000
,
1010
0100
0011
0100
,
1001
0110
1001
0010
,
0110
0000
1100
0000
,
0011
0000
0001
0010
1000
0000
0010
0000
,
0101
0000
1000
0000
0110
0000
0001
0010
,
0200
0000
0000
0000
1300
0000
1000
0100
,
0010
0000
0001
0100
0010
0000
0000
1000
,
0200
0000
0301
0100
1000
0010
0100
0001
,
0010
0000
0100
1000
0010
0000
0000
0100
,
0020
0000
0031
0010
1000
0100
0010
0001
,
1000
0000
0100
0010
0001
0000
0100
0010
,
1000
0000
0100
0010
0001
0000
0100
0010
,
1000
0000
1000
0100
0010
0000
0001
0100
,
0010
0010
0100
0001
0000
0000
1000
0100
,
0010
0000
0001
0100
0010
0000
0000
1000
,
0200
0000
0301
0100
1000
0010
0100
0001
,
0010
0000
0100
1000
0010
0000
0000
0100
,
0020
0000
0031
0010
1000
0100
0010
0001
,
1000
0000
1000
0100
0001
0000
0001
0100
,
1000
0000
1000
0100
0001
0000
0001
0100
,
1000
0000
0100
0010
0001
0000
0100
0010
,
2000
0000
3002
0000
,
0103
0010
0100
0010
,
0100
0000
0010
0000
0100
0000
0010
0100
,
0001
0100
0001
0100
,
0001
0000
0100
0000
0001
0000
0100
0010
,
1000
0010
1000
0010
,
1000
0000
0010
0000
1000
0000
0010
1000
,
0100
0000
1000
0000
0100
0000
1000
0100
,
0010
0100
0020
0000
,
0031
0001
0100
0100
,
0010
0010
1000
1000
,
0001
1000
0001
1000
0010
0100
0010
0100
,
0002
0000
2003
3000
,
1001
0001
1001
1000
,
1001
0000
0001
0000
1001
0000
1000
0100
,
0011
0001
0011
0010
,
0011
0100
1000
0000
0010
0100
0010
0100
,
0101
0001
0101
0010
,
1100
1000
0001
0000
1100
0100
1000
0010
,
0110
0000
0100
0000
0101
0001
0001
0000
,
1000
1000
1000
0000
0010
0010
0010
0000
,
1100
0100
0101
0100
,
1100
0000
0100
0000
0101
0000
0001
0010
,
1010
0010
0011
0010
,
1010
1000
0100
0000
1001
0000
0000
0000
,
0010
0010
0010
0000
0100
0000
0010
0000
,
0100
0100
0100
0000
0010
0000
1000
0100
,
0010
0000
0000
0011
0000
0000
0001
1000
,
0100
0200
0310
0000
,
0001
0001
1000
1000
,
0010
0010
0100
0100
,
0001
1000
0001
1000
0001
1000
0001
1000
,
0002
0000
0000
0003
,
0220
0000
0000
0000
,
0330
0000
0000
0000
0000
0000
0000
0000
0100
0000
0000
0100
0000
0000
0100
0000
,
0110
0101
0110
0101
,
1100
0000
1001
0000
0001
0010
0100
1000
,
1001
1010
1001
0011
,
1001
0000
0000
0000
1100
0000
0000
0000
0101
0000
0000
0001
0000
0000
0001
0000
,
1000
1010
0001
0101
,
0110
1100
0011
2001
,
0000
3100
0000
0100
0200
0000
0000
0000
,
0310
0000
0000
0010
0001
0000
0000
0001
,
1000
1000
0001
0000
,
1000
0000
0000
1000
0010
0000
0000
0010
,
0100
0100
0001
0000
,
1000
0010
0001
0010
,
1000
0010
0001
0010
,
1000
0100
0001
0100
,
1000
0010
0000
0200
0000
0000
0000
0000
,
0310
0000
0000
0000
;

//---------------dance-single - ----------------
#NOTES:
     dance-single:
     :
     Easy:
     10:
     0.380045,0.597443,0.195390,0.097695,0.000000,354.000000,328.000000,26.000000,13.000000,0.000000,0.000000,0.380045,0.597443,0.195390,0.097695,0.000000,354.000000,328.000000,26.000000,13.000000,0.000000,0.000000:
0000
0000
0000
0000
,
0000
0000
0000
0000
,
0000
0000
0000
0000
,
0000
0000
0000
0000
,
0000
0000
0000
0000
,
1000
1000
0001
0001
,
1000
1000
0001
0001
,
0100
0000
0010
0000
0100
0000
0010
0100
,
0020
0000
0000
0000
,
0130
0000
0100
0000
,
0001
0000
0001
0000
,
0010
0000
0010
0000
,
0100
0000
0100
0000
,
0001
0000
0001
0000
,
0100
0000
0100
0000
,
0010
0000
1000
0000
,
0100
0000
0010
0000
,
1000
0000
1000
0000
,
0100
0000
0100
0000
,
1000
0000
0010
0000
,
0100
0000
0010
0000
,
0001
0000
0001
0000
,
0100
0000
0100
0000
,
0010
0000
1000
0000
,
0100
0000
0010
0000
,
1001
0000
0000
0000
,
1001
0000
0101
0000
,
0110
0000
0000
0000
,
0110
0000
1010
0000
,
1100
0000
0000
0000
,
1100
0000
1010
0000
,
0102
0000
0000
0000
,
0003
0000
0000
0100
,
0110
0000
0101
0000
,
1010
0000
0001
1000
,
1001
0000
1100
0000
,
0001
0100
0001
0000
,
1010
0000
0011
0000
,
0001
0100
0010
0000
,
1001
0000
0110
0000
,
0020
0000
0130
0001
,
1000
0000
0100
0000
0010
0000
0000
0010
,
0100
1000
0010
0000
,
0001
0000
0010
0000
0100
0000
0000
0100
,
0010
0001
0100
0000
,
0001
0100
1000
0000
,
1000
0100
0001
0000
,
0001
0010
1000
0000
,
1000
0010
0001
0001
,
1000
0000
0100
0000
0010
0000
0000
0010
,
0100
1000
0010
0000
,
0001
0000
0010
0000
0100
0000
0000
0100
,
0010
0001
0100
0000
,
0001
0100
1000
0000
,
1000
0100
0001
0000
,
0001
0010
0100
1000
,
0002
0000
2003
0000
,
3001
1000
0001
1000
,
0001
1000
0001
1000
,
0010
0100
0010
0100
,
0010
0100
0010
0100
,
0001
1000
0001
1000
,
0001
1000
0001
1000
,
0100
0010
0100
0010
,
0001
0100
0200
0000
,
0310
0010
1000
1000
,
0100
0100
0010
0010
,
0001
0000
1000
0000
0001
1000
0001
1000
,
0200
0000
0300
0000
,
1010
0100
0001
0010
,
0001
0000
0100
0000
0010
0000
1000
0100
,
1000
0001
0100
0010
,
1000
0100
1000
0000
0001
0010
0001
0010
,
0001
0100
0010
0100
,
0010
1000
0001
0000
0100
0010
0100
0001
,
0100
0000
0001
0000
0100
0010
0100
0000
,
0001
0010
0001
0000
1000
0100
1000
0000
,
0001
0001
1000
1000
,
0001
0000
0001
0000
1000
0000
0010
0100
,
0010
0100
0010
0100
,
0001
1000
0100
0000
0100
0000
0000
0000
,
1000
0010
1000
0000
0010
0000
1000
0000
,
0001
0010
0001
0000
0010
0001
0010
0001
,
0100
0000
0000
0110
0000
0000
0010
0000
,
1000
0100
0020
0000
,
0031
0001
0100
0100
,
0010
0010
1000
1000
,
0001
0000
1000
0000
0001
0000
1000
0001
,
2000
0000
3000
0000
,
2002
0000
0000
0000
,
3003
0000
0000
0000
,
1001
1001
1001
1001
,
0010
0000
0100
0000
0001
1000
0001
1000
,
0100
0100
0010
0010
,
0001
0000
0001
0000
1000
0001
1000
0000
,
0100
0100
0010
0010
,
0100
1000
0001
0100
,
0000
0010
0000
0010
0200
0000
0000
0000
,
0301
0000
0010
0000
0100
0000
0000
0100
,
0010
0001
0100
0000
,
1000
0000
0100
0000
0010
0000
0000
0010
,
0100
1000
0010
0000
,
0100
0100
0010
0010
,
1000
0000
0001
1000
0000
0000
0001
0000
,
0010
0100
1000
0001
,
0100
0010
0000
0200
0000
0000
0000
0000
,
0310
0000
0000
0000
;

//---------------dance-single - ----------------
#NOTES:
     dance-single:
     :
     Hard:
     15:
     0.621599,0.955909,0.894286,0.195390,0.015030,579.000000,460.000000,119.000000,26.000000,0.000000,0.000000,0.621599,0.955909,0.894286,0.195390,0.015030,579.000000,460.000000,119.000000,26.000000,0.000000,0.000000:
0000
0000
0000
0000
,
0000
0000
0000
0000
,
0000
0000
0000
0000
,
0000
0000
0000
0000
,
0000
0000
0000
0000
,
0001
0001
1000
1000
,
0001
0000
0001
0000
1000
0001
1000
0001
,
0100
0010
0100
0010
1000
0001
1000
0001
,
0200
0000
0000
0000
,
0310
0000
0010
0000
,
1000
0000
1000
0100
,
0010
0000
0001
0100
,
0010
0100
0010
0000
,
1000
0000
1000
0000
,
0001
0000
0001
1000
,
0100
0000
0100
0010
,
0001
0000
0000
0000
,
1000
0000
1000
0000
,
0001
0000
0001
0100
,
0010
1000
0100
0001
,
0100
1000
0010
0000
,
0100
0000
0100
0000
,
0010
0000
0010
1000
,
0100
0001
0010
0100
,
1000
0000
0000
0000
,
1001
0000
0110
0000
,
1001
0000
0001
1000
0100
0000
0000
0000
,
1100
0010
0011
0100
,
1100
0000
0001
0010
1000
0000
0000
0000
,
0011
0000
1001
0000
,
0110
0000
0010
0100
0010
0000
1000
0000
,
0200
0000
0000
0000
,
0300
0000
0000
0110
,
1001
0000
0110
0000
,
1001
0000
0100
1000
0010
0000
0100
0000
,
0101
0010
1100
0010
,
1001
0110
1001
0010
,
0110
1000
1100
0001
,
0011
0000
0001
0010
1000
0000
0100
0000
,
1100
0000
0010
0000
0101
0000
1000
0010
,
0001
0000
0010
0000
1100
0000
0001
0010
,
0100
0000
1000
0001
0100
0000
0000
0200
,
0010
0000
0320
0000
1030
0000
0100
0010
,
0001
0000
1000
0010
0100
0000
0000
0200
,
0010
0000
0320
0000
1030
0000
0100
0010
,
0001
0000
0010
0100
1000
0000
0010
0100
,
0001
0000
0010
0100
1000
0000
0001
0100
,
1000
0000
1000
0100
0001
0000
1000
0100
,
0010
0010
0100
0010
0000
0000
0001
0010
,
0100
0000
1000
0001
0100
0000
0000
0200
,
0010
0000
0320
0000
1030
0000
0100
0010
,
0001
0000
1000
0010
0100
0000
0000
0200
,
0010
0000
0320
0000
1030
0000
0100
0010
,
0001
0000
0010
0100
1000
0000
0010
0100
,
0001
0000
0010
0100
1000
0000
0001
0100
,
1000
0000
1000
0100
0001
0000
1000
0100
,
0020
0000
0230
0000
,
1300
0100
0001
0100
1000
0100
0001
0100
,
1000
0100
0001
0100
1000
0100
0010
0010
,
0001
0010
1000
0010
0001
0010
1000
0010
,
0001
0010
1000
0010
0001
0010
0100
0100
,
1000
0100
0001
0100
1000
0100
0001
0100
,
1000
0100
0001
0100
1000
0100
0010
0010
,
0001
0100
0010
0100
0001
0100
0010
0010
,
1000
0100
0020
0000
0032
0000
1003
0000
,
1001
1001
1010
1010
,
0110
0110
0101
0101
,
0001
0010
0100
1000
0001
0010
0001
1000
,
0200
0000
0320
0030
,
1001
1001
1100
1001
,
0101
0000
0101
0000
1010
0000
0001
0010
,
0110
0110
0011
0101
,
1001
1001
1001
0000
1010
0010
0100
0010
,
0110
1001
0110
1001
,
0101
0000
0101
0000
1010
0000
0000
0000
1010
0000
1000
0001
1000
0000
0001
0000
,
0011
0000
0101
0000
0110
0110
0110
0000
,
1010
1010
1010
0000
0101
0101
0101
0000
,
1001
1001
1100
1001
,
0101
0000
0101
0000
1010
0000
0001
0010
,
0110
0110
0011
0101
,
1001
1001
1001
0000
1010
0000
0000
0000
,
0110
0110
0110
0000
1001
0000
0110
0000
,
1001
0000
1001
0000
1001
0000
0000
0000
0110
0000
0100
0010
0100
0000
0010
0000
,
1010
0000
0000
1100
0000
0000
0011
0000
,
0101
0010
2000
0000
,
3100
0100
0010
0010
,
0001
0001
1000
1000
,
0010
0100
0010
0100
0001
1000
0001
1000
,
0200
0000
0000
0300
,
0220
0000
0000
0000
,
0330
0000
0000
0000
0000
0000
0000
0000
0010
0000
0000
0010
0000
0000
0010
0000
,
0011
0101
1010
1100
,
0110
0000
0011
0000
1001
0100
0001
0100
,
1010
0101
1010
0101
,
0011
0000
0000
0000
1100
0000
0000
0000
1001
0000
0000
1001
0000
0000
1001
0000
,
0110
0110
1100
0011
,
1100
0010
0101
0000
1010
0100
1001
0000
,
0000
0100
0000
0100
0200
0000
0000
0000
,
0310
0000
1000
0001
0100
0000
0000
0200
,
0010
0000
0320
0000
1030
0000
0100
0010
,
0001
0000
1000
0010
0100
0000
0000
0200
,
0010
0000
0320
0000
1030
0000
0100
0010
,
0001
0000
0010
0100
1000
0100
0010
0100
,
1000
0100
0010
0100
0000
0010
0001
0010
,
0100
0010
0001
0010
0100
1000
0010
0100
,
0001
0010
0100
0200
0000
0000
0000
0000
,
0310
0000
0000
0000
;

//---------------dance-single - ----------------
#NOTES:
     dance-single:
     :
     Beginner:
     3:
     0.181434,0.318636,0.022545,0.090180,0.000000,169.000000,166.000000,3.000000,12.000000,0.000000,0.000000,0.181434,0.318636,0.022545,0.090180,0.000000,169.000000,166.000000,3.000000,12.000000,0.000000,0.000000:
0000
0000
0000
0000
,
0000
0000
0000
0000
,
0000
0000
0000
0000
,
0000
0000
0000
0000
,
0000
0000
0000
0000
,
1000
0000
1000
0000
,
0001
0000
0001
0000
,
0100
0000
0100
0000
,
0020
0000
0000
0000
,
0130
0000
0000
0000
,
0100
0000
0000
0000
,
0001
0000
0000
0000
,
0001
0000
0000
0000
,
0010
0000
0000
0000
,
0010
0000
0000
0000
,
1000
0000
0000
0000
,
1000
0000
0000
0000
,
0001
0000
0000
0000
,
0001
0000
0000
0000
,
0100
0000
0000
0000
,
0100
0000
0000
0000
,
0010
0000
0000
0000
,
0010
0000
0000
0000
,
1000
0000
0000
0000
,
2000
0000
3000
0000
,
0001
0000
0000
0000
,
0001
0000
1000
0000
,
0001
0000
0000
0000
,
1000
0000
0010
0000
,
1000
0000
0000
0000
,
0001
0000
0100
0000
,
0020
0000
0000
0000
,
0030
0000
0000
0100
,
0100
0000
0100
0000
,
0010
0000
0000
0000
,
0010
0000
1000
0000
,
1000
0000
0000
0000
,
1000
0000
1000
0000
,
0001
0000
0000
0000
,
0001
0000
1000
0000
,
0200
0000
0300
0000
,
1000
0000
1000
0000
,
0010
0000
0000
0000
,
0001
0000
0001
0000
,
0100
0000
0000
0000
,
1000
0000
1000
0000
,
0010
0000
0010
0000
,
0100
0000
0100
0000
,
0001
0000
0001
0000
,
1000
0000
1000
0000
,
0010
0000
0000
0000
,
0001
0000
0001
0000
,
0100
0000
0000
0000
,
1000
0000
1000
0000
,
0010
0000
0010
0000
,
0100
0000
0100
0000
,
0001
0000
0001
0000
,
2000
0000
0000
0000
,
0000
0000
0000
0000
,
3000
0000
0000
0000
,
0000
0000
0000
0000
,
0001
0000
0001
0000
,
0001
0000
0000
0000
,
1000
0000
1000
0000
,
0010
0000
0020
0000
,
0130
0000
0100
0000
,
0100
0000
0100
0000
,
0001
0000
1000
0000
,
0002
0000
0003
0000
,
0100
0000
0100
0000
,
0100
0000
0100
0100
,
0010
0000
0010
0000
,
1000
1000
1000
0000
,
0001
0000
0001
0000
,
1000
1000
0001
0001
,
1000
0000
0100
0100
,
0010
0010
0001
0000
,
0100
0000
0100
0000
,
0100
0000
0100
0001
,
0010
0000
0010
0000
,
0001
0001
1000
0000
,
0001
1000
0001
0000
,
1000
0001
1000
0000
,
0020
0000
0000
0030
0000
0000
0000
0000
,
0200
0000
0300
0000
,
0001
0000
0001
0000
,
1000
0000
1000
0000
,
0001
0000
1000
0000
,
0020
0000
0030
0000
,
0200
0000
0000
0000
,
0300
0000
0000
0000
,
1001
0000
1001
0000
,
1001
0000
1000
0000
,
0001
0000
0001
0000
,
0010
0000
0010
0000
,
0100
0000
0100
0000
,
1000
1000
0001
0001
,
0200
0000
0300
0000
,
1000
0000
1000
0000
,
0001
0000
0000
0000
,
0001
0000
0001
0000
,
0100
0000
0000
0000
,
0010
0000
1000
0000
,
0010
0000
0000
0000
,
0100
0000
0001
0000
,
1000
0000
0100
0000
,
0010
0000
0000
0000
;

//---------------dance-double - ----------------
#NOTES:
     dance-double:
     :
     Easy:
     10:
     0.357500,0.597443,0.127755,0.090180,0.003758,333.000000,316.000000,17.000000,12.000000,0.000000,0.000000,0.357500,0.597443,0.127755,0.090180,0.003758,333.000000,316.000000,17.000000,12.000000,0.000000,0.000000:
00000000
00000000
00000000
00000000
,
00000000
00000000
00000000
00000000
,
00000000
00000000
00000000
00000000
,
00000000
00000000
00000000
00000000
,
00000000
00000000
00000000
00000000
,
10000000
00000000
10000000
00000000
,
00100000
00000000
00100000
00000000
,
10000000
10000000
00010000
00010000
,
20000000
00000000
00000000
00000000
,
30100000
00000000
00000000
00000000
,
00100000
00000000
00000000
00000000
,
01000000
00000000
00100000
00000000
,
00010000
00000000
00001000
00000000
,
00000100
00000000
00000000
00000000
,
00000100
00000000
00000000
00000000
,
00000010
00000000
00000000
00000000
,
00000010
00000000
00001000
00000000
,
00000001
00000000
00000000
00000000
,
00000001
00000000
00000000
00000000
,
00000001
00000000
00000100
00000000
,
00001000
00000000
00010000
00000000
,
00100000
00000000
00000000
00000000
,
00100000
00000000
01000000
00000000
,
00010000
00000000
10000000
01000000
,
00200000
00000000
00300000
00000000
,
10010000
00000000
00000000
00000000
,
10010000
00000000
01100000
00000000
,
01010000
00000000
00000000
00000000
,
01010000
00000000
00101000
00000000
,
00011000
00000000
00000000
00000000
,
00011000
00000000
00010100
00000000
,
00002000
00000000
00000000
00000000
,
00003000
00000000
00000000
00000010
,
00000110
00000000
00001001
00000000
,
00000010
00000100
00000010
00000000
,
00001000
00001000
00000001
00000001
,
00000100
00001000
00010000
00000000
,
00011000
00000000
00011000
00000000
,
00001000
00010000
00001000
00000000
,
00100000
01000000
10000000
00000000
,
00020000
00000000
01030000
00000000
,
01000000
00000000
00100000
00000000
10000000
00000000
00000000
10000000
,
01000000
00100000
00010000
00000000
,
01000000
00000000
00100000
00000000
00010000
00000000
00000000
00010000
,
00001000
00010000
00000100
00000000
,
00000010
00000001
00000100
00000000
,
00000010
00001000
00000100
00000000
,
00000010
00000001
00000100
00001000
,
00010000
00001000
00010000
00001000
00000000
00000000
00000000
00000000
,
00001000
00000000
00010000
00000000
00100000
00000000
00000000
00100000
,
01000000
00010000
00100000
00000000
,
00100000
00000000
01000000
00000000
10000000
00000000
00000000
10000000
,
00100000
01000000
00010000
00000000
,
01000000
00100000
00010000
00000000
,
00001000
00010000
00001000
00000000
,
00010000
00001000
00000100
00000001
,
00000020
00000000
00000230
00000000
,
00001300
00000001
00001000
00000001
,
00001000
00000001
00001000
00000001
,
00000100
00000010
00000100
00000010
,
00000100
00000010
00000100
00000010
,
00010000
00001000
00010000
00001000
,
00010000
00001000
00010000
00001000
,
00100000
00010000
00100000
00010000
,
01000000
00100000
20000000
00000000
,
30010000
00010000
10000000
10000000
,
00010000
00010000
10000000
10000000
,
00100000
00000000
01000000
00000000
00100000
01000000
00100000
01000000
,
00020000
00000000
10030000
00000000
,
10000000
01000000
00100000
00010000
,
01000000
00000000
00100000
00000000
01000000
00000000
00010000
00100000
,
00010000
10000000
01000000
00100000
,
00001000
00010000
00001000
00000000
00010000
00000100
00010000
00000100
,
00010000
00000010
00010000
00000100
,
00001000
00000010
00001000
00000000
00000100
00000010
00000100
00000010
,
00000001
00000000
00000100
00000000
00000010
00001000
00000010
00000000
,
00000100
00000001
00000100
00000000
00000010
00001000
00000010
00000000
,
00000100
00000001
00000010
00000100
,
00001000
00000000
00000010
00000000
00000100
00000000
00000001
00001000
,
00000001
00000010
00000100
00010000
,
00001000
00010000
00001000
00000000
00001000
00000000
00000000
00000000
,
00010000
00100000
00010000
00000000
00001000
00000000
00010000
00000000
,
00001000
00100000
00001000
00000000
00010000
00000000
00001000
00100000
,
00010000
00000000
00000000
01000000
00000000
00000000
00100000
00000000
,
01000000
00100000
00200000
00000000
,
10300000
00000000
10000000
00000000
,
00100000
00000000
00100000
00000000
,
00010000
00010000
00001000
00001000
,
00010000
00001000
00010000
00000100
,
00000020
00000000
00000000
00000000
,
00000030
00000000
00000000
00000000
,
00001001
00001001
00001001
00001001
,
00000001
00000000
00001000
00000000
00000010
00000100
00000010
00000100
,
00000001
00000100
00001000
00010000
,
00000100
00000000
00000000
00000000
00010000
00000000
00000000
00000000
00001000
00000000
00000000
00001000
00000000
00000000
00010000
00000000
,
00100000
01000000
00100000
01000000
,
00001000
00010000
01000000
10000000
,
00000000
00100000
00000000
00100000
02000000
00000000
00000000
00000000
,
03100000
00000000
10000000
00000000
01000000
00000000
00000000
01000000
,
10000000
00100000
01000000
00000000
,
00100000
00000000
01000000
00000000
00001000
00000000
00000000
00001000
,
00010000
00001000
00010000
00000000
,
00001000
00000100
00000001
00000100
,
00001000
00010000
00001000
00010000
,
00100000
10000000
00100000
00010000
,
00001000
00010000
00000000
00002000
00000000
00000000
00000000
00000000
,
00013000
00000000
00000000
00000000
;

//---------------dance-double - ----------------
#NOTES:
     dance-double:
     :
     Medium:
     12:
     0.473446,0.677102,0.345691,0.090180,0.007515,441.000000,395.000000,46.000000,12.000000,0.000000,0.000000,0.473446,0.677102,0.345691,0.090180,0.007515,441.000000,395.000000,46.000000,12.000000,0.000000,0.000000:
00000000
00000000
00000000
00000000
,
00000000
00000000
00000000
00000000
,
00000000
00000000
00000000
00000000
,
00000000
00000000
00000000
00000000
,
00000000
00000000
00000000
00000000
,
10000000
10000000
00010000
00010000
,
10000000
10000000
00010000
00010000
,
01000000
00100000
01000000
00100000
10000000
00010000
10000000
00010000
,
00200000
00000000
00000000
00000000
,
01300000
00000000
01000000
00000000
,
10000000
00000000
10000000
00000000
,
00100000
00000000
00100000
00000000
,
00010000
00000000
00010000
00000000
,
00000100
00000000
00000100
00000000
,
00000010
00000000
00000010
00000000
,
00000001
00000000
00000001
00000000
,
00000100
00000000
00000100
00000000
,
00001000
00000000
00001000
00000000
,
00100000
00000000
00100000
00000000
,
01000000
00000000
01000000
00000000
,
00010000
00000000
00010000
00000000
,
00000100
00000000
00000100
00000000
,
00000010
00000000
00000010
00000000
,
00000001
00000000
00000100
00000000
,
00002000
00000000
00023000
00000000
,
00031000
00000000
00001000
00000000
,
00010000
00000000
00001000
00010000
00001000
00000000
00100000
00000000
,
01000000
01000000
00100000
00100000
,
00001000
00000000
00010000
00001000
00010000
00000000
00000100
00000000
,
00000010
00000000
00000100
00000000
,
00001000
00000000
00010000
01000000
00100000
00000000
10000000
00000000
,
00020000
00000000
00000000
00000000
,
00030000
00000000
10000000
11000000
,
10010000
00000000
01100000
00000000
,
10010000
00000000
10000000
01000000
00100000
00000000
00010000
00000000
,
01000000
01000000
00001000
00001000
,
00010000
00000010
00000100
00000001
,
00000011
00000000
00001100
00000000
,
00000011
00000000
00001000
00000001
00001000
00000000
00000010
00000000
,
00011000
00000000
00001000
00000000
00010000
00000000
00000100
00001000
,
00000020
00000000
00000000
00000000
00000130
00000000
00000001
00000010
,
00000100
00000000
00001000
00000010
00000100
00000000
00000000
00000100
,
00000010
00000000
00000100
00000000
00001000
00000000
00010000
00100000
,
01000000
00000000
00010000
01000000
00100000
00000000
00000000
00100000
,
01000000
00010000
10000000
00100000
,
10100000
00010000
00101000
01000000
,
00110000
00001000
01001000
00010000
,
00010100
00000100
00001010
00001000
,
00000001
00000100
00000010
00001000
00000000
00000000
00000001
00000010
,
00000100
00000000
00001000
00000010
00000100
00000000
00000000
00000100
,
00000010
00000000
00000100
00000000
00001000
00000000
00010000
00100000
,
01000000
00000000
00010000
01000000
00100000
00000000
00000000
00100000
,
01000000
00010000
10000000
00100000
,
10100000
00010000
00101000
01000000
,
00110000
00000000
00001000
00000000
01001000
00000000
00010000
00100000
,
00010000
00000000
00001000
00010000
00001000
00000000
00000100
00000010
,
00002000
00000000
00003002
00000000
,
00000013
00000001
00000010
00000001
,
00000010
00000000
00000001
00000000
00000010
00000000
00000001
00000100
,
00000010
00000100
00000010
00000100
,
00000010
00000000
00000100
00000000
00000010
00000000
00000100
00001000
,
00010000
00001000
00010000
00001000
,
00010000
00000000
00001000
00000000
00010000
00000000
00001000
00010000
,
00100000
00000000
01000000
00000000
00100000
00000000
01000000
00100000
,
10000000
01000000
00100000
00010000
,
01000000
01000000
00100000
00100000
,
01000000
01000000
00100000
00100000
,
10000000
00010000
10000000
00010000
01000000
00100000
01000000
00100000
,
20000000
00000000
30010000
00000000
,
10100000
10000000
00110000
00010000
,
11000000
00000000
10000000
00000000
01100000
00000000
00100000
00010000
,
00001000
00010000
00010100
00000100
,
00001000
00000010
00000100
00000000
00000001
00001000
00000001
00001000
,
00001010
00000010
00001001
00001000
,
00000001
00000010
00000001
00000000
00000100
00000010
00000100
00000010
,
00001000
00000000
00000100
00000000
00000010
00000010
00000010
00000000
,
00000100
00000100
00000100
00000000
00000010
00000010
00000010
00000000
,
00000011
00000010
00001100
00000100
,
00000011
00000000
00000010
00000000
00001001
00000000
00000001
00000100
,
00001000
00010000
00011000
00001000
,
00010000
00001000
00010000
00000000
00010000
00000000
00000000
00000000
,
00001000
01000000
00001000
00000000
00100000
00000000
00010000
00000000
,
01000000
00001000
01000000
00000000
00100000
01000000
00010000
10000000
,
00010000
00000000
00000000
10010000
00000000
00000000
00010000
10000000
,
01000000
00100000
00200000
00000000
,
01300000
01000000
10000000
10000000
,
00100000
00100000
00010000
00010000
,
00001000
00010000
00001000
00010000
00000010
00001000
00000010
00001000
,
00000100
00000010
00000001
00000100
,
00000020
00000000
00000000
00000000
,
00000030
00000000
00000000
00000000
00000000
00000000
00000000
00000000
00000100
00000000
00000000
00000100
00000000
00000000
00000001
00000000
,
00000101
00001010
00001100
00000011
,
00000101
00000000
00001010
00000000
00010000
00001000
00010000
00001000
,
00010000
00101000
00001000
00010100
,
00001000
00000000
00000000
00000000
00101000
00000000
00000000
00000000
01000000
00000000
00000000
01000000
00000000
00000000
00010000
00000000
,
00100000
01100000
00010000
10010000
,
11000000
01010000
10100000
11000000
,
00000000
00100000
00000000
00100000
00200000
00000000
00000000
00000000
,
00310000
00000000
00100000
00000000
01000000
00000000
00000000
01000000
,
00100000
00010000
00001000
00000000
,
00000100
00000000
00000010
00000000
00000001
00000000
00000000
00000001
,
00000010
00000100
00000010
00000000
,
00000001
00000100
00001000
00010000
,
00100000
10000000
01000000
00010000
,
00001000
00010000
00000010
00000100
,
00000001
00000100
00000000
00002000
00000000
00000000
00000000
00000000
,
00013000
00000000
00000000
00000000
;

//---------------dance-double - ----------------
#NOTES:
     dance-double:
     :
     Hard:
     15:
     0.609789,0.955909,0.774046,0.202905,0.015030,568.000000,465.000000,103.000000,27.000000,0.000000,0.000000,0.609789,0.955909,0.774046,0.202905,0.015030,568.000000,465.000000,103.000000,27.000000,0.000000,0.000000:
// measure 0
00000000
00000000
00000000
00000000
,  // measure 1
00000000
00000000
00000000
00000000
,  // measure 2
00000000
00000000
00000000
00000000
,  // measure 3
00000000
00000000
00000000
00000000
,  // measure 4
00000000
00000000
00000000
00000000
,  // measure 5
10000000
10000000
00010000
00010000
,  // measure 6
10000000
10000000
00010000
00010000
,  // measure 7
10000000
00100000
10000000
00100000
01000000
00010000
01000000
00010000
,  // measure 8
00200000
00000000
00000000
00000000
,  // measure 9
01300000
00000000
01000000
00000000
,  // measure 10
10000000
00000000
10000000
00100000
,  // measure 11
01000000
00000000
01000000
00100000
,  // measure 12
00010000
00001000
00010000
00000000
,  // measure 13
00000100
00000000
00000100
00000000
,  // measure 14
00000010
00000000
00000010
00000001
,  // measure 15
00000100
00000000
00000000
00000100
00000010
00000000
00000100
00000000
,  // measure 16
00000002
00000000
00000103
00000000
,  // measure 17
00000010
00000000
00000010
00000000
,  // measure 18
00000100
00000000
00000000
00000000
00000100
00000000
00000010
00001000
,  // measure 19
00000100
00000010
00000100
00001000
,  // measure 20
00000100
00010000
00001000
00000000
,  // measure 21
00100000
00000000
00100000
00000000
,  // measure 22
01000000
00000000
00000000
00000000
10000000
00000000
00100000
01000000
,  // measure 23
00010000
00100000
01000000
10000000
,  // measure 24
00020000
00000000
10030000
00000000
,  // measure 25
10010000
00000000
01100000
00000000
,  // measure 26
10010000
00000000
10000000
00100000
00010000
00000000
00001000
00000000
,  // measure 27
00010100
00000010
00000101
00001000
,  // measure 28
00010100
00000000
00000010
00000100
00000001
00000000
00000010
00000000
,  // measure 29
00001100
00000000
00001001
00000000
,  // measure 30
00000110
00000000
00000001
00000010
00000100
00000000
00001000
00000000
,  // measure 31
00000200
00000000
00000000
00000000
,  // measure 32
00000300
00000000
00000010
00000011
,  // measure 33
00001001
00000001
00001001
00000000
,  // measure 34
00001010
00000000
00000100
00000010
00001000
00000000
00000100
00000000
,  // measure 35
00011000
00000100
00010010
00001000
,  // measure 36
00101000
00010100
00101000
00010000
,  // measure 37
01100000
00000000
10010000
00000000
,  // measure 38
11000000
00000000
00100000
00010000
01000000
00000000
00100000
00000000
,  // measure 39
10010000
00000000
00100000
00000000
00011000
00000000
00001000
00100000
,  // measure 40
00020000
00000000
00000000
00000000
01030000
00000000
00100000
10000000
,  // measure 41
01000000
00000000
00100000
00010000
02000000
00000000
03000000
02000000
,  // measure 42
03100000
00000000
10000000
01000000
00010000
00001000
00000010
00000001
,  // measure 43
00000100
00000000
00000010
00001000
00000200
00000000
00000300
00000200
,  // measure 44
00000310
00000000
00000001
00000100
00001000
00010000
00100000
10000000
,  // measure 45
01000000
00000000
00100000
00010000
01000000
00000000
00100000
10000000
,  // measure 46
01000000
00000000
00010000
00001000
00000100
00000000
00000001
00000010
,  // measure 47
00000100
00000000
00001000
00000010
00000100
00000000
00001000
00010000
,  // measure 48
00100000
00100000
01000000
00100000
00000000
00000000
00100000
10000000
,  // measure 49
01000000
00000000
00100000
00010000
02000000
00000000
03000000
02000000
,  // measure 50
03100000
00000000
10000000
01000000
00010000
00001000
00000010
00000001
,  // measure 51
00000100
00000000
00000010
00001000
00000200
00000000
00000300
00000200
,  // measure 52
00000310
00000000
00000001
00000100
00001000
00010000
00100000
10000000
,  // measure 53
01000000
00000000
00100000
00010000
01000000
00000000
00100000
10000000
,  // measure 54
01000000
00000000
00010000
00001000
00000100
00000000
00000001
00000010
,  // measure 55
00001000
00000000
00000010
00000100
00010000
00000000
00001000
00010000
,  // measure 56
02000000
00000000
23000000
00000000
,  // measure 57
30010000
00100000
10000000
00100000
00010000
00100000
10000000
00100000
,  // measure 58
00010000
00100000
10000000
00100000
00010000
00100000
01000000
01000000
,  // measure 59
00100000
00010000
00001000
00010000
00100000
00010000
00001000
00010000
,  // measure 60
00100000
00010000
00001000
00010000
00100000
00010000
00001000
00001000
,  // measure 61
00000010
00001000
00010000
00001000
00000010
00001000
00010000
00001000
,  // measure 62
00000010
00001000
00010000
00001000
00000010
00001000
00000100
00000100
,  // measure 63
00001000
00000010
00000001
00000010
00001000
00000010
00000100
00000100
,  // measure 64
00000001
00000010
00000200
00000000
00020300
00000000
00032000
00000000
,  // measure 65
00013000
00010000
00001000
00001000
,  // measure 66
00010000
00010000
00001000
00001000
,  // measure 67
00100000
01000000
00100000
01000000
10000000
00010000
10000000
00010000
,  // measure 68
02000000
00000000
03100000
00000000
,  // measure 69
10010000
01100000
10010000
01100000
,  // measure 70
11000000
00000000
00110000
00000000
11000000
00000000
10000000
00100000
,  // measure 71
10100000
01010000
10100000
01001000
,  // measure 72
00011000
00011000
00011000
00000000
00010000
00001000
00000100
00000001
,  // measure 73
00001001
00000110
00001001
00000110
,  // measure 74
00001001
00000000
00001001
00000000
00001001
00000000
00000000
00000000
00000001
00000000
00001000
00000100
00001000
00000000
00000010
00000000
,  // measure 75
00001010
00000000
00000110
00000000
00001010
00001010
00001010
00000000
,  // measure 76
00010100
00010100
00010100
00000000
00011000
00011000
00011000
00000000
,  // measure 77
00110000
01010000
00110000
11000000
,  // measure 78
10010000
00000000
01100000
00000000
00110000
00000000
00001000
00010000
,  // measure 79
00011000
00001100
00000110
00001001
,  // measure 80
00000110
00000110
00000110
00000000
00001001
00000000
00000000
00000000
,  // measure 81
00000101
00000101
00000101
00000000
00001010
00000000
00010100
00000000
,  // measure 82
00011000
00000000
00011000
00000000
00011000
00000000
00000000
00000000
00010000
00000000
00001000
00010000
00001000
00000000
00100000
00000000
,  // measure 83
00110000
00000000
00000000
11000000
00000000
00000000
01010000
00000000
,  // measure 84
00010000
10000000
20000000
00000000
,  // measure 85
30100000
00100000
01000000
01000000
,  // measure 86
00100000
00100000
01000000
01000000
,  // measure 87
00001000
00010000
00001000
00010000
00000100
00001000
00000100
00001000
,  // measure 88
00000020
00000230
00000302
00001003
,  // measure 89
00002002
00000000
00000000
00000000
,  // measure 90
00003003
00000000
00000000
00000000
00000000
00000000
00000000
00000000
00000100
00000000
00000000
00000100
00000000
00000000
00000001
00000000
,  // measure 91
00000101
00001100
00010010
00011000
,  // measure 92
01001000
00000000
01100000
00000000
10000000
00100000
00010000
00100000
,  // measure 93
10100000
01010000
00101000
00010100
,  // measure 94
00001100
00000000
00000000
00000000
00000011
00000000
00000000
00000000
00001001
00000000
00000000
00000010
00000000
00000000
00000100
00000000
,  // measure 95
00001001
00000110
00011000
00110000
,  // measure 96
00011000
00001010
00011000
00110000
,  // measure 97
00000000
01000000
00000000
01000000
02000000
00000000
00000000
00000000
,  // measure 98
13000000
00000000
00100000
00000000
01000000
00000000
00000000
01000000
,  // measure 99
00100000
10000000
01000000
00000000
,  // measure 100
00100000
00000000
00001000
00000000
00010000
00000000
00000000
00010000
,  // measure 101
00001000
00000100
00000010
00000000
,  // measure 102
00001000
00000000
00000001
00000000
00000100
00001000
00010000
00001000
,  // measure 103
00000100
00001000
00010000
00001000
00100000
00000000
00010000
00000000
,  // measure 104
01000000
00100000
01000000
00001000
01000000
00100000
01000000
00010000
,  // measure 105
00001000
00000010
00000100
00002000
00000000
00000000
00000000
00000000
,  // measure 106
00013000
00000000
00000000
00000000
;
