#VERSION:0.83;
#TITLE:HEAVEN IS A PLACE ON EARTH;
#SUBTITLE:(Speedomix);
#ARTIST:Wildsde;
#TITLETRANSLIT:;
#SUBTITLETRANSLIT:;
#ARTISTTRANSLIT:;
#GENRE:;
#ORIGIN:;
#CREDIT:;
#BANNER:HEAVEN IS A PLACE ON EARTH (Speedomix)-bn.png;
#BACKGROUND:HEAVEN IS A PLACE ON EARTH (Speedomix)-bg.png;
#PREVIEWVID:;
#JACKET:HEAVEN IS A PLACE ON EARTH (Speedomix)-jacket.png;
#CDIMAGE:;
#DISCIMAGE:;
#LYRICSPATH:;
#CDTITLE:;
#MUSIC:Heaven Is a Place On Earth (Speedomix).mp3;
#OFFSET:1.393000;
#SAMPLESTART:44.608002;
#SAMPLELENGTH:15.000000;
#SELECTABLE:YES;
#BPMS:0.000=172.000;
#STOPS:;
#DELAYS:;
#WARPS:;
#TIMESIGNATURES:0.000=4=4;
#TICKCOUNTS:0.000=4;
#COMBOS:0.000=1;
#SPEEDS:0.000=1.000=0.000=0;
#SCROLLS:0.000=1.000;
#FAKES:;
#LABELS:0.000=Song Start;
#BGCHANGES:;
#KEYSOUNDS:;
#ATTACKS:
;

//---------------dance-single - ----------------
#NOTEDATA:;
#CHARTNAME:;
#STEPSTYPE:dance-single;
#DESCRIPTION:;
#CHARTSTYLE:;
#DIFFICULTY:Beginner;
#METER:2;
#RADARVALUES:0.154243,0.212950,0.075169,0.006834,0.000000,158.000000,147.000000,11.000000,1.000000,0.000000,0.000000,0.000000,0.000000,0.000000,0.154243,0.212950,0.075169,0.006834,0.000000,158.000000,147.000000,11.000000,1.000000,0.000000,0.000000,0.000000,0.000000,0.000000;
#CREDIT:;
#NOTES:
0000
0000
0000
0000
,
0000
0000
0000
0000
,
0000
0000
0000
0000
,
0000
0000
0000
0000
,
0000
0000
0000
0000
,
1000
0000
1000
0000
,
0001
0000
0001
0000
,
1000
0000
0001
0000
,
1000
0000
0000
0000
,
0010
0000
0010
0000
,
0010
0000
0000
0000
,
0100
0000
0100
0000
,
0100
0000
0000
0000
,
1000
0000
1000
0000
,
1000
0000
0000
0000
,
0001
0000
0001
0000
,
1001
0000
0000
0000
,
0100
0000
0010
0000
,
0100
0000
0000
0000
,
1000
0000
0001
0000
,
1000
0000
0000
0000
,
0001
0000
0010
0000
,
0001
0000
0000
0000
,
1000
0000
0010
0000
,
1000
0000
0000
0000
,
1000
0000
0000
0000
,
1000
0000
1000
0000
,
0100
0000
0000
0000
,
0100
0000
0100
0000
,
0010
0000
0000
0000
,
0010
0000
0010
0000
,
0001
0000
0000
0000
,
1000
0000
0000
0000
,
0101
0000
0000
0000
,
1000
0000
1000
0000
,
1010
0000
0000
0000
,
0001
0000
0001
0000
,
0101
0000
0000
0000
,
1000
0000
1000
0000
,
1100
0000
0000
0000
,
0001
0000
0001
0000
,
1001
0000
0000
0000
,
0110
0000
0000
0000
,
0010
0000
0010
0000
,
0010
0000
0000
0000
,
1000
0000
1000
0000
,
1000
0000
0000
0000
,
0001
0000
0001
0000
,
0001
0000
0000
0000
,
0100
0000
0100
0000
,
0100
0000
0000
0000
,
0001
0000
0001
0000
,
0000
0000
0001
0000
,
1000
0000
0100
0000
,
1000
0000
0000
0000
,
0010
0000
1000
0000
,
0010
0000
0000
0000
,
1000
0000
0001
0000
,
1000
0000
0000
0000
,
0001
0000
0010
0000
,
0001
0000
0000
0000
,
1000
0000
0100
0000
,
1000
0000
0000
0000
,
0010
0000
0100
0000
,
0010
0000
0000
0000
,
0100
0000
0001
0000
,
0100
0000
0000
0000
,
0001
0000
0010
0000
,
0001
0000
0000
0000
,
1001
0000
0000
0000
,
1001
0000
0000
0000
,
0100
0000
0100
0000
,
0010
0000
0000
0000
,
0010
0000
0010
0000
,
1000
0000
0000
0000
,
1000
0000
1000
0000
,
0001
0000
0000
0000
,
0001
0000
0001
0000
,
0100
0000
0000
0000
,
0100
0000
0100
0000
,
0010
0000
0000
0000
,
0010
0000
0010
0000
,
1000
0000
0000
0000
,
1000
0000
1000
0000
,
0001
0000
0000
0000
,
0001
0000
0001
0000
,
1001
0000
0000
0000
,
0110
0000
0000
0000
,
0010
0000
0010
0000
,
0010
0000
0000
0000
,
1000
0000
1000
0000
,
1000
0000
0000
0000
,
0001
0000
0001
0000
,
0001
0000
0000
0000
,
0100
0000
0100
0000
,
0100
0000
0000
0000
,
0010
0000
0010
0000
,
1000
0000
0000
0000
,
1000
0000
0100
0000
,
1000
0000
0000
0000
,
0001
0000
0001
0000
,
0100
0000
0000
0000
,
1000
0000
0001
0000
,
0100
0000
0000
0000
0020
0000
0000
0030
;

//---------------dance-single - ----------------
#NOTEDATA:;
#CHARTNAME:;
#STEPSTYPE:dance-single;
#DESCRIPTION:;
#CHARTSTYLE:;
#DIFFICULTY:Easy;
#METER:8;
#RADARVALUES:0.401227,0.461392,0.410012,0.013667,0.000000,411.000000,351.000000,60.000000,2.000000,0.000000,0.000000,0.000000,0.000000,0.000000,0.401227,0.461392,0.410012,0.013667,0.000000,411.000000,351.000000,60.000000,2.000000,0.000000,0.000000,0.000000,0.000000,0.000000;
#CREDIT:;
#NOTES:
0000
0000
0000
0000
,
0000
0000
0000
0000
,
0000
0000
0000
0000
,
0000
0000
0000
0000
,
0000
0000
0000
0000
,
1000
1000
1000
1000
,
0001
0001
0001
0001
,
1000
1000
1000
1000
,
0001
1000
0001
0000
,
0010
0100
0010
0100
,
0010
0001
0010
0100
,
1000
0001
1000
0001
,
0100
0010
1000
0001
,
0010
0100
0010
0100
,
0010
0001
1000
0010
,
0100
0001
0100
0010
,
1000
0001
0000
1001
,
0010
0100
0001
0100
,
0010
0100
0001
0000
,
0011
0001
0001
0000
,
1100
1000
1000
0000
,
1000
0100
0010
0100
,
1000
0100
1000
0000
,
1010
0010
0010
0000
,
0101
0100
0010
0000
,
1000
0100
0010
0001
,
1000
1000
0001
0001
,
0010
0100
1000
0001
,
1000
1000
0001
0000
,
0100
0010
1000
0001
,
0100
0100
0010
0010
,
1000
0100
0010
0001
,
0010
0010
0100
0100
,
1001
0000
0001
0100
,
0101
1100
0101
0000
,
1100
0010
0001
1000
,
1010
0011
1010
0000
,
1100
0000
1000
0001
,
0011
1010
0011
0000
,
0101
0100
1000
0001
,
0011
1100
0011
0000
,
0110
0000
0000
0100
0000
0000
0000
0000
,
1001
1001
0020
0000
,
0130
0010
0100
0010
,
0001
0010
0100
1000
,
0001
1000
0001
0100
,
0010
1000
0100
0010
,
0001
0100
0001
0100
,
0010
1000
0001
0010
,
0100
1000
0100
1000
,
0010
0100
0001
0010
,
0100
0100
0010
0010
,
0100
0100
0010
0000
,
0001
0100
0001
0100
,
0010
0100
0010
0000
,
1000
0100
0010
0000
,
0001
0010
0100
0000
,
1000
0001
1000
0001
,
1000
0100
1000
0000
,
0001
0010
0001
0000
,
0100
0010
1000
0000
,
1000
0100
0010
0001
,
1000
1000
0001
0001
,
0010
0100
1000
0001
,
1000
1000
0001
0000
,
1000
0010
0100
0001
,
0100
0100
0010
1000
,
0100
0010
0001
0100
,
0010
0010
0100
0100
,
0110
0000
0000
0000
,
1001
0000
0001
0100
,
0101
1100
0101
0000
,
1100
0010
0001
1000
,
1010
0011
1010
0000
,
1100
0000
1000
0001
,
0011
1010
0011
0000
,
0101
0100
1000
0001
,
0011
1100
0011
0000
,
1001
0000
0001
0100
,
0101
1100
0101
0000
,
1100
0010
0001
1000
,
1010
0011
1010
0000
,
1100
0000
1000
0001
,
0011
1010
0011
0000
,
0101
0100
1000
0001
,
0011
1100
0011
0000
,
0110
0000
0000
0100
0000
0000
0000
0000
,
1001
1001
0020
0000
,
0130
0010
0100
0010
,
0001
0010
0100
1000
,
0001
1000
0001
0100
,
0010
1000
0100
0010
,
0001
0100
0001
0100
,
0010
1000
0001
0010
,
0100
1000
0100
1000
,
0010
0100
0001
0001
,
1000
0100
0001
0100
,
1000
0001
0100
0010
,
0010
1000
0100
1000
,
0001
0010
0100
0000
,
1000
0010
0100
0100
,
0001
1000
0001
0100
,
0100
1000
0010
0001
,
0010
0000
1000
0000
0000
0000
0010
0100
;

//---------------dance-single - ----------------
#NOTEDATA:;
#CHARTNAME:;
#STEPSTYPE:dance-single;
#DESCRIPTION:;
#CHARTSTYLE:;
#DIFFICULTY:Medium;
#METER:10;
#RADARVALUES:0.466633,0.496884,0.560350,0.027334,0.000000,478.000000,396.000000,82.000000,4.000000,0.000000,0.000000,0.000000,0.000000,0.000000,0.466633,0.496884,0.560350,0.027334,0.000000,478.000000,396.000000,82.000000,4.000000,0.000000,0.000000,0.000000,0.000000,0.000000;
#CREDIT:;
#NOTES:
0000
0000
0000
0000
,
0000
0000
0000
0000
,
0000
0000
0000
0000
,
0000
0000
0000
0000
,
0000
0000
0000
0000
,
1000
0100
1000
0100
,
0010
0001
0010
0001
,
1000
0100
1000
0100
,
0010
0001
0100
0000
,
1000
0001
1000
0001
,
1000
0100
0010
0001
,
0100
0010
0100
0010
,
1000
0001
0010
0100
,
1000
0001
1000
0001
,
1000
0100
0010
0001
,
0100
0010
0100
0010
,
1000
0001
1000
0001
0000
0100
0100
0000
,
0010
0100
0010
0100
,
1000
0100
1000
0100
,
0001
0100
0001
0100
,
0010
0100
1000
0100
,
0001
0010
0001
0010
,
0100
0010
0100
0010
,
1000
0010
0001
0010
,
0100
0010
0001
0000
,
1000
0001
1000
0001
,
0110
0110
1010
1010
,
0001
1000
0001
1000
,
0110
0110
0101
0101
,
0001
1000
0100
0010
,
0011
1100
0011
1000
,
0001
1000
0000
0001
0000
1000
0001
0000
,
0100
0010
0000
0100
0000
0010
0000
0000
,
1001
0000
1000
0100
0000
1000
0001
0000
,
0011
1100
0011
0000
,
1010
0000
0100
0001
0000
1000
0100
0000
,
0011
0101
1010
0000
,
1100
0000
1000
0001
0000
0010
0000
0000
,
0011
1001
0011
0000
,
1010
0000
1000
0100
0000
1000
0001
0000
,
0101
1001
0011
0000
,
1010
0000
0000
0100
0000
0010
0100
0000
,
0110
1001
0020
0000
,
0130
0010
0100
0010
,
0001
0100
0010
1000
,
0001
0010
0001
0010
,
0100
1000
0010
0100
,
0001
1000
0001
1000
,
0010
0100
0001
0010
,
0100
1000
0100
1000
,
0010
0100
0001
0010
,
0100
0100
0100
0100
,
0100
0100
0110
0000
,
1000
0100
1000
0100
,
0001
0100
0001
0100
,
1000
0100
0001
0100
,
1000
0100
0001
0100
,
0010
0001
0010
0001
,
0010
1000
0010
1000
,
0010
0001
0010
1000
,
0010
0001
0100
0000
,
1000
0010
1000
0001
,
0011
0011
1001
1001
,
0100
0010
1000
0100
,
1100
1100
1001
1001
,
0001
0100
0010
1000
,
1100
0101
1100
0010
,
0100
0001
0000
0100
0000
0001
0100
0000
,
0010
1000
0000
0100
0000
0010
0000
0000
,
2002
0000
0000
3003
,
1001
0000
1000
0100
0000
1000
0001
0000
,
0011
1100
0011
0000
,
1010
0000
0100
0001
0000
1000
0100
0000
,
0011
0101
1010
0000
,
1100
0000
1000
0001
0000
0010
0000
0000
,
0011
1001
0011
0000
,
1010
0000
1000
0100
0000
1000
0001
0000
,
0101
1001
0011
0000
,
1001
0000
1000
0100
0000
1000
0001
0000
,
0011
1100
0011
0000
,
1010
0000
0100
0001
0000
1000
0100
0000
,
0011
0101
1010
0000
,
1100
0000
1000
0001
0000
0010
0000
0000
,
0011
1001
0011
0000
,
1010
0000
1000
0100
0000
1000
0001
0000
,
0101
1001
0011
0000
,
1010
0000
0000
0100
0000
0010
0100
0000
,
0110
1001
0020
0000
,
0130
0010
0100
0010
,
0001
0100
0010
1000
,
0001
0010
0001
0010
,
0100
1000
0010
0100
,
0001
1000
0001
1000
,
0010
0100
0001
0010
,
0100
0000
1000
0100
0000
1000
0100
0000
,
1001
0011
1001
0000
,
0001
0100
0010
0100
,
0010
0000
1000
0000
0100
0000
1000
1000
,
0100
0001
0100
1000
,
0010
0001
0100
0010
,
1001
0000
0010
0001
0000
0001
0100
0100
,
1000
0000
0100
0001
0000
1000
0100
0100
,
0010
0001
0010
0100
,
1000
0001
1000
0001
0000
0100
0010
0010
;

//---------------dance-single - ----------------
#NOTEDATA:;
#CHARTNAME:;
#STEPSTYPE:dance-single;
#DESCRIPTION:;
#CHARTSTYLE:;
#DIFFICULTY:Hard;
#METER:13;
#RADARVALUES:0.695069,0.709834,0.820025,0.116170,0.003417,712.000000,592.000000,120.000000,17.000000,0.000000,0.000000,0.000000,0.000000,0.000000,0.695069,0.709834,0.820025,0.116170,0.003417,712.000000,592.000000,120.000000,17.000000,0.000000,0.000000,0.000000,0.000000,0.000000;
#CREDIT:;
#NOTES:
// measure 0
0000
0000
0000
0000
,  // measure 1
0000
0000
0000
0000
,  // measure 2
0000
0000
0000
0000
,  // measure 3
0000
0000
0000
0000
,  // measure 4
0000
0000
0000
0000
,  // measure 5
1000
0100
1000
0000
1000
0000
1000
0000
,  // measure 6
0001
0010
0001
0010
0000
0000
1000
0000
,  // measure 7
0001
0000
0001
0010
0001
0000
0001
0000
,  // measure 8
1000
0100
0010
0000
1001
0000
0000
0000
,  // measure 9
1000
0010
0100
0001
1000
0001
1000
0001
,  // measure 10
0100
0010
1000
0001
0010
0100
0010
0100
,  // measure 11
0010
0001
1000
0010
0100
0001
0100
0001
,  // measure 12
0010
0001
1000
0100
1000
0010
1000
0010
,  // measure 13
0001
0100
0010
1000
0001
1000
0001
1000
,  // measure 14
0010
0100
0001
1000
0100
0010
0100
0010
,  // measure 15
0100
1000
0001
0100
0010
1000
0010
1000
,  // measure 16
0100
1000
0001
0010
0000
0100
0010
0100
,  // measure 17
1002
0013
2100
3001
,  // measure 18
0101
0001
0100
1000
0000
0001
0100
1000
,  // measure 19
1000
0100
0000
0101
0000
0001
1000
0100
,  // measure 20
0001
0001
0000
1100
0000
1000
1000
0100
,  // measure 21
0012
0103
2100
3010
,  // measure 22
0102
0010
1000
0103
,  // measure 23
1000
0100
0000
1100
0000
1000
0001
0000
,  // measure 24
0010
0000
0001
0000
0000
0000
0011
0000
0000
0000
0000
0000
0000
0000
1000
0001
,  // measure 25
1000
1000
0100
0010
,  // measure 26
0011
1001
1100
1010
,  // measure 27
0100
0001
0010
0001
,  // measure 28
1100
1010
0101
0011
,  // measure 29
1000
0100
0001
0010
,  // measure 30
1001
1010
1100
0101
,  // measure 31
0001
0010
0000
0011
0000
0001
0010
0000
,  // measure 32
0100
1000
0000
1001
0000
0110
0000
0000
,  // measure 33
1000
0100
0001
0100
1000
0010
0100
0001
,  // measure 34
0011
1001
0011
1001
,  // measure 35
1000
0100
1000
0010
1000
0100
0010
0100
,  // measure 36
1100
1010
0101
0011
,  // measure 37
0001
0100
1000
0100
0001
0010
0001
1000
,  // measure 38
1001
1100
0101
1010
,  // measure 39
0001
0010
0001
0100
0001
0010
0100
0010
,  // measure 40
0011
1100
1001
0110
,  // measure 41
2002
0000
3003
1001
0000
0011
1010
1001
,  // measure 42
0101
1100
0020
0000
,  // measure 43
1030
0010
0100
0001
1000
0001
1000
0001
,  // measure 44
0100
0010
1000
0001
0010
0100
0010
0100
,  // measure 45
0010
0001
1000
0010
0100
0001
0100
0001
,  // measure 46
0010
0001
1000
0100
1000
0010
1000
0010
,  // measure 47
0001
0100
0010
1000
0001
1000
0001
1000
,  // measure 48
0010
0100
0001
1000
0100
0010
0100
0010
,  // measure 49
0100
1000
0001
0100
0010
1000
0010
1000
,  // measure 50
0100
1000
0001
0010
0000
0100
0010
0100
,  // measure 51
0001
1000
0100
0100
1000
0001
0010
0010
,  // measure 52
0001
1000
0100
0100
1000
0001
0010
0010
,  // measure 53
2001
3100
1002
0013
,  // measure 54
0101
0001
0100
1000
1000
0001
0100
1000
,  // measure 55
1000
0100
0000
0101
0000
0001
1000
0100
,  // measure 56
0001
0001
0000
1100
0000
1000
1000
0100
,  // measure 57
0012
0103
2100
3010
,  // measure 58
0001
1000
0100
0001
0001
0100
1000
0001
,  // measure 59
1000
0010
0000
1010
0000
1000
0100
0010
,  // measure 60
0001
0100
0000
0101
0000
0000
0000
0000
,  // measure 61
1000
0010
1000
0100
,  // measure 62
1100
1010
0101
0011
,  // measure 63
0001
0010
0100
0010
,  // measure 64
0101
0110
1010
1100
,  // measure 65
1000
0001
0010
0100
,  // measure 66
1100
0000
0101
0000
0011
0000
0001
1000
,  // measure 67
0100
1000
0000
1001
0000
1000
0001
0000
,  // measure 68
0100
0010
0000
0110
0000
1001
0000
0000
,  // measure 69
0220
0000
0000
0330
,  // measure 70
1000
0100
0001
0100
1000
0010
0100
0001
,  // measure 71
0011
1001
0011
1001
,  // measure 72
1000
0100
1000
0010
1000
0100
0010
0100
,  // measure 73
1100
1010
0101
0011
,  // measure 74
0001
0100
1000
0100
0001
0010
0001
1000
,  // measure 75
1001
1100
0101
1010
,  // measure 76
0001
0010
0001
0100
0001
0010
0100
0010
,  // measure 77
0011
1100
1001
0110
,  // measure 78
1000
0100
0001
0100
1000
0010
0100
0001
,  // measure 79
0011
1001
0011
1001
,  // measure 80
1000
0100
1000
0010
1000
0100
0010
0100
,  // measure 81
1100
1010
0101
0011
,  // measure 82
0001
0100
1000
0100
0001
0010
0001
1000
,  // measure 83
1001
1100
0101
1010
,  // measure 84
0001
0010
0001
0100
0001
0010
0100
0010
,  // measure 85
0011
1100
1001
0110
,  // measure 86
2002
0000
3003
1001
0000
1010
0011
1100
,  // measure 87
0101
1010
0200
0000
,  // measure 88
0301
0100
0010
1000
0001
1000
0001
1000
,  // measure 89
0010
0100
0001
1000
0100
0010
0100
0010
,  // measure 90
0100
1000
0001
0100
0010
1000
0010
1000
,  // measure 91
0100
1000
0001
0010
0001
0100
0001
0100
,  // measure 92
1000
0010
0100
0001
1000
0001
1000
0001
,  // measure 93
0100
0010
1000
0001
0010
0100
0010
0100
,  // measure 94
0010
0001
1000
0010
0100
0001
0100
0001
,  // measure 95
0010
0001
1000
0100
0010
0100
0010
0001
,  // measure 96
1001
0000
1000
0100
0000
0100
1000
0000
,  // measure 97
1001
0110
0101
0101
,  // measure 98
0101
0001
0100
1000
0100
0001
0100
0001
,  // measure 99
1000
0100
0001
0100
0000
0001
0001
1000
,  // measure 100
1010
0000
0100
0010
0000
0010
0100
0100
,  // measure 101
1000
0100
0001
0010
0110
0010
0001
0100
,  // measure 102
0010
0100
1000
0010
0100
1000
0100
0010
,  // measure 103
1000
0001
1000
0001
0000
0010
0010
0100
;

//---------------dance-double - ----------------
#NOTEDATA:;
#CHARTNAME:;
#STEPSTYPE:dance-double;
#DESCRIPTION:;
#CHARTSTYLE:;
#DIFFICULTY:Easy;
#METER:8;
#RADARVALUES:0.371940,0.425900,0.348511,0.109337,0.000000,381.000000,330.000000,51.000000,16.000000,0.000000,0.000000,0.000000,0.000000,0.000000,0.371940,0.425900,0.348511,0.109337,0.000000,381.000000,330.000000,51.000000,16.000000,0.000000,0.000000,0.000000,0.000000,0.000000;
#CREDIT:;
#NOTES:
00000000
00000000
00000000
00000000
,
00000000
00000000
00000000
00000000
,
00000000
00000000
00000000
00000000
,
00000000
00000000
00000000
00000000
,
00000000
00000000
00000000
00000000
,
10000000
00000000
10000000
00000000
,
00100000
00100000
00000000
00000000
,
01000000
00000000
01000000
00000000
,
00010000
00100000
01000000
00000000
,
10000000
00100000
10000000
00100000
,
01000000
00010000
00100000
00010000
,
01000000
00100000
01000000
00100000
,
00010000
00001000
00010000
00000100
,
00000010
00000001
00000010
00000001
,
00001000
00000001
00000100
00000010
,
00001000
00000001
00001000
00000001
,
00000010
00000100
00000000
00001000
,
00000002
00000000
00002003
00000000
,
00003200
00000000
00010000
00010000
,
00010300
00001000
00010000
00001000
,
00100000
01000000
10000000
00000000
,
20000000
00000000
30200000
00000000
,
02300000
00000000
00010000
00010000
,
03010000
00100000
00010000
00100000
,
00001000
00010000
00001000
00000000
,
00001000
00000100
00000010
00000001
,
00000100
00000100
00000010
00000010
,
00001000
00000100
00010000
00001000
,
00100000
00100000
00010000
00010000
,
10000000
00100000
01000000
00010000
,
00100000
00100000
01000000
01000000
,
10010000
00000000
10000000
00100000
,
10010000
00000000
01000000
00000000
,
10010000
00000000
10000000
00100000
,
10010000
01100000
10010000
00000000
,
01000000
00000000
00100000
00001000
,
00011000
00110000
00011000
00000000
,
00010000
00000000
00000100
00001000
,
00001100
00000110
00001100
00000000
,
00000010
00000000
00000001
00000100
,
00000101
00001010
00000101
00000000
,
00001001
00000000
00000000
00000100
00000000
00000000
00000000
00000000
,
00000110
00001001
00000020
00000000
,
00000031
00000100
00000001
00000100
,
00000010
00001000
00000100
00001000
,
00000010
00000100
00000010
00000100
,
00001000
00010000
00001000
00100000
,
01000000
10000000
01000000
10000000
,
00010000
10000000
00100000
01000000
,
00010000
10000000
00010000
10000000
,
01000000
00100000
00000000
00010000
,
00001000
00001000
00001000
00001000
,
00001000
00001000
00001000
00000000
,
00000002
00000000
00000203
00000000
,
00002300
00000000
00010000
00010000
,
00013000
00100000
10000000
00100000
,
01000000
00010000
00100000
00000000
,
20000000
00000000
30200000
00000000
,
00320000
00000000
00001000
00001000
,
00031000
00010000
00001000
00010000
,
00000100
00000010
00000001
00000000
,
00000100
00000001
00000100
00000001
,
00001000
00001000
00000100
00000100
,
00010000
00001000
00010000
00001000
,
00100000
00100000
01000000
01000000
,
10000000
00100000
01000000
00010000
,
00100000
00100000
01000000
01000000
,
00101000
00000000
00010000
00001000
,
00011000
00000000
10010000
00000000
,
02200000
00000000
03300000
00000000
,
10010000
00000000
10000000
00100000
,
10010000
01100000
10010000
00000000
,
01000000
00000000
00100000
00001000
,
00011000
00110000
00011000
00000000
,
00010000
00000000
00000100
00001000
,
00001100
00000110
00001100
00000000
,
00000010
00000000
00000001
00000100
,
00000101
00001010
00000101
00000000
,
00001001
00000000
00000001
00000100
,
00001001
00000110
00001001
00000000
,
00000010
00000000
00000100
00010000
,
00011000
00001100
00011000
00000000
,
00001000
00000000
00100000
00010000
,
00110000
01100000
00110000
00000000
,
01000000
00000000
10000000
00100000
,
10100000
01010000
10100000
00000000
,
10010000
00000000
00000000
00100000
00000000
00000000
00000000
00000000
,
01100000
10010000
02000000
00000000
,
13000000
00100000
10000000
00100000
,
01000000
00010000
00100000
00010000
,
01000000
00100000
01000000
00100000
,
00010000
00001000
00010000
00000100
,
00000010
00000001
00000010
00000001
,
00001000
00000001
00000100
00000010
,
00001000
00000001
00001000
00000001
,
00000010
00000100
00001000
00000000
,
00000010
00000100
00000010
00001000
,
00000100
00000010
00001000
00010000
,
00001000
00100000
00010000
00100000
,
01000000
10000000
00100000
01000000
,
00010000
00100000
01000000
10000000
,
00100000
00100000
00010000
00010000
,
00001000
00010000
00001000
00010000
,
00000100
00000000
00000010
00000000
00000000
00000000
00000100
00000010
;

//---------------dance-double - ----------------
#NOTEDATA:;
#CHARTNAME:;
#STEPSTYPE:dance-double;
#DESCRIPTION:;
#CHARTSTYLE:;
#DIFFICULTY:Medium;
#METER:10;
#RADARVALUES:0.439299,0.496884,0.430513,0.020501,0.000000,450.000000,387.000000,63.000000,3.000000,0.000000,0.000000,0.000000,0.000000,0.000000,0.439299,0.496884,0.430513,0.020501,0.000000,450.000000,387.000000,63.000000,3.000000,0.000000,0.000000,0.000000,0.000000,0.000000;
#CREDIT:;
#NOTES:
00000000
00000000
00000000
00000000
,
00000000
00000000
00000000
00000000
,
00000000
00000000
00000000
00000000
,
00000000
00000000
00000000
00000000
,
00000000
00000000
00000000
00000000
,
10000000
10000000
00100000
00100000
,
01000000
01000000
00010000
00010000
,
00100000
00100000
00001000
00001000
,
00010000
00000100
00001100
00000000
,
00000001
00000010
00000100
00001000
,
00000001
00001000
00000001
00000100
,
00001000
00010000
00001000
00010000
,
00100000
10000000
01000000
00100000
,
00010000
10000000
00010000
10000000
,
00100000
01000000
00010000
00100000
,
00001000
00010000
00001000
00010000
,
00000100
00000010
00000000
00000001
,
00001001
00000100
00001001
00000010
,
00001001
00000010
00000100
00010000
,
00011000
00000000
00110000
01000000
,
11000000
00000000
11000000
00100000
,
10010000
01000000
10010000
00100000
,
10010000
01000000
00100000
00010000
,
00011000
00000000
00001100
00000010
,
00000011
00000000
00001001
00000010
,
00000100
00000100
00001000
00001000
,
00010000
00100000
10000000
01000000
,
00100000
00100000
01000000
01000000
,
00010000
00001000
00000100
00000001
,
00000010
00000010
00000100
00000100
,
00001000
00010000
01000000
00100000
,
00010000
10000000
00000000
00100000
00000000
01000000
00100000
00000000
,
10000000
01000000
00000000
01010000
00000000
00100000
00000000
00000000
,
11000000
00000000
00100000
00010000
00000000
01000000
00100000
00000000
,
00110000
00101000
00110000
00000000
,
00010000
00000000
00000100
00001000
00000000
00000010
00000100
00000000
,
00000011
00001010
00000011
00000000
,
00000100
00000000
00010000
00001000
00000000
00100000
00000000
00000000
,
00110000
00011000
00110000
00000000
,
10000000
00000000
00100000
01000000
00000000
00010000
00100000
00000000
,
11000000
00110000
11000000
00000000
,
10000000
00000000
00000000
00010000
00000000
10000000
00010000
00000000
,
01100000
10010000
00200000
00000000
,
10300000
01000000
00100000
00010000
,
10000000
00010000
10000000
00100000
,
00010000
00001000
00010000
00001000
,
00000100
00000001
00000010
00000100
,
00001000
00000001
00001000
00000001
,
00000100
00000010
00001000
00000100
,
00010000
00001000
00010000
00001000
,
00100000
01000000
10000000
00100000
,
00010000
00010000
00001000
00001000
,
00010000
00011000
00011000
00000000
,
00000001
00000100
00000001
00000010
,
00001000
00010000
00001000
00010000
,
00100000
10000000
01000000
10000000
,
00100000
00010000
00001000
00010000
,
00000100
00000010
00000100
00010000
,
00100000
00010000
00001000
00010000
,
00000100
00000010
00000001
00000100
,
00000010
00001000
00001001
00000000
,
00000001
00000010
00001000
00010000
,
00100000
00100000
01000000
01000000
,
00100000
00010000
00001000
00000100
,
00000010
00000010
00001000
00001000
,
00000100
00000010
00001000
00010000
,
00100000
00100000
01000000
01000000
,
00010000
10000000
00000000
00100000
00000000
01000000
00100000
00000000
,
10000000
01000000
00000000
01010000
00000000
00100000
00000000
00000000
,
20000000
00000000
00000000
30000000
,
11000000
00000000
00100000
00010000
00000000
01000000
00100000
00000000
,
00110000
00101000
00110000
00000000
,
00010000
00000000
00000100
00001000
00000000
00000010
00000100
00000000
,
00000011
00001010
00000011
00000000
,
00000100
00000000
00010000
00001000
00000000
00100000
00000000
00000000
,
00110000
00011000
00110000
00000000
,
10000000
00000000
00100000
01000000
00000000
00010000
00100000
00000000
,
11000000
00110000
11000000
00000000
,
11000000
00000000
00100000
00010000
00000000
01000000
00100000
00000000
,
00110000
00101000
00110000
00000000
,
00010000
00000000
00000100
00001000
00000000
00000010
00000100
00000000
,
00000011
00001010
00000011
00000000
,
00000100
00000000
00010000
00001000
00000000
00100000
00000000
00000000
,
00110000
00011000
00110000
00000000
,
10000000
00000000
00100000
01000000
00000000
00010000
00100000
00000000
,
11000000
00110000
11000000
00000000
,
10000000
00000000
00000000
00010000
00000000
10000000
00010000
00000000
,
01100000
10010000
00200000
00000000
,
10300000
01000000
00100000
00010000
,
10000000
00010000
10000000
00100000
,
00010000
00001000
00010000
00001000
,
00000100
00000001
00000010
00000100
,
00001000
00000001
00001000
00000001
,
00000100
00000010
00001000
00000100
,
00010000
00001000
00010000
00001000
,
00100000
01000000
10000000
00000000
,
01000000
00010000
00100000
01000000
,
10000000
00000000
00100000
00000000
00010000
00000000
00010000
00010000
,
00001000
00000100
00000001
00000010
,
00000100
00000010
00000001
00000100
,
00001000
00010000
00001000
00010000
,
00100000
00100000
10000000
00000000
01000000
01000000
00100000
00000000
,
00010000
10000000
00100000
00000000
01000000
00000000
00010000
00000000
,
00100000
00001000
00100000
00001000
00000000
00000000
00000100
00000010
;

//---------------dance-double - ----------------
#NOTEDATA:;
#CHARTNAME:;
#STEPSTYPE:dance-double;
#DESCRIPTION:;
#CHARTSTYLE:;
#DIFFICULTY:Hard;
#METER:13;
#RADARVALUES:0.644305,0.674342,0.608185,0.027334,0.000000,660.000000,571.000000,89.000000,4.000000,0.000000,0.000000,0.000000,0.000000,0.000000,0.644305,0.674342,0.608185,0.027334,0.000000,660.000000,571.000000,89.000000,4.000000,0.000000,0.000000,0.000000,0.000000,0.000000;
#CREDIT:;
#NOTES:
00000000
00000000
00000000
00000000
,
00000000
00000000
00000000
00000000
,
00000000
00000000
00000000
00000000
,
00000000
00000000
00000000
00000000
,
00000000
00000000
00000000
00000000
,
10000000
00000000
10000000
00010000
10000000
00000000
10000000
00000000
,
00100000
01000000
00100000
01000000
00000000
00000000
00100000
00000000
,
00001000
00000000
00001000
00010000
00001000
00000000
00001000
00000000
,
00000100
00000010
00000100
00000000
00000020
00000000
00000030
00000000
,
00000001
00000010
00000100
00001000
00000001
00001000
00000001
00000100
,
00000010
00010000
00000100
00010000
00000100
00010000
00001000
00100000
,
01000000
10000000
01000000
10000000
00010000
01000000
00100000
01000000
,
00100000
10000000
00010000
00100000
00010000
00100000
01000000
00000000
,
10000000
01000000
00100000
00010000
10000000
00010000
10000000
00100000
,
01000000
00001000
00100000
00001000
00100000
00001000
00010000
00000100
,
00000010
00000001
00000010
00000001
00001000
00000001
00000100
00000010
,
00001000
00000100
00001000
00010000
00000000
10000000
10000000
01000000
,
10000000
00100000
00010000
00001000
,
00000100
00000001
00000010
00001000
,
00010000
00001000
00010000
00100000
00000000
00010000
00001000
00000000
,
00010000
00001000
00010000
00000100
00000000
00010000
00001000
00000000
,
10000000
00100000
00010000
00001000
,
00010000
00100000
10000000
01000000
,
00010000
00001000
00010000
00000100
00000000
00100000
00001000
00000000
,
00010000
00001000
00010000
00000100
00000000
00000010
00000100
00000000
,
00000011
00000100
00001100
00010000
,
00110000
11000000
00110000
00011000
,
00010100
00000100
00000110
00000010
,
00000101
00001010
00010100
00011000
,
00001000
00101000
00010000
11000000
,
10100000
00000000
01010000
00000000
00101000
00000000
00010000
00001000
,
00000100
00001000
00000000
00010000
00000000
00001000
00010000
00000000
,
00100000
10000000
00000000
11000000
00000000
01010000
00000000
00000000
,
11000000
00000000
10000000
01000000
00000000
00100000
00010000
00001000
,
00000100
00000010
00000011
00000000
00001100
00000000
00000001
00000000
,
00000100
00000000
00000010
00001000
00000000
00000100
00000010
00001000
,
00011000
00110000
00011000
01000000
,
10100000
00000000
01000000
00100000
00000000
00010000
00000000
00000000
,
00101000
00010100
00101000
00010000
,
00001000
00000100
00010000
00001000
00100000
00010000
00001000
00000100
,
00011000
00110000
00011000
00000100
,
00000011
00000000
00000000
00001001
00000000
00000110
00001100
00001001
,
00000101
00001010
00000200
00000000
,
00000301
00000010
00000100
00001000
00000001
00001000
00000001
00000100
,
00000010
00010000
00000100
00010000
00000100
00010000
00001000
00100000
,
01000000
10000000
01000000
10000000
00010000
01000000
00100000
01000000
,
00100000
10000000
00010000
00100000
00010000
00100000
01000000
00000000
,
10000000
01000000
00100000
00010000
10000000
00010000
10000000
00100000
,
01000000
00001000
00100000
00001000
00100000
00001000
00010000
00000100
,
00000010
00000001
00000010
00000001
00001000
00000001
00000100
00000010
,
00001000
00000100
00001000
00010000
00000000
10000000
10000000
01000000
,
00100000
00010000
00001000
00000100
00001000
00010000
00100000
00010000
,
00001000
00000100
00001000
00010000
00100000
00010000
00001000
00000000
,
00000001
00000100
00001000
00010000
,
01000000
10000000
00100000
00010000
,
00001000
00010000
00000000
00000100
00000000
00010000
00001000
00000000
,
00100000
00001000
00000000
00010000
00000000
00001000
00010000
00000000
,
00000100
00000010
00001000
00010000
,
00100000
10000000
01000000
00010000
,
00001000
00010000
00000000
00001000
00000000
00100000
00010000
00000000
,
00001000
00000100
00000000
00010000
00000000
00001000
00000000
00000000
,
00001000
00010000
00001000
00000000
00100000
00010000
00100000
00000000
,
11000000
01100000
00110000
00011000
,
00000100
00001000
00000100
00000000
00000010
00000001
00000010
00000000
,
00000110
00001100
00011000
00110000
,
10000000
00100000
00010000
00000000
00001000
00000100
00000001
00000000
,
00000011
00000110
00001100
00011000
,
10000000
00100000
01000000
00000000
00001000
00100000
01000000
00000000
,
00011000
00010100
00101000
01010000
,
20000000
00000000
00000000
30000000
,
11000000
00000000
10000000
01000000
00000000
00100000
00010000
00001000
,
00000100
00000010
00000011
00000000
00001100
00000000
00000001
00000000
,
00000100
00000000
00000010
00001000
00000000
00000100
00000010
00001000
,
00011000
00110000
00011000
01000000
,
10100000
00000000
01000000
00100000
00000000
00010000
00000000
00000000
,
00101000
00010100
00101000
00010000
,
00001000
00000100
00010000
00001000
00100000
00010000
00001000
00000100
,
00011000
00110000
01100000
10000000
,
11000000
00000000
10000000
01000000
00000000
00100000
00010000
00001000
,
00000100
00000010
00000011
00000000
00001100
00000000
00000001
00000000
,
00000100
00000000
00000010
00001000
00000000
00000100
00000010
00001000
,
00011000
00110000
00011000
01000000
,
10100000
00000000
01000000
00100000
00000000
00010000
00000000
00000000
,
00101000
00010100
00101000
00010000
,
00001000
00000100
00010000
00001000
00100000
00010000
00001000
00000100
,
00011000
00110000
00011000
00000100
,
00000011
00000000
00000000
00001001
00000000
00000110
00001100
00001001
,
00000101
00001010
00000200
00000000
,
00000301
00000010
00000100
00001000
00000001
00001000
00000001
00000100
,
00000010
00010000
00000100
00010000
00000100
00010000
00001000
00100000
,
01000000
10000000
01000000
10000000
00010000
01000000
00100000
01000000
,
00100000
10000000
00010000
00100000
00010000
00100000
01000000
00000000
,
10000000
01000000
00100000
00010000
10000000
00010000
10000000
00100000
,
01000000
00001000
00100000
00001000
00100000
00001000
00010000
00000100
,
00000010
00000001
00000010
00000001
00001000
00000001
00000100
00000010
,
00001000
00000100
00001000
00010000
00100000
01000000
00100000
00000000
,
10000000
00100000
01000000
00010000
00100000
00010000
00100000
00001000
,
00010000
00100000
01000000
00100000
01000000
00010000
00100000
00001000
,
00010000
00000100
00001000
00010000
00100000
00001000
00010000
00000100
,
00001000
00000010
00000100
00000001
00000010
00000001
00000010
00000000
,
00000001
00000010
00001000
00010000
00100000
10000000
00100000
10000000
,
01000000
00100000
00010000
00001000
00000100
00000010
00000100
00000010
,
00000100
00001000
00010000
01000000
00100000
00010000
00000100
00001000
,
00110000
00100000
00001000
00001000
00000000
00000100
00000100
00000010
;
