#TITLE:HAVOX;
#SUBTITLE:;
#ARTIST:BlackY vs. Yooh;
#TITLETRANSLIT:;
#SUBTITLETRANSLIT:;
#ARTISTTRANSLIT:;
#GENRE:;
#CREDIT:;
#BANNER:HAVOX-bn.png;
#BACKGROUND:HAVOX-bg.jpg;
#LYRICSPATH:;
#CDTITLE:;
#MUSIC:HAVOX.mp3;
#OFFSET:0.989000;
#SAMPLESTART:69.470070;
#SAMPLELENGTH:15.000000;
#SELECTABLE:YES;
#BPMS:0.000000=210.000000
;
#STOPS:
;
#BGCHANGES:;
#KEYSOUNDS:;
#ATTACKS:;

//---------------dance-single - ----------------
#NOTES:
     dance-single:
     :
     Beginner:
     7:
     0.310416,0.392552,0.174467,0.190328,0.000000,274.000000,252.000000,22.000000,24.000000,0.000000,0.000000,0.310416,0.392552,0.174467,0.190328,0.000000,274.000000,252.000000,22.000000,24.000000,0.000000,0.000000:
0000
0000
0000
0000
,
0000
0000
0000
0000
,
0100
0000
0100
0000
,
0100
0000
0100
0100
,
0010
0000
0010
0000
,
0010
0000
0010
0010
,
1000
0000
1000
0000
,
0001
0001
1000
1000
,
0020
0000
0000
0000
,
0030
0000
0200
0000
,
0301
0000
0001
0001
,
0001
0000
0010
0000
,
0001
0000
0100
0100
,
0100
0000
0001
0000
,
1000
0000
0010
0010
,
0010
0000
1000
0000
,
0001
0000
0100
0100
,
0010
0000
1000
1000
,
1000
0000
0100
0000
,
0010
0000
0001
0001
,
0001
0000
0100
0000
,
0010
0000
1000
1000
,
1000
0000
0001
0000
,
0101
0000
1100
0000
,
1000
0001
1000
0000
,
0020
0000
0130
0000
,
0100
0001
0100
0000
,
0020
0000
0130
0000
,
0010
1000
0010
0000
,
2000
0000
3100
0000
,
1000
0010
1000
0000
,
0002
0000
0103
0000
,
0001
0010
0001
0001
,
1000
0000
1000
0000
,
0010
0000
0100
0100
,
0010
0000
0100
0000
,
0001
0000
1001
0000
,
0100
0001
0100
0001
,
1000
0000
1000
0000
,
0010
0010
0100
0100
,
0010
0100
0010
0000
,
1002
0000
0203
0000
,
0000
0000
0310
0000
,
0010
0000
1000
0000
,
1000
0100
1000
0000
,
0002
0000
0013
0000
,
2000
0000
3010
0000
,
0100
0010
0100
0000
,
0002
0000
1003
0000
,
1000
0000
0100
0000
,
1010
0000
1010
0000
,
0001
0000
0010
0000
,
0011
0000
0001
0000
,
1000
0000
0200
0000
,
0310
0000
0001
0000
,
0100
0100
0010
0000
,
1000
1000
0100
0000
,
1000
1000
0010
0000
,
0100
0100
0001
0000
,
0001
0001
1000
1000
,
0010
0010
0100
0200
,
0300
0000
0000
0000
,
1001
0000
0001
0000
,
1000
1000
0001
0001
,
0100
0000
0010
1000
,
0001
0000
0110
0000
,
1000
0000
0001
0001
,
0010
0010
0100
0000
,
1000
0001
1000
0000
,
0110
0000
0010
0000
,
1010
0000
0001
0000
,
0011
0000
1000
0000
,
1010
0000
0001
0000
,
0011
0000
0110
0000
,
0100
0010
1000
0001
,
0100
0000
0020
0000
,
0130
0001
1000
0010
,
0200
0000
0310
0000
,
2000
0000
3100
0100
,
0020
0000
0031
0001
,
2000
0000
3010
0010
,
0200
0000
0301
0000
,
0002
0000
0013
0010
,
0002
0000
0103
0100
,
0020
0000
1030
1000
,
0100
0000
1000
0000
,
1010
0000
0001
0000
,
0011
0000
1000
0000
,
1010
0000
0001
0000
,
0011
0000
0110
0000
,
0010
0100
0001
1000
,
0010
0000
0200
0000
,
0310
1000
0001
0100
,
0010
0000
0100
0000
,
0011
0000
1000
0000
,
0100
0100
0010
0000
,
0001
0000
0100
0100
,
0010
0000
1000
0000
,
0100
0100
0010
0000
,
0001
0000
1000
1000
,
0001
0000
0000
0000
,
0000
0000
1000
0000
,
0000
0000
0000
0000
,
0010
0000
0000
0000
,
0000
0000
0000
0000
,
0210
0000
0000
0000
,
0000
0000
0000
0000
,
0000
0000
0000
0000
,
0000
0000
0000
0000
,
0000
0000
0000
0000
,
0300
0000
0000
0000
;

//---------------dance-single - ----------------
#NOTES:
     dance-single:
     :
     Easy:
     10:
     0.424840,0.610636,0.412378,0.222050,0.000000,375.000000,323.000000,52.000000,28.000000,0.000000,0.000000,0.424840,0.610636,0.412378,0.222050,0.000000,375.000000,323.000000,52.000000,28.000000,0.000000,0.000000:
0000
0000
0000
0000
,
0000
0000
0000
0000
,
0100
0000
0100
0000
,
0100
0000
0100
0100
,
0010
0000
0010
0000
,
0010
0000
0010
0010
,
1000
0000
1000
0000
,
0001
0010
0100
1000
,
1002
0000
0000
0000
,
0000
0000
0203
0310
,
0000
0001
1000
1000
,
0001
0100
0010
1001
,
0000
0001
0010
0010
,
0100
1000
0010
1001
,
0000
0100
0001
0001
,
1000
0010
0100
1001
,
0010
0101
1000
0220
,
0330
0001
0101
1000
,
0100
0010
0001
1000
,
0000
0010
1010
1000
,
0001
0010
0100
1000
,
1010
0001
0101
0100
,
0001
1000
0100
0010
,
0001
0011
1000
1010
,
0010
0000
0100
0000
0010
0100
0010
0000
,
0002
0000
0000
0000
0100
0000
0000
2003
,
0000
0000
0100
0000
,
3002
0000
0000
0000
0010
0000
0000
0203
,
0000
0010
0010
0000
,
0302
0000
0000
0000
1000
0000
0000
0203
,
0000
0000
0010
0000
,
0302
0000
0000
0000
0010
0000
0000
2003
,
0000
0000
3100
1100
,
1000
0010
1000
0100
,
1000
0010
0100
0100
,
0001
0010
0001
0100
,
0001
0010
2002
3003
,
0010
0000
0100
0000
0010
0100
0001
0000
,
1000
0000
0001
0000
1000
0001
0010
0000
,
0100
1000
0100
0000
0010
0001
0010
0000
,
0100
1000
0100
0010
0002
0000
0000
0000
,
2003
0000
3020
0000
,
0100
0000
0100
0100
,
0130
0000
0010
0000
0001
1000
0100
0000
,
0010
0000
0100
0000
0010
0001
1000
0000
,
1010
0001
0010
0100
,
1000
0000
1000
0001
,
0101
0100
0010
0000
,
1000
0000
0100
0000
0010
0000
0001
0010
,
0001
0000
0001
0000
,
0101
1000
0100
0010
,
0001
1000
0010
1000
,
0001
1001
0000
1001
,
1000
0000
0000
0000
0010
0010
0100
0000
,
0100
0000
0100
0000
,
0001
0010
0100
1000
,
1000
0100
0010
0001
,
0001
0100
0010
1000
,
1000
0010
0100
0001
,
0001
1000
0010
0100
,
0001
0000
1000
0000
0010
0010
0100
0000
,
0200
0000
0300
0000
,
1001
0000
1001
0010
,
1000
0100
1000
0010
,
0100
0001
0100
0010
,
1000
0000
0101
0100
,
1001
0000
1000
0100
,
0010
0001
0010
0001
,
1000
0100
0010
0100
,
0001
0100
1000
0010
,
1001
0000
0100
0000
,
1001
0000
0010
0000
,
0101
0000
0010
0000
,
1100
0000
0011
0100
,
1001
0010
0100
0010
,
1001
0000
0010
0010
,
1001
0100
0010
0100
,
1001
0000
0010
0010
,
2000
0000
3100
0010
,
0002
0000
0013
0100
,
2000
0000
3010
0100
,
0002
0000
0013
0001
,
2000
0000
0100
0010
,
3002
0000
0010
0100
,
0023
0000
0100
0001
,
0032
0000
0100
1000
,
1003
0000
0011
0000
,
0100
0000
1010
0000
,
0001
0000
0011
0000
,
1000
0000
1001
0100
,
1001
0010
0100
0010
,
1001
0000
0010
0010
,
1001
0100
0010
0100
,
1001
0000
0010
0010
,
1100
0000
0011
0000
,
0001
0001
0101
0000
,
1010
0000
1000
1000
,
1010
0000
0101
0000
,
0001
0001
0011
0000
,
1100
0000
1000
0001
,
1001
0000
0000
0000
,
0000
0000
0110
0000
,
0000
0000
0000
0000
,
1001
0000
0000
0000
,
0000
0000
0000
0000
,
0220
0000
0000
0000
,
0000
0000
0000
0000
,
0000
0000
0000
0000
,
0000
0000
0000
0000
,
0000
0000
0000
0030
,
0300
0000
0000
0000
;

//---------------dance-single - ----------------
#NOTES:
     dance-single:
     :
     Medium:
     13:
     0.616301,0.785104,0.610636,0.420308,0.245841,544.000000,467.000000,77.000000,53.000000,0.000000,0.000000,0.616301,0.785104,0.610636,0.420308,0.245841,544.000000,467.000000,77.000000,53.000000,0.000000,0.000000:
0000
0000
0000
0000
,
0000
0000
0000
0000
,
0110
0000
0100
0000
,
0100
0000
0000
0000
0000
0000
0100
0000
0100
0000
0100
0000
,
1001
0000
0010
0000
,
0010
0000
0000
0000
0000
0000
0010
0000
0010
0000
0010
0000
,
1001
1000
0001
0001
,
1000
0000
1000
0001
0000
0001
0100
0000
0010
0000
0110
0000
,
2001
0000
0000
0000
,
0000
0000
0000
0000
3002
0103
0001
0100
,
0020
0000
1030
0000
0010
0100
0010
0100
,
0010
0000
1000
0001
0010
0000
0100
0000
,
2001
0000
3000
0000
0010
0100
0010
0100
,
0010
0000
1000
0001
0100
0000
0010
0000
,
1002
0000
0003
0000
0100
0010
0100
0010
,
0100
0000
0001
0010
0100
0000
1000
0001
,
1000
0000
0110
0000
0001
0010
0001
0020
,
0000
0030
0100
0000
1000
0001
1000
0010
,
1000
0000
0001
1000
0100
0000
0010
0000
,
2001
0000
3000
0000
0001
1000
0001
0010
,
0001
0000
1000
0010
0100
0000
0010
0000
,
1002
0000
0003
0000
0100
0010
1000
0001
,
0100
0000
0010
1000
0100
0000
0010
0000
,
1001
0110
0100
1001
,
0010
0100
0001
0010
0100
1000
0001
1000
,
0100
0200
0000
0000
0320
0000
0031
0002
,
0000
1003
2000
0000
3020
0100
2030
0100
,
3001
0002
0000
0000
0013
0000
0100
1000
,
0100
0000
0100
0010
0000
0001
0010
0100
,
1000
2000
0000
0000
3002
0000
0103
0200
,
0000
0301
0002
0000
0023
0001
0230
1000
,
0310
0020
0000
0000
0031
0000
0100
0001
,
0000
0100
0010
0000
0110
0000
1001
0000
,
0001
0001
0100
0000
1000
1000
0100
0000
,
0001
0001
0010
0000
0100
0100
1000
1000
,
0010
0010
0100
0000
1000
1000
0100
0000
,
0001
0000
0001
0000
0010
0000
0000
0000
1100
0000
0000
0010
0000
0000
1001
0000
,
0100
0001
0100
0000
0010
1000
0100
0000
,
0010
0001
0010
0100
1000
1000
0001
0001
,
0100
0010
1000
0001
0100
0010
1000
0001
,
0100
0010
0100
0010
2000
0000
0000
0000
,
3001
0001
0200
0010
,
0000
0010
0010
0001
,
0301
0000
0001
1000
0000
1000
0010
0000
0010
0100
0000
0100
,
0001
0010
0100
1000
0000
0000
0010
0000
0000
1000
0000
0000
,
0100
0000
0100
0010
0000
0010
0100
0000
0100
1000
0000
1000
,
0010
0100
0001
0100
0000
0000
0010
1000
0010
0100
0000
0000
,
0201
0300
0001
1000
,
0100
0000
0010
0100
0000
1000
0100
0000
0000
0010
0001
1000
,
0200
0000
0010
1000
,
1300
1100
0010
0011
,
0002
0000
0100
1000
,
1003
0000
0000
0100
0000
0000
0001
0000
0000
0000
1000
0000
0010
0000
0100
0000
,
0002
0000
0000
0000
0103
0010
0100
0010
,
1000
0100
0010
0001
,
0011
0100
1000
0010
,
1010
1000
0100
0010
,
0011
0100
1000
0010
,
1010
1000
0100
0010
,
0011
0110
1100
0110
,
1001
1010
0110
0101
,
0002
0000
0003
0000
,
1001
0000
1001
1001
,
0110
0110
1001
1001
,
0001
0010
0100
1000
,
0010
0000
0000
0010
0000
0000
1000
0000
0100
0000
0010
0000
,
1001
0000
1001
1001
,
0110
0110
1001
1001
,
0010
0000
1000
0100
0000
0000
0010
0000
0001
0100
0000
0000
,
1001
0000
0000
0000
0000
0000
0010
0000
0010
0000
0100
0000
,
0002
0013
2000
3010
,
0002
0103
2000
3100
,
0002
0013
2000
0010
,
3002
0000
0103
0010
,
1010
0110
0101
0011
,
0110
0000
0000
0000
0000
0000
1000
0000
1000
0000
0001
0000
,
0011
0110
1100
1010
,
0110
0000
0000
0100
0000
0000
0001
1000
0001
1000
0001
1000
,
0020
0000
0100
0100
,
2030
0000
0100
0100
,
3020
0000
0100
0100
,
2030
0000
0001
0100
,
3002
0000
0010
0010
,
2003
0000
0010
0010
,
3002
0000
0010
0010
,
2003
0000
0100
3010
,
0002
0013
2000
3010
,
0002
0103
2000
3100
,
0002
0013
2000
0010
,
3002
0000
0103
0010
,
1010
0110
0101
0011
,
0110
0000
0000
0000
0000
0000
1000
0000
1000
0000
0001
0000
,
0011
0110
1100
1010
,
0110
0000
0000
0100
0000
0000
0001
0010
0001
0010
0100
1000
,
0100
0000
0000
0100
0000
0100
0010
0000
0000
0010
0000
0010
,
0100
0000
0100
0000
0010
0000
1001
0000
0000
0010
0000
0010
,
0100
0000
0000
0100
0000
0100
0010
0000
0010
0000
0100
0000
,
1001
0000
0000
0001
0000
0001
0100
0000
0000
0100
0000
0100
,
0010
0000
0010
0000
1000
0000
1010
0000
0000
1001
0000
1000
,
0100
0000
0000
1001
0000
0001
0100
0000
0010
0000
0110
0000
,
1001
0000
0000
0000
,
0000
0000
0110
0000
,
0000
0000
0000
0000
,
1001
0000
0000
0000
,
0000
0000
0000
0000
,
0220
0000
0000
0000
,
0000
0000
0000
0000
,
0000
0000
0000
0000
,
0000
0000
0000
0000
,
0000
0000
0000
0030
,
0300
0000
0000
0000
;

//---------------dance-single - ----------------
#NOTES:
     dance-single:
     :
     Hard:
     18:
     0.953907,1.264889,1.007153,0.824755,0.785104,842.000000,715.000000,127.000000,104.000000,0.000000,0.000000,0.953907,1.264889,1.007153,0.824755,0.785104,842.000000,715.000000,127.000000,104.000000,0.000000,0.000000:
0000
0000
0000
0000
,
0000
0000
0000
0000
,
0011
0000
0000
1000
0100
0010
0001
0000
0000
0001
0010
0100
,
1000
0000
0000
1000
0100
0010
0011
0000
1001
0000
1100
0000
,
1010
0000
0000
0001
0100
0010
1000
0000
0000
1000
0010
0100
,
0001
0010
0001
1001
0000
0100
0101
0000
1001
0000
1100
0000
,
1010
0000
0010
0001
0000
0001
0010
0000
0010
1000
0000
1000
,
0100
0001
0100
1000
0001
0010
0100
0000
1010
0000
1001
0000
,
0201
0000
0000
0000
,
0000
0000
0000
0000
0320
2030
3020
1030
,
1002
0000
0103
0000
0010
0100
0010
0100
,
0001
0000
0100
0010
0100
0000
0010
1000
,
2010
0000
3100
0000
0010
0100
0010
0100
,
1000
0000
0000
0000
0100
0000
0010
0000
0100
0000
0010
0100
0010
0000
0100
0000
,
2100
0000
3010
0000
0100
0010
0100
0010
,
1000
0000
0010
0100
0010
0000
0100
0010
,
1010
0000
1000
0100
1000
0000
0001
0010
0001
0000
0010
0000
0100
0000
2000
0000
,
0100
3000
1001
0000
0100
0100
0010
0010
,
1000
0000
1000
0001
0010
0000
0001
1000
,
0110
0000
1001
0000
0010
0010
0100
0100
,
0001
0000
0000
0000
0001
0000
0100
0000
0010
0000
0100
0010
0100
0000
0001
0000
,
0101
0000
1010
0000
0100
0100
0010
0010
,
0100
0000
0100
0001
0010
0000
0100
1000
,
1100
0000
1000
0001
0020
0000
0031
1000
0020
0000
1030
0001
0200
0000
0301
1000
,
0200
0310
0001
1000
0100
0001
0100
0010
,
1001
2001
0000
0000
3020
0000
0001
0032
,
0000
0010
0023
0000
0032
0023
2030
3100
,
1001
1020
0100
1000
0230
0000
1000
2300
,
0100
0000
3200
1000
0000
2300
3002
0013
,
0110
0201
0000
0000
0320
0000
0001
0032
,
0000
0010
0023
0000
0032
0023
2030
3100
,
0110
1020
0100
0001
0032
0000
0010
0203
,
0010
0000
0310
1000
1001
0000
1001
0000
,
0100
0000
0100
0000
0001
0000
0010
0100
0010
0000
0001
0000
1000
0000
0001
0000
,
0000
0000
0001
0100
1000
0000
0200
0000
0010
0000
0010
0000
0310
1000
0010
1000
,
0100
0000
1000
0000
0001
0000
0100
0010
0100
0000
1000
0000
0100
0000
0001
1000
,
0001
0000
0000
0100
0000
0000
0010
0000
0000
1000
0000
0000
1001
0000
0000
0000
0110
0000
0000
0000
1001
0000
0000
0000
,
0110
0000
0010
0000
1000
0000
0100
0010
0001
0000
0100
0000
0010
0000
1000
0010
,
0100
0001
0010
0200
0010
0010
0010
0310
,
0001
1000
0010
0100
0001
1000
0010
0100
0001
0010
0100
1000
0001
0010
0100
1000
,
0001
0010
0001
0010
0001
0100
0010
1000
0020
0000
0000
0000
0000
0000
0000
0000
,
0130
0000
0100
0010
2010
0000
0001
0000
,
0001
0000
0000
0100
0000
0000
0100
0000
0000
3020
0000
0100
,
1030
0001
0100
0001
0010
0100
1000
0010
0100
0010
0100
0001
,
1000
0000
0000
0000
0010
0000
0000
0000
0001
0000
0000
0000
1000
0000
0000
0000
0100
0000
0000
0000
0001
0000
0000
0000
1000
0000
0000
0010
0000
0000
1000
0000
0000
0010
0000
0000
0100
0000
0000
0001
0000
0000
0100
0000
0000
0001
0000
0000
,
0010
0001
0010
0001
1000
0100
1000
0100
0010
0001
0010
0001
,
1000
0010
0001
1000
0100
0001
0001
0010
1000
0001
0100
1000
,
1010
0000
0010
0000
0100
0000
0000
0000
0011
0000
0010
0000
0100
0000
1000
0100
,
1000
0000
0001
0000
0010
0000
0100
0000
1000
0001
1000
0001
1000
0001
1000
0010
,
0200
0000
0010
0000
0010
0000
0301
0001
,
0120
0031
0210
1300
,
0012
0000
0000
0010
0000
0000
0010
0000
0100
0000
0000
0100
0000
0000
0100
0000
,
1003
0000
0000
0010
0000
0000
0001
0000
0000
0000
1000
0000
0010
0000
0100
0000
,
0002
0000
0000
0000
0000
0000
0000
0000
0103
0010
0100
0010
0100
0010
0100
0010
,
2000
3100
0010
0001
,
0011
0110
1100
1001
,
1010
0110
0101
1001
,
0001
0001
0010
0010
0100
0100
1000
1000
,
0100
0100
0010
0010
0001
0001
0100
0100
,
1001
0001
0110
0010
0101
0100
1010
1000
,
1001
0001
0110
0100
1001
1000
0110
0010
,
2001
0000
0002
3003
,
2001
0000
3001
0000
1000
0100
0010
0001
1000
0000
0010
0000
1001
0000
1000
0000
,
1001
0100
1001
0010
1001
0001
1001
0010
,
1000
0000
1000
0000
0100
0010
0001
0010
0100
0000
0100
0000
1000
0001
0100
0001
,
2000
0000
0000
3001
0000
0000
0101
0000
0110
0000
1010
0000
,
2001
0000
3001
0000
1000
0100
0010
0001
1000
0000
0010
0000
1001
0000
1000
0000
,
1001
0100
1001
0010
1001
0001
1001
0010
,
2001
0000
0000
3100
0100
1000
0002
0000
0010
0203
0000
1000
,
0310
1000
0001
0100
0010
1000
0200
0000
0320
0000
0031
0000
,
2001
3100
0100
0000
1002
0013
0010
0000
,
2100
0000
0000
3010
0000
0000
0010
0000
0000
0000
0000
0000
0012
0000
0000
0013
0000
0000
0010
0000
0001
0000
1000
0000
,
0100
0010
0100
0020
0000
0000
0031
0100
0001
0200
0000
0000
,
0301
0010
0100
1000
0000
0000
1001
0000
0000
0110
0000
0000
,
0120
0000
0000
0000
0000
0000
0000
0030
0210
0000
0000
0000
0000
0000
0000
0300
0102
0000
0000
0000
0000
0000
0000
0003
0021
0000
0000
0000
0000
0000
0000
0030
,
0120
0000
0000
0000
0000
0000
0000
0000
0000
0000
0000
0000
0000
0000
0000
0000
0000
0000
0000
0000
0000
0000
0000
0000
0000
0000
0000
0000
0000
0000
0000
0000
0000
0000
0000
0000
0000
0000
0000
0000
0000
0000
0030
0000
0000
0000
0000
0000
2100
0000
0000
0000
0000
0000
3000
0000
0000
0000
0000
0000
0000
0000
0000
0000
0000
0000
0000
0000
0000
0000
0000
0000
0000
0000
0000
0000
0000
0000
0000
0000
0000
0000
0000
0000
0000
0000
0000
0000
0000
0000
0000
0000
0000
0000
0000
0000
1001
0000
0000
0000
0000
0000
0000
0000
0000
0000
0000
0000
0000
0000
0000
0000
0000
0000
0000
0000
0000
0000
0000
0000
0000
0000
0000
0000
0000
0000
0000
0000
0110
0000
0000
0000
0000
0000
0000
0000
0000
0000
0000
0000
0000
0000
0000
0000
0000
0000
0000
0000
0000
0000
0000
0000
0000
0000
0000
0000
0000
0000
0000
0000
1001
0000
0000
0000
0000
0000
0000
0000
0000
0000
0000
0000
0000
0000
0000
0000
0000
0000
0000
0000
0000
0000
0000
0000
0000
0000
0000
0000
0000
0000
0000
0000
,
1200
0000
0000
0310
0000
0010
0002
0000
1000
0000
1000
0000
,
0103
0000
0100
0010
0000
0010
0100
0100
0100
0010
0010
0010
,
2000
0010
3002
0013
,
0020
0001
0230
1300
,
2000
0000
0000
0001
0000
0000
3010
0000
0100
0001
0000
0100
,
0002
0013
0101
1100
,
2000
0000
0000
0100
0000
0000
0010
0000
0000
3001
1000
0010
,
0200
0000
0000
0010
0000
0000
0001
0000
0010
1300
0001
0010
,
0200
0000
0000
0010
0000
0000
1300
0100
0010
1000
0001
0100
,
2000
0000
0000
3010
0000
0000
0110
0000
0100
0000
0010
0000
,
2001
3000
0100
0000
1002
0003
0010
0000
,
2100
3000
0010
0000
0012
0003
0010
0000
,
2100
3000
0100
0000
0102
0003
0010
0000
,
0210
0000
0000
0300
0000
0000
1000
0100
0010
0001
1000
0010
,
0120
0000
0000
0000
0000
0000
0000
0030
0210
0000
0000
0000
0000
0000
0000
0300
0102
0000
0000
0000
0000
0000
0000
0003
0021
0000
0000
0000
0000
0000
0000
0030
,
0120
0000
0000
0000
0000
0000
0000
0000
0000
0000
0000
0000
0000
0000
0000
0000
0000
0000
0000
0000
0000
0000
0000
0000
0000
0000
0000
0000
0000
0000
0000
0000
0000
0000
0000
0000
0000
0000
0000
0000
0000
0000
0030
0000
0000
0000
0000
0000
2100
0000
0000
0000
0000
0000
3000
0000
0000
0000
0000
0000
0000
0000
0000
0000
0000
0000
0000
0000
0000
0000
0000
0000
0000
0000
0000
0000
0000
0000
0000
0000
0000
0000
0000
0000
0000
0000
0000
0000
0000
0000
0000
0000
0000
0000
0000
0000
1001
0000
0000
0000
0000
0000
0000
0000
0000
0000
0000
0000
0000
0000
0000
0000
0000
0000
0000
0000
0000
0000
0000
0000
0000
0000
0000
0000
0000
0000
0000
0000
0110
0000
0000
0000
0000
0000
0000
0000
0000
0000
0000
0000
0000
0000
0000
0000
0000
0000
0000
0000
0000
0000
0000
0000
0000
0000
0000
0000
0000
0000
0000
0000
1001
0000
0000
0000
0000
0000
0000
0000
0000
0000
0000
0000
0000
0000
0000
0000
0000
0000
0000
0000
0000
0000
0000
0000
0000
0000
0000
0000
0000
0000
0000
0000
,
1000
0001
0010
0100
1000
0100
1000
0010
0100
0001
1000
0100
0010
0001
0100
0010
,
0100
0000
0000
0100
0000
0000
0010
0010
0010
0100
0100
0100
,
1001
0000
0000
1000
0100
0010
0001
0000
0000
0001
0010
0100
,
1000
0000
1100
0000
0110
0000
0011
0000
0000
0001
0010
0100
,
1000
0000
0000
1000
0100
0010
0001
0000
0011
0000
0110
0000
,
1100
0000
0000
1000
0010
0100
0001
0000
0000
0001
0010
0100
,
1000
0000
1010
0000
0110
0000
0101
0000
0000
0001
0100
0010
,
1000
0000
0000
1000
0100
0010
0001
0000
0101
0000
0110
0000
,
2020
3030
0000
0000
,
0000
0000
0220
0330
,
0000
0000
0000
0000
,
2002
3003
0000
0000
,
0000
0000
0000
0000
2000
3002
0203
0310
,
0210
0000
0000
0000
,
0000
0000
0000
0000
,
0000
0000
0000
0000
,
0000
0000
0000
0000
,
0020
0000
0000
0000
0000
0000
0300
0000
0000
0000
0100
0100
,
0030
0000
0000
0000
;

//---------------dance-double - ----------------
#NOTES:
     dance-double:
     :
     Easy:
     10:
     0.339872,0.523402,0.214119,0.150676,0.000000,300.000000,273.000000,27.000000,19.000000,0.000000,0.000000,0.339872,0.523402,0.214119,0.150676,0.000000,300.000000,273.000000,27.000000,19.000000,0.000000,0.000000:
00000000
00000000
00000000
00000000
,
00000000
00000000
00000000
00000000
,
00001000
00000000
00001000
00000000
,
00001000
00000000
00001000
00001000
,
00010000
00000000
00010000
00000000
,
00010000
00000000
00010000
00010000
,
00001000
00000000
00001000
00000000
,
00010000
00010000
00001000
00001000
,
02000000
00000000
00000000
00000000
,
00000000
00000000
03200000
00300000
,
10010000
00000000
01000000
00100000
,
01000000
00000000
00010000
00000000
,
00110000
00000000
00001000
00100000
,
00001000
00000000
00010000
00000000
,
00010100
00000000
00001000
00000010
,
00001000
00000000
00000100
00000000
,
00000110
00000000
00001001
00001000
,
00000000
00000000
00000001
00000001
,
00000100
00000000
00000010
00000000
,
00001001
00000000
00001000
00001000
,
00000100
00000000
00000010
00000000
,
00011000
00000000
00001000
00001000
,
00010000
00000000
00100000
00000000
,
11000000
00000000
01010000
00000000
,
10000000
00010000
01000000
00000000
,
00020000
00000000
00000000
00000000
10000000
00000000
00000000
01000000
,
00000000
00000000
02030000
00000000
,
03200000
00000000
00000000
00000000
01000000
00000000
00000000
01000000
,
00000000
00000000
00320000
00000000
,
00032000
00000000
00000000
00000000
00010000
00000000
00000000
00100000
,
00000000
00000000
00023000
00000000
,
00030200
00000000
00000000
00000000
00000010
00000000
00000000
00000010
,
00000000
00000000
00010300
00010100
,
00010000
00000100
00010000
00001000
,
00010000
00000100
00001000
00001000
,
00000100
00010000
00001000
00010000
,
00000100
00010000
00001000
00001000
,
00100000
00010000
00100000
01000000
,
10000000
01000000
10000000
10000000
,
00100000
01000000
00100000
00000000
10000000
00010000
10000000
00000000
,
01000000
00100000
10010000
00000000
,
01000000
00000000
00200000
00000000
,
01000000
00000000
01000000
01000000
,
01300000
00010000
01000000
00100000
,
00010000
00001000
00010000
00000100
,
00000010
00000010
00000100
00000100
,
00001000
00010000
00100000
01000000
,
10000000
00000000
10000000
00000000
,
10000000
00100000
10000000
00000000
,
10010000
00000000
00010000
00000000
,
00110000
00100000
00001000
00000000
,
00010000
00000000
00000100
00000000
,
00001000
00000100
00010000
00001000
,
00010000
00000000
00000200
00000000
,
00001300
00000010
00000100
00000000
,
00000001
00000001
00000010
00000000
,
00000100
00000100
00001000
00000000
,
00010000
00010000
00100000
00000000
,
01000000
01000000
10000000
00000000
,
10000000
01000000
00100000
00000000
,
00010000
00001000
00000100
00000020
,
00000000
00000000
00000030
00000000
,
00001001
00000000
00000001
00000100
,
00000001
00000001
00000010
00000010
,
00000100
00000000
00001000
00000010
,
00000100
00000000
00011000
00000000
,
00110000
00000000
00010000
01000000
,
00100000
00100000
01000000
01000000
,
00010000
00000000
10000000
00000000
,
00100000
00000000
10000000
10000000
,
10100000
00000000
00010000
00000000
,
01010000
00000000
00100000
00000000
,
11000000
00000000
00100000
00000000
,
00011000
00000000
00001000
00000000
,
00010000
00010000
00001000
00001000
,
00100000
00000000
00010000
00000000
,
00001000
00001000
00010000
00010000
,
00000010
00000000
00002000
00000000
,
00003100
00000000
00000010
00000001
,
00000100
00000000
00000010
00001000
,
00000100
00000000
00000010
00000001
,
00000100
00000000
00002000
00000000
,
00013000
00000000
00100000
10000000
,
01000000
00000000
00100000
00010000
,
10000000
00000000
00010000
10000000
,
02000000
00000000
03100000
00010000
,
01000000
00000000
10100000
00000000
,
01000000
00000000
00110000
00000000
,
00001000
00000000
01010000
00000000
,
00100000
00000000
00002000
00000000
,
00013000
00010000
00001000
00001000
,
00100000
00000000
00010000
00000000
,
00001000
00001000
00010000
00010000
,
00000010
00000000
00002000
00000000
,
00003001
00000000
00000001
00000000
,
00000001
00000001
00001000
00000000
,
00001000
00000000
00001000
00001000
,
00010000
00000000
00010000
00000000
,
00010000
00010000
10000000
00000000
,
10000000
00000000
10000000
10000000
,
10010000
00000000
00000000
00000000
,
00000000
00000000
00011000
00000000
,
00000000
00000000
00000000
00000000
,
00001001
00000000
00000000
00000000
,
00000000
00000000
00000000
00000000
,
00022000
00000000
00000000
00000000
,
00000000
00000000
00000000
00000000
,
00000000
00000000
00000000
00000000
,
00000000
00000000
00000000
00000000
,
00000000
00000000
00000000
00003000
,
00030000
00000000
00000000
00000000
;

//---------------dance-double - ----------------
#NOTES:
     dance-double:
     :
     Medium:
     13:
     0.665016,0.872337,0.586845,0.467890,0.293423,587.000000,513.000000,74.000000,59.000000,0.000000,0.000000,0.665016,0.872337,0.586845,0.467890,0.293423,587.000000,513.000000,74.000000,59.000000,0.000000,0.000000:
00000000
00000000
00000000
00000000
,
00000000
00000000
00000000
00000000
,
00001000
00000000
00001000
00000000
,
00001000
00000000
00000000
00000000
00000000
00000000
00001000
00000000
00010000
00000000
00001000
00000000
,
00010000
00000000
00010000
00000000
,
00010000
00001000
00010000
00001000
00000000
00000000
00010000
00000000
00001000
00000000
00010000
00000000
,
00001000
00000000
00001000
00100000
00000000
00100000
01000000
00000000
01000000
00100000
00000000
00100000
,
00001000
00010000
00001000
00010000
00000000
00010000
00001000
00000000
00100000
00000000
01000000
00000000
,
20000000
00000000
00000000
00000000
,
00000000
00000000
00000000
00000000
30020000
10030000
00010000
10000000
,
10010000
00000000
00000000
00000000
01000000
00100000
01000000
00010000
,
00100000
00000000
01000000
00100000
00010000
00000000
00001000
00000000
,
00010100
00000000
00000000
00000000
00000100
00000010
00000001
00000010
,
00000100
00000000
00001000
00000010
00000100
00000000
00010000
00000000
,
01001000
00000000
00000000
00000000
01000000
00100000
10000000
00100000
,
01000000
00000000
00010000
00100000
01000000
00000000
10000000
00000000
,
10010000
00000000
00100000
00000000
01000000
00010000
01000000
00020000
,
00000000
00030000
00011000
00000000
00000010
00001000
00000010
00001000
,
00000100
00000000
00000010
00000001
00001000
00000000
00000100
00001000
,
00000010
00000000
00011000
00000000
00100000
00001000
00100000
00001000
,
01000000
00000000
00100000
10000000
01000000
00000000
10000000
00010000
,
01000000
00000000
00011000
00000000
00000100
00010000
00000100
00010000
,
00001000
00000000
00000100
00001000
00010000
00000000
00000100
00001000
,
00000010
00000101
00000010
00001100
,
00000010
00000100
00000010
00000100
00000001
00000010
00000100
00001000
,
00010000
00020000
00000000
00000000
02030000
00000000
00100000
03200000
,
00000000
01000000
02300000
00000000
03100000
00010000
00001000
00000100
,
00000010
00000010
00000100
00000001
00000020
00000000
00000100
00000130
,
00000020
00000000
00000031
00002000
00000000
00003010
00001000
00000001
,
00000100
00000200
00000000
00000000
00002300
00000000
00010000
00023000
,
00000000
00001000
00032000
00000000
00013000
00100000
01000000
10000000
,
01000000
00010000
00100000
01000000
20000000
00000000
30100000
01000000
,
00200000
00000000
00310000
00001000
00011000
00000000
00011000
00000000
,
00010000
00010000
00001000
00000100
00000010
00000100
00000100
00000010
,
00000000
00001000
00000001
00000100
00000010
00000010
00001000
00001000
,
00010000
00001000
00010000
01000000
00200000
00000000
01300000
00100000
,
02000000
00000000
00000000
00000000
00000000
00000000
03010000
00000000
00000000
10000000
00000000
00000000
01000000
00000000
00000000
00000000
01100000
00000000
00000000
00000000
00100000
00000000
00000000
00000000
,
00110000
01000000
10000000
00100000
01000000
00010000
00100000
01000000
,
00100000
00010000
00001000
00000100
00010000
00010000
00001000
00001000
,
00010000
00000100
00001000
00000010
00000100
00000010
00000100
00000001
,
00000010
00001000
00010000
01000000
10000000
00000000
00000000
00000000
,
00010000
01000000
00200000
01000000
,
01000000
01000000
01300000
01100000
,
10000000
00000000
10000000
00100000
00000000
00100000
00010000
00000000
00010000
00001000
00000000
00001000
,
00100000
00010000
00001000
00000100
00000000
00000000
00010000
00001000
00000100
00000010
00000000
00000000
,
00000100
00000000
00000100
00000010
00000000
00000010
00001000
00000000
00001000
00010000
00000000
00010000
,
01000000
00100000
10000000
01000000
00000000
00000000
00100000
00010000
01000000
00100000
00000000
00000000
,
00011000
00001000
00010000
00000000
00001000
00010000
00001000
00010000
,
01000000
10000000
01000000
10000000
00100000
01000000
00001000
00010000
,
00200000
00000000
01000000
01000000
,
10300000
10100000
00001000
00011000
,
00000020
00000000
00001000
00001030
,
00001000
00000000
00000000
00000100
00000000
00000000
00000001
00000000
00000000
00000000
00001000
00000000
00000010
00000000
00000100
00000000
,
00002000
00000000
00000000
00000000
00013000
00001000
00010000
00001000
,
00020000
00230000
20300000
31000000
,
20000000
32000000
03200000
00310000
,
00020000
00032000
00003200
00000310
,
00000020
00000230
00002300
00013000
,
00020000
20030000
30200000
00310000
,
00020000
00032000
00003020
00000230
,
00020300
00230000
02300000
03002000
,
00003200
00000000
00000320
00000030
,
00001001
00000000
00001001
00001001
,
00000110
00000110
00001001
00001001
,
00000001
00000010
00000100
00001000
,
00000010
00000000
00000000
00000100
00000000
00000000
00001000
00000000
00010000
00000000
01000000
00000000
,
10010000
00000000
10010000
10010000
,
01100000
01100000
10010000
10010000
,
10000000
00100000
00010000
00001000
,
00000100
00000000
00000000
00000001
00000000
00000000
00000010
00000000
00000100
00000000
00001000
00000000
,
00001010
00001000
00110000
00010000
,
00001100
00001000
01010000
00010000
,
00101000
00010000
00001100
00000010
,
00001001
00000000
00000100
00000100
,
00000101
00001010
00010100
00101000
,
01010000
00000000
00000000
01000000
00000000
00000000
00010000
00000000
10000000
00000000
01000000
00000000
,
10100000
01010000
00101000
00010100
,
00001010
00000000
00000010
00000100
00000000
00000100
00000001
00000010
00000001
00000010
00000001
00000010
,
00002000
00010000
01000000
00100000
,
00023000
00001000
00000100
00000010
,
00032000
00010000
00100000
01000000
,
00023000
00001000
00000010
00030100
,
00001200
00000000
00000000
00001000
00000000
00000000
00000310
00000000
00000000
00000010
00000001
00000010
,
00000200
00000000
00000000
00001000
00000000
00000000
00010300
00000000
00000000
00001000
00010000
00001000
,
00200000
00000000
00000000
00010000
00000000
00000000
01300000
10000000
01000000
00100000
00010000
00100000
,
00002000
00000000
00000000
00100000
00000000
00000000
00013000
00000000
00010000
00000000
00010000
00000000
,
00001010
00001000
00110000
00010000
,
00001100
00001000
01010000
00010000
,
00101000
00010000
00001100
00000010
,
00001001
00000000
00000000
00000000
00000000
00000000
00000100
00000000
00000010
00000000
00000100
00000000
,
00000101
00001010
00010100
00101000
,
01010000
00000000
00000000
01000000
00000000
00000000
00010000
00000000
10000000
00000000
01000000
00000000
,
10100000
10000000
01000000
00010000
00001000
00000010
00000001
00000100
,
00002000
00000000
00023000
00030000
,
00011000
00000000
00000000
00001000
00000000
00001000
00010000
00000000
00000000
00010000
00000000
00010000
,
00001000
00000000
01000000
00000000
00010000
00000000
10010000
00000000
00000000
10000000
00000000
10000000
,
00100000
00000000
00000000
00100000
00000000
00100000
10000000
00000000
00100000
00000000
00010000
00000000
,
00011000
00000000
00000000
00001000
00000000
00001000
00010000
00000000
00000000
00010000
00000000
00010000
,
00001000
00000000
00000100
00000000
00000010
00000000
00001010
00000000
00000000
00001100
00000000
00000000
,
00101000
00000000
00000000
00110000
00000000
00000000
01100000
00000000
10000000
00000000
00010000
00000000
,
10010000
00000000
00000000
00000000
,
00000000
00000000
00011000
00000000
,
00000000
00000000
00000000
00000000
,
00001001
00000000
00000000
00000000
,
00000000
00000000
00000000
00000000
,
00022000
00000000
00000000
00000000
,
00000000
00000000
00000000
00000000
,
00000000
00000000
00000000
00000000
,
00000000
00000000
00000000
00000000
,
00000000
00000000
00000000
00003000
,
00030000
00000000
00000000
00000000
;

//---------------dance-double - ----------------
#NOTES:
     dance-double:
     :
     Hard:
     18:
     0.927850,1.264889,0.911989,0.705800,0.761313,819.000000,704.000000,115.000000,89.000000,0.000000,0.000000,0.927850,1.264889,0.911989,0.705800,0.761313,819.000000,704.000000,115.000000,89.000000,0.000000,0.000000:
// measure 0
00000000
00000000
00000000
00000000
,  // measure 1
00000000
00000000
00000000
00000000
,  // measure 2
10010000
00000000
00000000
00010000
01000000
00100000
10000000
00000000
00000000
10000000
01000000
00100000
,  // measure 3
00010000
00000000
00000000
00001000
00000010
00000100
00000001
00000000
00000110
00000000
00000101
00000000
,  // measure 4
00001001
00000000
00000000
00000001
00000100
00000010
00001000
00000000
00000000
00010000
00100000
01000000
,  // measure 5
10000000
00100000
00010000
00001000
00000000
00010000
00000010
00000000
00000110
00000000
00001100
00000000
,  // measure 6
00011000
00000000
00010000
00000100
00000000
00000100
00010000
00000000
00010000
00100000
00000000
00100000
,  // measure 7
10000000
00010000
00100000
00000100
00001000
00000001
00000010
00000000
00000110
00000000
00001100
00000000
,  // measure 8
00001020
00000000
00000000
00000000
,  // measure 9
00000000
00000000
00000000
00000000
00002030
00003002
00002003
00003001
,  // measure 10
00001001
00000000
00000110
00000000
00000001
00000001
00001000
00001000
,  // measure 11
00010000
00000000
01000000
00100000
00010000
00000000
00001000
00100000
,  // measure 12
01100000
00000000
10010000
00000000
10000000
10000000
00010000
00010000
,  // measure 13
00001000
00000000
00000000
00000000
00000100
00000000
00000010
00000000
00001000
00000000
00010000
00001000
00010000
00000000
00000010
00000000
,  // measure 14
00000110
00000000
00001001
00000000
00000001
00000001
00001000
00001000
,  // measure 15
00010000
00000000
01000000
00100000
00001000
00000000
00010000
00100000
,  // measure 16
10010000
00000000
01000000
00100000
00010000
00000000
00100000
00010000
00001000
00000000
00001000
00000000
00000100
00000000
00000100
00000000
,  // measure 17
00000110
00000000
00001001
00000000
00000001
00000100
00001000
00100000
,  // measure 18
01000000
00000000
10000000
01000000
00010000
00000000
10000000
00100000
,  // measure 19
10010000
00000000
01100000
00000000
10000000
00100000
00010000
00000100
,  // measure 20
00000010
00000000
00000000
00000000
00000001
00000000
00000010
00000000
00001000
00000000
00000010
00000100
00000010
00000000
00000100
00000000
,  // measure 21
00001001
00000000
00000110
00000000
00000001
00000010
00001000
00010000
,  // measure 22
01000000
00000000
10000000
00100000
00010000
00000000
10000000
01000000
,  // measure 23
10010000
00000000
01000000
00100000
01000000
00000000
00001000
00010000
00001000
00000000
00100000
01000000
00100000
00000000
00010000
00001000
,  // measure 24
00010000
00001000
00000100
00010000
00100000
10000000
00010000
00100000
,  // measure 25
00011000
00002000
00000000
00000000
00023000
00000000
00100000
00230000
,  // measure 26
00000000
10000000
20300000
00000000
30200000
00320000
00032000
00003100
,  // measure 27
00000110
00000020
00001000
00000100
00002030
00000000
00000001
00003002
,  // measure 28
00000100
00000000
00000023
00000100
00000000
00000130
00010000
00001000
,  // measure 29
00000110
00000200
00000000
00000000
00000320
00000000
00001000
00002030
,  // measure 30
00000000
00010000
00023000
00000000
02030000
23000000
32000000
03001000
,  // measure 31
00011000
00020000
00001000
00000100
00030020
00000000
00000100
00002030
,  // measure 32
00000100
00000000
00003001
00000100
00000010
00000000
00000110
00000000
,  // measure 33
00000001
00000000
00000001
00000000
00000100
00000000
00000010
00001000
00010000
00000000
00001000
00000000
01000000
00000000
00100000
00000000
,  // measure 34
00000000
00000000
00001000
00010000
01000000
00000000
10000000
00000000
00100000
00000000
00100000
00000000
00010000
00001000
00010000
00001000
,  // measure 35
00000100
00000000
00000100
00000000
00000001
00000000
00000010
00000100
00001000
00000000
00000010
00000000
00000100
00000000
00000010
00000100
,  // measure 36
00001000
00000000
00000000
00010000
00000000
00000000
01000000
00000000
00000000
00100000
00000000
00000000
01100000
00000000
00000000
00000000
00110000
00000000
00000000
00000000
00011000
00000000
00000000
00000000
,  // measure 37
00001010
00000000
00000010
00000000
00000001
00000000
00000010
00000100
00001000
00000000
00010000
00000000
00001000
00000000
00000010
00000000
,  // measure 38
00000000
00000000
00000001
00000100
00000001
00000000
00002000
00000000
00000010
00000000
00000010
00000000
00000010
00000000
00003010
00000000
,  // measure 39
00000100
00000001
00000100
00000001
00001000
00000010
00001000
00000010
00010000
00001000
00010000
00001000
00100000
00010000
00100000
00010000
,  // measure 40
10000000
01000000
00100000
00010000
01000000
00100000
00010000
00001000
01000000
00000000
00000000
00000000
00000000
00000000
00000000
00000000
,  // measure 41
01100000
00000000
00100000
00010000
00002000
00000000
00010000
00000000
,  // measure 42
00010000
00000000
00000000
01000000
00000000
00000000
01000000
00000000
00000000
00023000
00000000
00001000
,  // measure 43
00130000
01000000
10000000
01000000
00010000
00001000
00010000
00000100
00000010
00000100
00001000
00000001
,  // measure 44
00000100
00000000
00000000
00001000
00000000
00000000
00010000
00000000
00000000
00001000
00000000
00000000
00100000
00000000
00000000
00010000
00000000
00000000
00100000
00000000
00000000
00001000
00000000
00000000
00010000
00000000
00000000
00000000
00001000
00000000
00000000
00000000
00000100
00000000
00000000
00000000
00000001
00000000
00000000
00000000
00000010
00000000
00000000
00000000
00000100
00000000
00000000
00000000
,  // measure 45
00010000
00001000
00000100
00001000
00010000
00000100
00001000
00010000
00001000
00000100
00010000
00001000
,  // measure 46
00000100
00000001
00000010
00001000
00010000
01000000
00100000
00001000
00000100
00000010
00001000
00010000
,  // measure 47
00100000
00000000
00100000
00000000
01000000
00000000
00000000
00000000
10000000
00000000
00010000
00000000
00100000
00000000
00010000
00100000
,  // measure 48
01000000
00000000
00010000
00000000
00001000
00000000
01000000
00000000
00100000
10000000
00100000
10000000
00010000
00100000
00001000
00010000
,  // measure 49
00002000
00000000
00010000
00000000
00010000
00000000
00013000
00000100
,  // measure 50
00000210
00010300
00001020
00000031
,  // measure 51
00002000
00000000
00000000
00000100
00000000
00000000
00000100
00000000
00023000
00000000
00000000
01000000
00000000
00000000
01000000
00000000
,  // measure 52
00130000
00000000
00000000
10000000
00000000
00000000
00010000
00000000
00000000
00000000
10000000
00000000
00010000
00000000
01000000
00000000
,  // measure 53
20000000
00000000
00000000
00000000
30100000
00000000
00000000
00000000
01000000
00100000
01000000
00100000
01000000
00100000
01000000
00100000
,  // measure 54
20000000
30000000
00010000
10000000
,  // measure 55
11000000
00110000
00001100
00000011
,  // measure 56
00000101
00001010
01010000
10100000
,  // measure 57
10000000
10000000
00100000
00100000
00001000
00001000
00000010
00000010
,  // measure 58
00000100
00000100
00001000
00001000
01000000
01000000
10000000
10000000
,  // measure 59
00100000
00100000
00001000
00001000
00000010
00000010
00010000
00010000
,  // measure 60
01000000
00000000
01000000
00000000
00001000
00000000
00001000
00000000
00000100
00000000
00000100
00000000
00000001
00001000
00000001
00001000
,  // measure 61
00000020
00000000
00000200
00000330
,  // measure 62
00001002
00000000
00001003
00000000
00000001
00000010
00000100
00001000
00000010
00000000
00000100
00000000
00001001
00000000
00000010
00000000
,  // measure 63
00010100
00001000
01010000
00100000
10010000
01000000
00101000
00010000
,  // measure 64
00001100
00000010
00000100
00001000
00010000
01000000
10000000
01000000
,  // measure 65
00020000
00000000
00000000
00031000
00000000
00000000
00011000
00000000
00001100
00000000
00011000
00000000
,  // measure 66
20010000
00000000
30010000
00000000
10000000
01000000
00100000
00010000
01000000
00000000
00100000
00000000
10010000
00000000
01000000
00000000
,  // measure 67
00101000
00010000
00001010
00000100
00001001
00000010
00010100
00001000
,  // measure 68
00210000
00000000
00000000
00301000
00010000
00001000
00000020
00000000
00000001
00000130
00000000
00001000
,  // measure 69
00000100
00000001
00000010
00001000
00000000
00010000
00000100
00000000
00001100
00000000
00010100
00000000
,  // measure 70
00012000
00103000
00021000
00030010
,  // measure 71
00012000
00000000
00000000
10003000
00000000
00000000
00021000
00000000
00000000
00030001
00000100
00001000
,  // measure 72
00010000
00001000
01000000
00020000
00000000
00000000
00031000
00000010
00010000
00002000
00000000
00000000
,  // measure 73
00013000
01000000
11000000
10100000
,  // measure 74
01020000
00000000
00000000
00000000
00000000
00000000
00000000
00030000
00012000
00000000
00000000
00000000
00000000
00000000
00000000
00003000
00001020
00000000
00000000
00000000
00000000
00000000
00000000
00000030
00000210
00000000
00000000
00000000
00000000
00000000
00000000
00000300
,  // measure 75
00020100
00000000
00000000
00000000
00000000
00000000
00000000
00000000
00000000
00000000
00000000
00000000
00000000
00000000
00000000
00000000
00000000
00000000
00000000
00000000
00000000
00000000
00000000
00000000
00000000
00000000
00000000
00000000
00000000
00000000
00000000
00000000
00000000
00000000
00000000
00000000
00000000
00000000
00000000
00000000
00000000
00000000
00030000
00000000
00000000
00000000
00000000
00000000
00210000
00000000
00000000
00000000
00000000
00000000
00300000
00000000
00000000
00000000
00000000
00000000
00000000
00000000
00000000
00000000
00000000
00000000
00000000
00000000
00000000
00000000
00000000
00000000
00000000
00000000
00000000
00000000
00000000
00000000
00000000
00000000
00000000
00000000
00000000
00000000
00000000
00000000
00000000
00000000
00000000
00000000
00000000
00000000
00000000
00000000
00000000
00000000
01010000
00000000
00000000
00000000
00000000
00000000
00000000
00000000
00000000
00000000
00000000
00000000
00000000
00000000
00000000
00000000
00000000
00000000
00000000
00000000
00000000
00000000
00000000
00000000
00000000
00000000
00000000
00000000
00000000
00000000
00000000
00000000
01100000
00000000
00000000
00000000
00000000
00000000
00000000
00000000
00000000
00000000
00000000
00000000
00000000
00000000
00000000
00000000
00000000
00000000
00000000
00000000
00000000
00000000
00000000
00000000
00000000
00000000
00000000
00000000
00000000
00000000
00000000
00000000
10100000
00000000
00000000
00000000
00000000
00000000
00000000
00000000
00000000
00000000
00000000
00000000
00000000
00000000
00000000
00000000
00000000
00000000
00000000
00000000
00000000
00000000
00000000
00000000
00000000
00000000
00000000
00000000
00000000
00000000
00000000
00000000
,  // measure 76
10020000
00000000
00000000
01030000
00000000
00010000
20000000
00000000
00100000
00000000
00100000
00000000
,  // measure 77
30010000
00000000
00010000
01000000
00000000
01000000
00100000
00001000
00000010
00000001
00000010
00001000
,  // measure 78
00000200
00000010
00000001
00001000
,  // measure 79
00020300
00001000
00100000
10000000
,  // measure 80
00032000
00000000
00000000
00010000
00000000
00000000
00003010
00000000
00000010
00000001
00000000
00000001
,  // measure 81
00000200
00000310
00001010
00001001
,  // measure 82
00000012
00000000
00000000
00000010
00000000
00000000
00000100
00000000
00000000
00000013
00000100
00001000
,  // measure 83
00020000
00000000
00000000
00100000
00000000
00000000
01000000
00000000
00000000
10030000
00100000
00010000
,  // measure 84
00002000
00000000
00000000
00000010
00000000
00000000
00013000
00000100
00000010
00000001
00000100
00001000
,  // measure 85
00020000
00000000
00000000
00031000
00000000
00000000
00000110
00000000
00000010
00000000
00010000
00000000
,  // measure 86
00012000
00103000
00021000
00030010
,  // measure 87
00012000
10003000
00021000
00030001
,  // measure 88
00012000
01003000
00021000
00030100
,  // measure 89
00012000
00000000
00000000
00003000
00000000
00000000
00001000
00010000
00100000
10000000
00010000
01000000
,  // measure 90
01020000
00000000
00000000
00000000
00000000
00000000
00000000
00030000
00012000
00000000
00000000
00000000
00000000
00000000
00000000
00003000
00001020
00000000
00000000
00000000
00000000
00000000
00000000
00000030
00000210
00000000
00000000
00000000
00000000
00000000
00000000
00000300
,  // measure 91
00020100
00000000
00000000
00000000
00000000
00000000
00000000
00000000
00000000
00000000
00000000
00000000
00000000
00000000
00000000
00000000
00000000
00000000
00000000
00000000
00000000
00000000
00000000
00000000
00000000
00000000
00000000
00000000
00000000
00000000
00000000
00000000
00000000
00000000
00000000
00000000
00000000
00000000
00000000
00000000
00000000
00000000
00030000
00000000
00000000
00000000
00000000
00000000
00210000
00000000
00000000
00000000
00000000
00000000
00300000
00000000
00000000
00000000
00000000
00000000
00000000
00000000
00000000
00000000
00000000
00000000
00000000
00000000
00000000
00000000
00000000
00000000
00000000
00000000
00000000
00000000
00000000
00000000
00000000
00000000
00000000
00000000
00000000
00000000
00000000
00000000
00000000
00000000
00000000
00000000
00000000
00000000
00000000
00000000
00000000
00000000
01010000
00000000
00000000
00000000
00000000
00000000
00000000
00000000
00000000
00000000
00000000
00000000
00000000
00000000
00000000
00000000
00000000
00000000
00000000
00000000
00000000
00000000
00000000
00000000
00000000
00000000
00000000
00000000
00000000
00000000
00000000
00000000
01100000
00000000
00000000
00000000
00000000
00000000
00000000
00000000
00000000
00000000
00000000
00000000
00000000
00000000
00000000
00000000
00000000
00000000
00000000
00000000
00000000
00000000
00000000
00000000
00000000
00000000
00000000
00000000
00000000
00000000
00000000
00000000
10100000
00000000
00000000
00000000
00000000
00000000
00000000
00000000
00000000
00000000
00000000
00000000
00000000
00000000
00000000
00000000
00000000
00000000
00000000
00000000
00000000
00000000
00000000
00000000
00000000
00000000
00000000
00000000
00000000
00000000
00000000
00000000
,  // measure 92
10000000
00010000
00100000
00010000
00100000
00001000
00010000
00000100
00001000
00000010
00000001
00001000
00000100
00000001
00000010
00000001
,  // measure 93
00000200
00000000
00000000
00000310
00000000
00000000
00000100
00000100
00000100
00000010
00000010
00000010
,  // measure 94
00001001
00000000
00000000
00001000
00000100
00000010
00000001
00000000
00000000
00000001
00000100
00000010
,  // measure 95
00001000
00000000
00001100
00000000
00011000
00000000
01010000
00000000
00000000
00010000
00100000
01000000
,  // measure 96
10000000
00000000
00000000
10000000
00100000
01000000
00010000
00000000
00110000
00000000
00011000
00000000
,  // measure 97
00001100
00000000
00000000
00001000
00000010
00000100
00000001
00000000
00000000
00000001
00000010
00000100
,  // measure 98
00001000
00000000
00010010
00000000
00011000
00000000
00101000
00000000
00000000
00010000
01000000
00100000
,  // measure 99
10000000
00000000
00000000
10000000
01000000
00100000
00010000
00000000
01001000
00000000
00011000
00000000
,  // measure 100
00002002
00003003
00000000
00000000
,  // measure 101
00000000
00000000
00022000
00033000
,  // measure 102
00000000
00000000
00000000
00000000
,  // measure 103
20020000
30030000
00000000
00000000
,  // measure 104
00000000
00000000
00000000
00000000
00000200
00020300
00032000
00013000
,  // measure 105
00012000
00000000
00000000
00000000
,  // measure 106
00000000
00000000
00000000
00000000
,  // measure 107
00000000
00000000
00000000
00000000
,  // measure 108
00000000
00000000
00000000
00000000
,  // measure 109
00020000
00000000
00000000
00000000
00000000
00000000
00030000
00000000
00000000
00000000
00010000
00010000
,  // measure 110
00003000
00000000
00000000
00000000
;
