#VERSION:0.83;
#TITLE:Grimm;
#SUBTITLE:(Kobaryo's FTИ-Remix);
#ARTIST:RoughSketch feat. あいかぴん;
#TITLETRANSLIT:;
#SUBTITLETRANSLIT:(Kobaryo's FTN-Remix) ;
#ARTISTTRANSLIT:RoughSketch feat. Aikapin;
#GENRE:;
#ORIGIN:;
#CREDIT:;
#BANNER:;
#BACKGROUND:Grimm (Kobaryo's FTN Remix)-bg.png;
#PREVIEWVID:;
#JACKET:Grimm (Kobaryo's FTN Remix)-jacket.jpg;
#CDIMAGE:;
#DISCIMAGE:;
#LYRICSPATH:;
#CDTITLE:;
#MUSIC:Grimm (Kobaryo's FTN-Remix).mp3;
#OFFSET:0.619000;
#SAMPLESTART:148.125046;
#SAMPLELENGTH:15.000000;
#SELECTABLE:YES;
#BPMS:0.000=200.000,
272.000=50.000,
280.000=100.000,
312.000=200.000,
372.000=100.000,
374.000=200.000;
#STOPS:;
#DELAYS:;
#WARPS:;
#TIMESIGNATURES:0.000=4=4;
#TICKCOUNTS:0.000=4;
#COMBOS:0.000=1;
#SPEEDS:0.000=1.000=0.000=0;
#SCROLLS:0.000=1.000;
#FAKES:;
#LABELS:0.000=Song Start;
#BGCHANGES:;
#KEYSOUNDS:;
#ATTACKS:
;

//---------------dance-single - ----------------
#NOTEDATA:;
#CHARTNAME:;
#STEPSTYPE:dance-single;
#DESCRIPTION:;
#CHARTSTYLE:;
#DIFFICULTY:Beginner;
#METER:7;
#RADARVALUES:0.301786,0.381110,0.036188,0.162848,0.000000,467.000000,459.000000,8.000000,36.000000,0.000000,0.000000,0.000000,0.000000,0.000000,0.301786,0.381110,0.036188,0.162848,0.000000,467.000000,459.000000,8.000000,36.000000,0.000000,0.000000,0.000000,0.000000,0.000000;
#CREDIT:;
#NOTES:
0000
0000
0000
0000
,
0020
0000
0000
0000
,
2030
0000
0000
0000
,
3200
0000
0000
0000
,
0320
0000
0230
0000
,
2300
0000
0000
0000
,
3020
0000
0000
0000
,
0230
0000
0000
0000
,
0302
0000
0203
0000
,
0320
0000
0000
0000
,
2030
0000
0000
0000
,
3200
0000
0000
0000
,
0320
0000
0230
0000
,
2300
0000
0000
0000
,
3002
0000
0000
0000
,
0203
0000
0000
0000
,
0320
0000
0230
0000
,
0302
0000
0000
0000
,
0000
0000
0000
0000
,
0000
0000
0000
0000
,
2003
0000
0000
0000
,
0000
0000
0000
0000
,
0000
0000
0000
0000
,
3010
0100
0010
0000
,
1000
0001
1000
0100
,
1000
0001
0100
0010
,
1000
0001
1000
0100
,
0010
0001
0100
0010
,
1000
0001
1000
0100
,
0010
0001
1000
0010
,
0100
0001
0100
0010
,
1000
0001
1000
0000
,
0010
1000
0100
1000
,
0010
0100
0001
0010
,
0100
1000
0100
0010
,
0001
1000
0100
0010
,
0001
1000
0001
0100
,
0010
1000
0100
1000
,
0001
0010
0001
0010
,
0100
1000
0001
0002
,
0103
0000
0100
0000
,
0010
0000
1000
1000
,
0001
0000
0001
0000
,
1000
0000
0010
0010
,
0100
0000
0100
0000
,
0001
0000
1000
1000
,
0100
0000
0001
0000
,
0100
0100
0010
0000
,
1000
0010
1000
0010
,
0100
0100
0001
0010
,
0100
1000
0100
1000
,
0010
0010
1000
0001
,
0010
0001
0100
0001
,
1000
1000
0010
0100
,
0001
1000
0001
1000
,
0100
0010
0001
0002
,
1003
0000
0000
0000
0001
0000
0000
0001
,
0000
0000
0001
0000
0000
0001
0000
0000
,
0100
0000
0000
0000
1000
0000
0000
1000
,
0000
0000
1000
0000
0000
1000
0000
0000
,
0001
0000
0000
0000
0010
0000
0000
0010
,
0000
0000
0010
0000
0000
0010
0000
0000
,
1000
0000
0100
0000
,
0101
0000
1010
0000
,
2002
0000
0000
0000
,
0000
0000
0000
0000
,
0000
0000
0000
0000
,
0000
0000
0000
0000
,
3003
0000
0000
0000
,
0000
0000
0000
0000
,
1000
0000
1000
0000
,
0010
0000
0010
0000
,
0001
0000
0001
0000
,
0100
0000
0100
0000
,
0010
0000
1000
0000
,
0100
0000
0010
0000
,
0001
0000
1000
0000
,
0001
0000
0100
0000
,
0010
0000
0010
0000
,
1000
0000
0001
0000
,
1000
0000
0100
0000
,
0001
0000
0010
0000
,
0100
0000
1000
0000
,
0001
0000
0100
0000
,
0010
0000
1000
0000
,
0001
0000
0010
0000
,
0100
0000
1000
0000
,
0001
0000
1000
0000
,
0010
0000
0100
0000
,
0001
0000
1000
0000
,
0001
0000
0010
0000
,
0100
0000
0010
0000
,
0002
0000
2003
0000
,
3200
0000
0300
0000
1000
0000
0000
1000
,
0000
0000
0000
0000
0010
0000
0000
0010
,
0000
0000
0000
0000
0100
0000
0000
0100
,
0000
0000
0000
0000
0001
0000
0000
1000
,
0000
0000
0000
0000
0010
0000
0000
0010
,
0000
0000
0000
0000
1000
0000
0000
1000
,
0000
0000
0000
0000
0100
0000
0000
0100
,
0000
0000
0000
0000
0001
0000
0000
1000
,
0000
0000
1001
0000
,
0010
0000
1001
0000
,
0010
0000
1001
0000
,
0110
0000
0001
1000
,
0001
0000
1000
0100
,
1000
0100
0010
0001
,
1000
0010
0100
0001
,
0010
0100
2000
0000
,
3001
0000
0001
0100
,
0001
0010
0100
1000
,
0100
0010
0001
1000
,
0001
0100
0010
1000
,
0100
0010
0001
1000
,
0001
0010
0100
1000
,
0100
0010
0001
1000
,
0010
0100
0001
0001
,
0001
0000
1000
0100
,
1000
0100
0010
0001
,
1000
0010
0100
0001
,
1000
0001
0010
0100
,
1000
0001
0100
0010
,
0100
0001
1000
0100
,
1000
0010
0100
0001
,
0010
0100
1000
0001
,
2000
3000
0001
0001
,
0100
0000
0010
0000
,
0010
0000
1000
1000
,
0100
0001
0010
0010
,
0001
0000
1000
0000
,
1000
0001
0001
0000
,
0100
0010
1000
0100
,
0010
0001
2000
0000
,
3002
0003
0001
0100
,
0001
1000
0010
0100
,
0001
0010
0100
1000
,
0001
0100
0010
1000
,
0001
0010
0100
1000
,
0001
1000
0100
0010
,
0001
1000
0010
0100
,
0010
1000
0001
0010
,
0100
0000
1000
0001
,
1000
0010
0100
0001
,
0100
0010
1000
0001
,
0010
0100
1000
0001
,
0010
0001
1000
0001
,
1000
0100
0010
0001
,
0100
0010
1000
0001
,
0010
0001
1000
0100
,
0020
0030
0001
0001
,
1000
1000
0100
0100
,
0010
0001
1000
1000
,
0100
0100
0001
0100
,
0001
1000
0010
0010
,
1000
1000
0001
0010
,
0001
1000
0100
0100
,
1000
1000
0010
0100
,
0001
1000
0100
0010
,
0100
0010
0001
0100
,
0001
0100
0010
1000
,
0010
1000
0100
0010
,
0001
1000
0001
0100
,
0001
1000
0100
0010
,
0100
1000
0010
0100
,
0010
1000
0001
0010
,
0100
1000
2002
0000
,
0000
0000
0000
0000
,
0003
0000
0000
0000
,
0000
0000
3000
0000
;

//---------------dance-single - ----------------
#NOTEDATA:;
#CHARTNAME:;
#STEPSTYPE:dance-single;
#DESCRIPTION:;
#CHARTSTYLE:;
#DIFFICULTY:Medium;
#METER:14;
#RADARVALUES:0.617142,0.800330,0.180942,0.171895,0.210345,955.000000,915.000000,40.000000,38.000000,0.000000,0.000000,0.000000,0.000000,0.000000,0.617142,0.800330,0.180942,0.171895,0.210345,955.000000,915.000000,40.000000,38.000000,0.000000,0.000000,0.000000,0.000000,0.000000;
#CREDIT:;
#NOTES:
// measure 0
0000
0000
0000
0000
,  // measure 1
0020
0000
0000
0000
,  // measure 2
2030
0000
0000
0000
,  // measure 3
3200
0000
0000
0000
,  // measure 4
0320
0000
0032
0000
,  // measure 5
2003
0000
0000
0000
,  // measure 6
3020
0000
0000
0000
,  // measure 7
0230
0000
0000
0000
,  // measure 8
0302
0000
2003
0000
,  // measure 9
3200
0000
0000
0000
,  // measure 10
0320
0000
0000
0000
,  // measure 11
0032
0000
0000
0000
,  // measure 12
0023
0000
0230
0000
,  // measure 13
2300
0000
0000
0000
,  // measure 14
3002
0000
0000
0000
,  // measure 15
0203
0000
0000
0000
,  // measure 16
0320
0000
2030
0000
,  // measure 17
0002
0000
0000
0000
,  // measure 18
0000
0000
0000
0000
,  // measure 19
0000
0000
0000
0000
,  // measure 20
3000
0000
0000
0000
,  // measure 21
0000
0000
0000
0000
,  // measure 22
0000
0000
0000
0000
,  // measure 23
0103
0010
1000
0001
0100
0010
1000
0000
,  // measure 24
0100
0010
0100
0010
0001
1000
0001
1000
,  // measure 25
0010
0100
0010
0100
0001
0010
0100
1000
,  // measure 26
0010
0100
0010
0100
0001
1000
0001
1000
,  // measure 27
0100
0010
0100
0010
0001
0010
0100
1000
,  // measure 28
0010
0100
0010
0100
0001
0100
0001
0100
,  // measure 29
0010
1000
0100
0010
0001
0100
0010
1000
,  // measure 30
0001
0010
0001
0010
0100
0010
0100
0010
,  // measure 31
0001
1000
0001
0100
0010
1000
0010
0000
,  // measure 32
0100
0001
0100
0001
0010
0001
0010
0001
,  // measure 33
1000
0100
1000
0100
1000
0010
0100
0001
,  // measure 34
1000
0100
1000
0100
0010
0001
0010
0001
,  // measure 35
0100
0010
0100
0010
1000
0001
0100
0001
,  // measure 36
0010
0100
0010
0100
1000
0001
1000
0001
,  // measure 37
0100
0010
0100
0010
0100
0001
0010
0001
,  // measure 38
1000
0001
1000
0001
0010
0001
0010
0001
,  // measure 39
0010
0100
1000
0010
0100
0001
1000
0000
,  // measure 40
0100
0000
1000
0000
0100
0010
0000
0000
,  // measure 41
0100
0000
0000
0000
0001
0100
0001
0000
,  // measure 42
1000
0000
0010
0000
0100
0001
0000
0000
,  // measure 43
0100
0000
1000
0000
0010
0010
0100
0000
,  // measure 44
0001
0000
1000
0000
0010
0100
0000
0000
,  // measure 45
0001
0100
1000
0001
,  // measure 46
0010
0000
0100
0000
1000
0001
0000
0001
,  // measure 47
0100
0010
0100
0010
0100
0001
0100
0000
,  // measure 48
0010
1000
0010
1000
0100
0010
0001
1000
,  // measure 49
0010
0100
0000
0000
0010
0100
0000
0000
0001
0000
0010
0000
0100
0000
1000
0000
,  // measure 50
0001
0010
0001
0100
0010
1000
0100
0010
,  // measure 51
0001
1000
0000
0000
0001
1000
0000
0000
0001
0000
1000
0000
0001
0000
0000
0000
,  // measure 52
0010
0100
0010
0100
1000
0010
0100
0001
,  // measure 53
0010
0001
0000
0000
0100
0001
0000
0000
1000
0000
0010
0000
0100
0000
0001
0000
,  // measure 54
1000
0001
0100
0010
1000
0100
0010
0001
,  // measure 55
0001
0010
0100
1000
0010
0100
0001
0000
,  // measure 56
1000
0100
0010
0000
0001
0100
0000
0001
,  // measure 57
0100
0000
0010
0100
0000
0001
0100
0000
,  // measure 58
0010
1000
0100
0000
0010
0100
0000
1000
,  // measure 59
0100
0000
0010
0100
0000
1000
2001
0000
,  // measure 60
3001
0100
0010
0000
1000
0001
0000
1000
,  // measure 61
0100
0000
1000
0001
0000
0001
0100
0000
,  // measure 62
0010
1000
0100
0000
0010
0001
0000
0100
,  // measure 63
0010
0000
1000
0000
0010
0000
0100
0000
0001
0000
0010
0000
,  // measure 64
2002
0000
0000
0000
,  // measure 65
0000
0000
0000
0000
,  // measure 66
0000
0000
0000
0000
,  // measure 67
0000
0000
0000
0000
,  // measure 68
3003
0000
0000
0001
0000
0000
0001
0000
0000
0000
0000
0100
0000
0000
0100
0000
0000
0000
0000
0010
0000
0000
0010
0000
0000
0000
0000
1000
0000
0000
0000
0000
,  // measure 69
0000
0000
0000
0001
0000
0000
0001
0000
0000
0000
0000
0100
0000
0000
0100
0000
0000
0000
0000
0010
0000
0000
0010
0000
1000
0000
0000
0010
0000
0000
1000
0000
,  // measure 70
0001
0000
0000
0100
0000
0000
0001
0000
1000
0000
0000
0100
0000
0000
0001
0000
,  // measure 71
0010
0000
0000
0001
0000
0000
1000
0000
0100
0000
0000
0100
0000
0000
0000
0000
,  // measure 72
1000
0000
0000
0010
0000
0000
0100
0000
0001
0000
0000
0001
0000
0000
1000
0000
,  // measure 73
0010
0000
0000
0100
0000
0000
0001
0000
0010
0000
0000
0110
0000
0000
0000
0000
,  // measure 74
1000
0000
0000
0001
0000
0000
1000
0000
0100
0000
0000
1000
0000
0000
0000
0000
,  // measure 75
0010
0000
0000
0010
0000
0000
0100
0000
1001
0000
0000
0000
0010
0000
0000
0000
,  // measure 76
1000
0000
0000
0100
0000
0000
1000
0000
0001
0000
0000
0001
0000
0000
0000
0000
,  // measure 77
0010
0000
0000
0001
0000
0000
0010
0000
0100
0000
0000
0000
1000
0000
0000
0000
,  // measure 78
1001
0000
0000
0010
0000
0000
0100
0000
,  // measure 79
1001
0000
0000
0100
0000
0000
0010
0000
,  // measure 80
1001
0000
0000
0010
0000
0000
0100
0000
,  // measure 81
0011
0000
0000
1100
0000
0000
0001
0000
,  // measure 82
0110
0000
0000
1000
0000
0000
0010
0000
,  // measure 83
0101
0000
0000
0010
0000
0000
0001
0000
,  // measure 84
1001
0000
0000
0100
0000
0000
0010
0000
,  // measure 85
1001
0000
0000
0110
0000
0000
1000
0000
,  // measure 86
0110
0000
0000
0101
0000
0000
0001
1000
,  // measure 87
0100
0000
0000
1001
0000
0000
0010
0000
,  // measure 88
1100
0000
0000
0010
0000
0000
0100
0000
,  // measure 89
1001
0000
0010
0000
,  // measure 90
0101
0000
0000
0010
0000
0000
0100
1000
,  // measure 91
0010
0000
0000
1001
0000
0000
0000
0000
,  // measure 92
0100
0000
0000
0100
0000
0000
0010
0000
,  // measure 93
1001
0000
0000
0000
0000
0000
0001
1000
0100
0000
0000
1000
0000
0000
0100
0000
,  // measure 94
0000
0010
0000
0000
0001
0000
0100
0000
0010
0000
0000
1000
0000
0000
0001
0000
,  // measure 95
0000
0100
0000
0000
0010
0000
1000
0000
0100
0000
0000
0010
0000
0000
0001
0000
,  // measure 96
0000
1000
0000
0000
0100
0000
0010
0000
0001
0000
0000
0100
0000
0000
0010
0000
,  // measure 97
0000
1000
0000
0000
0001
0000
0100
0000
0010
0000
0000
1000
0000
0000
0100
0000
,  // measure 98
0000
0010
0000
0000
0001
0000
0100
0000
0010
0000
0000
1000
0000
0000
0001
0000
,  // measure 99
0000
0010
0000
0000
0001
0000
1000
0000
0100
0000
0000
1000
0000
0000
0010
0000
,  // measure 100
0000
0100
0000
0000
0010
0000
1000
0000
0100
0000
0000
0100
0000
0000
0010
0000
,  // measure 101
0020
0000
0000
0000
0031
0000
1000
0000
0200
0000
0300
0010
0000
0000
0001
0000
,  // measure 102
0000
0100
0000
0000
0001
0000
1000
0000
0020
0000
0030
0100
0000
0000
0001
0000
,  // measure 103
0000
1000
0000
0000
0001
0000
0010
0000
0200
0000
0300
1000
0000
0000
0100
0000
,  // measure 104
0020
0030
0001
0100
1010
0000
0101
0000
,  // measure 105
1010
0001
1100
1100
,  // measure 106
0011
0000
0011
0000
0100
0001
1000
0001
,  // measure 107
0100
0010
1000
0100
0010
0001
0010
0100
,  // measure 108
1000
0001
0100
0010
1000
0010
0100
0001
0100
0000
0000
0001
0000
0000
0010
0000
,  // measure 109
0100
0000
1000
0000
0001
0100
0010
1000
,  // measure 110
0001
0010
0100
1000
0010
0100
0001
1000
,  // measure 111
0100
0010
0001
0100
0010
1000
0010
0100
,  // measure 112
0001
0010
0001
0010
0100
1000
0010
0100
,  // measure 113
0001
1000
0100
0000
0010
0000
0001
0000
0100
0000
0010
0000
1000
0000
0100
0000
,  // measure 114
1000
0010
0100
0001
0010
0001
0100
0010
,  // measure 115
1000
0100
0010
0001
1000
0010
0100
0001
,  // measure 116
1000
0000
0010
0000
0100
0000
0001
0000
0010
0000
0000
0100
0000
0000
1000
0000
,  // measure 117
0010
0100
0001
0100
0010
0000
0000
0000
0001
0000
0010
0000
0100
0000
0010
0000
,  // measure 118
0001
1000
0010
0100
0001
1000
0100
0010
,  // measure 119
0001
0100
0010
1000
0001
0010
0001
0010
,  // measure 120
0100
0000
1000
0000
0010
0000
0100
0000
0001
0000
0010
0001
0100
0001
0010
0000
,  // measure 121
0100
1000
0010
1000
0001
0010
0001
0100
,  // measure 122
0010
1000
0001
0010
0100
1000
0100
0010
,  // measure 123
0001
0100
0010
1000
0001
0010
0100
1000
,  // measure 124
0010
0000
0100
0000
0001
0000
1000
0000
0100
0000
0000
0010
0000
0000
0001
0000
,  // measure 125
0100
0010
0100
0010
1000
0000
0000
0000
0001
0000
0000
0000
0001
0000
0000
0000
,  // measure 126
0010
0000
0010
0100
1000
0000
1000
0100
,  // measure 127
0010
0000
0001
0100
0010
0000
0010
0100
,  // measure 128
0001
0010
0100
1000
0001
0000
0100
0001
,  // measure 129
1000
0000
0100
1000
0001
0000
0010
0000
,  // measure 130
0001
0000
0010
0100
1000
0000
0100
1000
,  // measure 131
0010
0000
0100
0001
0010
0000
0001
0000
,  // measure 132
1000
0100
0010
0001
0200
0000
0000
0000
,  // measure 133
0320
0000
0130
0000
0001
1000
0001
1000
,  // measure 134
0100
0010
0001
0100
0010
1000
0010
1000
,  // measure 135
0100
0010
0001
0100
0010
0100
0010
0100
,  // measure 136
0001
0010
0100
1000
0010
0100
0001
1000
,  // measure 137
0100
1000
0100
0000
0010
0000
0001
0000
0100
0000
0010
0000
1000
0000
0010
0000
,  // measure 138
0100
0001
0010
0100
1000
0001
0010
0001
,  // measure 139
0010
0100
1000
0010
0100
0001
0100
0001
,  // measure 140
0010
0000
0100
0000
1000
0000
0010
0000
0100
0000
0000
0001
0000
0000
1000
0000
,  // measure 141
0010
0100
0001
1000
0010
0000
0000
0000
0001
0000
1000
0000
0001
0000
1000
0000
,  // measure 142
0100
0010
0001
0100
0010
1000
0010
0100
,  // measure 143
0001
0010
0100
1000
0010
0100
0010
0100
,  // measure 144
0001
0010
0001
0010
0100
1000
0010
0100
,  // measure 145
0001
1000
0001
0000
0010
0000
0100
0000
1000
0000
0100
0010
0000
0100
1000
0000
,  // measure 146
0100
0010
0000
0000
0001
0000
0100
0000
0010
0000
1000
0001
0000
0010
0001
0000
,  // measure 147
0010
0100
0000
0000
1000
0000
0010
0000
0100
0000
0001
1000
0000
0010
0100
0000
,  // measure 148
0001
1000
0000
0000
0010
0000
0100
0000
0002
0000
0000
0023
0000
0000
0230
0000
,  // measure 149
2300
0000
3001
0000
0001
0100
0010
0100
,  // measure 150
0001
1000
0100
0010
0001
1000
0001
1000
,  // measure 151
0010
0100
0001
0010
0100
1000
0100
1000
,  // measure 152
0010
0100
0001
0100
0010
1000
0100
0010
,  // measure 153
0001
0100
0001
0100
0010
1000
0100
0010
,  // measure 154
0100
1000
0010
0100
0001
1000
0100
0010
,  // measure 155
0001
0100
0010
0100
0001
0010
0100
1000
,  // measure 156
0001
0100
0010
1000
0001
0010
0001
0010
,  // measure 157
0100
1000
0100
0000
0011
0000
1001
0000
,  // measure 158
1100
1001
0101
0011
,  // measure 159
1000
0000
0100
0000
0010
0001
0000
0001
1000
0000
0000
0000
1001
0000
0000
0000
,  // measure 160
0110
0000
0101
0000
0011
0000
1000
0100
,  // measure 161
1000
0010
0100
0001
0200
0000
0000
0000
0301
0000
0000
0000
0100
0000
0000
0000
,  // measure 162
1000
0010
0100
0001
,  // measure 163
0100
0010
1000
0100
,  // measure 164
0010
0000
0001
0000
1000
0010
0100
0001
,  // measure 165
1000
0010
0100
0000
2002
0000
0000
0000
,  // measure 166
0000
0000
0000
0000
,  // measure 167
0003
0000
0000
0000
,  // measure 168
0000
0000
3000
0000
;

//---------------dance-single - ----------------
#NOTEDATA:;
#CHARTNAME:;
#STEPSTYPE:dance-single;
#DESCRIPTION:;
#CHARTSTYLE:;
#DIFFICULTY:Challenge;
#METER:19;
#RADARVALUES:1.066267,1.410106,1.994888,0.289508,0.567706,1650.000000,1209.000000,441.000000,64.000000,0.000000,0.000000,0.000000,0.000000,0.000000,1.066267,1.410106,1.994888,0.289508,0.567706,1650.000000,1209.000000,441.000000,64.000000,0.000000,0.000000,0.000000,0.000000,0.000000;
#CREDIT:;
#NOTES:
// measure 0
0000
0000
0000
0000
,  // measure 1
0001
0010
0200
0000
0000
0000
0000
0000
,  // measure 2
1300
0010
0200
0000
0000
0000
0000
0000
,  // measure 3
0301
0010
0200
0000
0000
0000
0000
0000
,  // measure 4
1300
0001
0200
0000
0301
1000
0020
0000
,  // measure 5
0130
0001
0020
0000
0000
0000
0000
0000
,  // measure 6
0031
1000
0200
0000
0000
0000
0000
0000
,  // measure 7
1300
0100
0020
0000
0000
0000
0000
0000
,  // measure 8
0031
0100
2000
0000
3100
0001
2000
0000
,  // measure 9
3001
0010
0200
0000
0000
0000
0000
0000
,  // measure 10
1300
0001
0200
0000
0000
0000
0000
0000
,  // measure 11
0301
0010
0200
0000
0000
0000
0000
0000
,  // measure 12
1300
0010
0200
0000
0301
1000
0020
0000
,  // measure 13
0130
0001
0020
0000
0000
0000
0000
0000
,  // measure 14
0130
1000
0020
0000
0000
0000
0000
0000
,  // measure 15
1030
0001
0200
0000
0000
0000
0000
0000
,  // measure 16
0301
0010
0002
0000
1003
0100
2000
0000
,  // measure 17
3020
0000
0000
0000
,  // measure 18
0000
0000
0000
0000
,  // measure 19
0000
0000
0000
0000
,  // measure 20
0200
0000
0000
0000
,  // measure 21
0000
0000
0000
0000
,  // measure 22
0000
0000
0000
0030
,  // measure 23
0301
0000
0000
1000
0000
0000
0100
0000
0000
1000
0000
0000
0001
0000
0010
0000
0001
0000
1000
0000
0010
0000
0100
0000
0010
0000
0000
1000
0000
0000
0010
0000
0000
0100
0000
0000
0001
0000
0000
0000
0000
0000
0000
0000
0000
0000
0000
0000
,  // measure 24
1100
0101
1001
1010
0110
0011
1100
1001
,  // measure 25
0110
0000
0000
0000
0000
0000
0101
0000
0000
0000
0000
0000
0011
0000
0000
0000
0000
0000
1100
0000
0000
0000
0000
0000
1001
0000
0000
0000
0000
0000
0010
0000
1000
0000
0001
0000
0100
0000
0000
0000
0000
0000
0010
0000
0000
0100
0000
0000
,  // measure 26
0001
1100
0011
0110
1001
1100
0101
1010
,  // measure 27
0011
0000
1100
0000
1001
0000
0110
0000
0001
1000
0010
0100
0010
0000
1000
0000
,  // measure 28
0101
0011
1001
1100
0110
1001
0011
1010
,  // measure 29
1100
0000
0000
0000
0000
0000
0101
0000
0000
0000
0000
0000
1001
0000
0000
0000
0000
0000
0011
0000
0000
0000
0000
0000
1100
0000
0000
0000
0000
0000
1000
0000
0001
0000
0100
0000
0001
0000
0000
0000
0000
0000
1000
0000
0000
0001
0000
0000
,  // measure 30
0100
1010
0101
0011
1010
1100
1001
0011
,  // measure 31
0100
0000
0000
0001
0000
0000
1000
0000
0000
0100
0000
0000
1000
0000
0000
0001
0000
0000
0010
0000
0000
0001
0000
0000
0010
0000
0100
0000
0010
0000
0100
0000
0000
1000
0000
0000
0001
0000
0000
0000
0000
0000
0000
0000
0000
0000
0000
0000
,  // measure 32
1100
1001
0101
0011
1001
0110
1100
1001
,  // measure 33
0011
0000
0000
0000
0000
0000
0110
0000
0000
0000
0000
0000
1100
0000
0000
0000
0000
0000
1001
0000
0000
0000
0000
0000
0011
0000
0000
0000
0000
0000
1000
0000
0100
0000
0010
0000
0001
0000
0000
0000
0000
0000
1000
0000
0000
0010
0000
0000
,  // measure 34
0100
0011
1100
1001
0101
0011
1010
1100
,  // measure 35
1001
0000
0011
0000
0101
0000
1010
0000
0100
0001
1000
0100
1000
0000
0010
0000
,  // measure 36
0101
0011
1100
1001
0011
0101
1010
0110
,  // measure 37
0101
0000
0000
0000
0000
0000
1001
0000
0000
0000
0000
0000
0011
0000
0000
0000
0000
0000
1100
0000
0000
0000
0000
0000
1001
0000
0000
0000
0000
0000
0001
0000
0010
0000
0001
0000
1000
0000
0000
0000
0000
0000
0010
0000
0000
0100
0000
0000
,  // measure 38
0001
1010
0101
1001
0011
1100
0101
1010
,  // measure 39
1002
0000
0103
0000
0201
0000
0310
0000
2020
3030
2020
3030
0202
0303
0000
0000
,  // measure 40
1100
1000
0010
0100
0001
0020
0000
0031
,  // measure 41
0002
1000
0000
1003
0010
0200
0000
0310
,  // measure 42
0010
1000
0001
0010
0001
0020
0000
0031
,  // measure 43
2000
0100
0000
3100
0022
0033
2200
3300
,  // measure 44
0001
0100
0001
0001
1000
0200
0000
1300
,  // measure 45
0002
0100
0000
1003
0010
0200
0000
1300
,  // measure 46
0010
0001
0100
0010
0001
2000
0000
3001
,  // measure 47
0100
0100
0010
0010
1000
1000
0100
0000
,  // measure 48
1010
0101
0011
1001
0110
0011
1100
1001
,  // measure 49
1000
0100
0010
0000
1000
0100
0010
0000
0101
0000
0011
0000
1001
0000
1100
0000
,  // measure 50
0110
0101
1001
1010
0101
0011
1001
1100
,  // measure 51
0001
0000
0000
0100
0000
0000
0010
0000
0000
0000
0000
0000
0001
0000
0000
0100
0000
0000
0010
0000
0000
0000
0000
0000
1000
0000
0100
0000
0010
0000
0001
0000
0000
1000
0000
0000
0001
0000
0000
0100
0000
0000
0010
0000
0000
1000
0000
0000
,  // measure 52
0100
1100
1010
0101
0011
1100
1001
0110
,  // measure 53
1000
0001
0100
0000
1000
0001
0100
0000
1010
0000
1001
0000
0011
0000
1100
0000
,  // measure 54
1001
0101
0110
1001
1010
0101
1001
0011
,  // measure 55
1000
0000
0000
0001
0000
0000
1000
0000
0000
0001
0000
0000
0100
0000
0000
0001
0000
0000
0100
0000
0000
0010
0000
0000
1000
0000
0100
0000
0010
0000
0001
0000
0010
0000
0100
0000
1000
0000
0000
0000
0000
0000
0000
0000
0000
0000
0000
0000
,  // measure 56
1100
0000
1000
0100
0010
0000
0000
0000
0001
1000
0100
0000
0000
0000
0001
1000
,  // measure 57
0100
0000
0000
0000
0001
1000
0010
0000
0000
0000
0001
1000
0100
0000
0000
0000
,  // measure 58
1000
1000
0010
0000
0100
0000
0000
0000
0001
0100
0010
0000
0000
0000
0001
0100
,  // measure 59
0010
0000
0000
0000
0001
0100
1000
0000
0000
0000
0001
0100
0020
0000
0000
0000
,  // measure 60
1030
0000
0110
0000
0100
0000
0000
0000
0010
1000
0001
0000
0000
0000
0010
1000
,  // measure 61
0001
0000
0000
0000
0010
1000
0100
0000
0000
0000
0010
1000
0001
0000
0000
0000
,  // measure 62
1000
1000
0100
0000
0010
0000
0000
0000
0001
0100
0010
0000
0000
0000
0001
1000
,  // measure 63
0110
0000
0011
0000
1001
0000
1100
0000
0011
0000
0101
0000
,  // measure 64
2020
0000
0000
0000
,  // measure 65
0000
0000
0000
0000
,  // measure 66
0000
0000
0000
0000
,  // measure 67
0000
0000
0000
0000
0000
0000
0000
0030
,  // measure 68
3001
0000
0000
0100
0000
0000
0100
0000
0010
0000
0000
1000
0000
0000
1000
0000
0100
0000
0000
0010
0000
0000
0010
0000
0100
0000
0000
1001
0000
0000
0000
0000
,  // measure 69
1000
0000
0000
0100
0000
0000
0100
0000
0001
0000
0000
0100
0000
0000
0100
0000
0010
0000
0000
1000
0000
0000
1000
0100
0010
0000
0000
0001
0000
0000
0100
0000
,  // measure 70
1001
0000
0000
1000
0000
0000
0001
1000
0100
0000
0000
0010
0000
0000
0100
0000
,  // measure 71
1000
0000
0000
0001
0000
0000
0100
0010
0100
0000
0000
1001
0000
0000
0000
0000
,  // measure 72
0001
0000
0000
0010
0000
0000
0001
0010
0100
0000
0000
1000
0000
0000
0001
0000
,  // measure 73
0100
0000
0000
0010
0000
0000
1000
0010
0100
0000
0000
1001
0000
0000
0000
0000
,  // measure 74
0011
0000
0000
1000
0000
0000
0010
0100
0001
0000
0000
1010
0000
0000
0000
0000
,  // measure 75
1100
0000
0000
0110
0000
0000
0011
0000
1001
0000
0100
0001
0100
1000
0100
0010
,  // measure 76
1001
0000
0000
0011
0000
0000
1000
0100
0010
0000
0000
0101
0000
0000
0010
0000
,  // measure 77
1100
0000
0000
0101
0000
0000
1001
0000
0011
0000
0100
1000
0010
1000
0010
0100
,  // measure 78
1001
0000
1000
0100
0011
0000
1000
0000
,  // measure 79
0110
0000
0001
0010
1100
0000
0001
0000
,  // measure 80
0110
0000
1000
0001
0101
0000
0010
0000
,  // measure 81
1100
0000
0010
0100
1001
0000
0100
0000
,  // measure 82
0011
0000
1000
0010
0101
0000
1000
0000
,  // measure 83
0110
0000
0001
0010
1100
0000
0001
0000
,  // measure 84
1001
0000
0010
0100
1001
0000
0010
0000
,  // measure 85
0101
0000
0010
0100
1100
0000
0010
0000
,  // measure 86
1001
0000
0010
0100
1001
0000
0010
0000
,  // measure 87
1100
0000
0010
0001
0110
0000
0001
0000
,  // measure 88
1100
0000
1000
0001
0110
0000
0010
0000
,  // measure 89
0101
0000
1000
0100
0011
0000
1000
0000
,  // measure 90
0101
0000
0010
1000
0110
0000
0001
0000
,  // measure 91
1010
0000
1000
0001
0110
0000
1000
0000
,  // measure 92
0012
0000
0000
0203
0000
0000
0320
0000
,  // measure 93
1030
0000
0000
0000
0000
0000
0010
1000
1100
0000
0010
0001
0000
0100
0010
0000
,  // measure 94
0100
0001
0000
0000
1000
0000
0100
0000
0010
0000
0001
0100
0000
0010
0100
0000
,  // measure 95
1000
0100
0000
0000
0001
0000
0010
0000
0100
0000
1000
0001
0000
0100
0010
0000
,  // measure 96
1000
0100
0000
0000
0010
0000
0001
0000
1000
0000
0010
0100
0000
0001
1000
0000
,  // measure 97
0100
1000
0000
0000
0010
0000
0100
0000
0010
0000
1000
0001
0000
0100
0010
0000
,  // measure 98
0100
1000
0000
0000
0010
0000
1000
0000
0100
0000
0001
0010
0000
0100
1000
0000
,  // measure 99
0001
1000
0000
0000
0100
0000
0010
0000
1000
0000
0001
0010
0000
0100
1000
0000
,  // measure 100
0100
0010
0000
0000
0001
0000
0100
0000
0010
0000
0000
0010
0000
0000
0010
0000
,  // measure 101
0200
0000
0000
0000
0310
0000
0100
0000
1001
0000
0000
0010
0000
0000
0100
0000
,  // measure 102
0000
0010
0000
0000
1000
0000
0100
0000
0011
0000
0000
0100
0000
0000
0010
0000
,  // measure 103
0000
0100
0000
0000
0001
0000
0010
0000
1100
0000
0000
0001
0000
0000
0100
0000
,  // measure 104
0110
0000
0000
0001
0000
0000
1000
0000
0110
0000
0000
0000
1001
0000
0000
0000
,  // measure 105
0110
0000
0001
1000
0110
0000
1001
0000
,  // measure 106
0011
0000
1100
0000
0101
0110
1001
1100
,  // measure 107
0101
0000
1001
0000
0011
0000
1100
0000
0001
0010
0001
1000
0100
1000
0001
0100
,  // measure 108
0010
0000
1000
0000
0001
0000
0100
0000
0010
0000
0100
0000
0001
0000
0100
0000
0001
0000
1000
0000
0010
0000
0100
0000
0002
0000
0000
0000
0000
0000
0000
0000
0000
0023
0000
0000
0000
0000
0000
0000
0000
0000
0230
0000
0000
0000
0000
0000
,  // measure 109
2300
0000
3001
0000
1010
1100
0101
0011
,  // measure 110
1100
0101
0110
0011
1001
0110
1010
0011
,  // measure 111
1100
0101
1010
0101
1010
0011
0110
1001
,  // measure 112
0110
0011
1100
1001
0110
1010
0101
0011
,  // measure 113
0001
0010
0100
1000
0100
0000
1000
0100
0010
0000
1001
0000
0011
0000
1010
0000
,  // measure 114
0101
1100
1001
0101
0011
0110
1100
1001
,  // measure 115
0110
0011
1001
1100
0110
0101
1001
0011
,  // measure 116
0110
0000
1010
0000
1100
0000
1001
0000
0102
0000
0000
0023
0000
0000
0230
0000
,  // measure 117
1300
0010
0100
0001
1000
0000
0001
0000
1010
0000
1100
0000
0101
0000
0011
0000
,  // measure 118
1001
1100
1001
0110
0011
0101
1010
1100
,  // measure 119
0101
1010
1001
0110
1001
0011
1001
1100
,  // measure 120
0110
0000
0101
0000
1001
0000
1100
0000
0011
0000
1000
0001
0010
0001
0100
0000
,  // measure 121
0001
0000
0000
0010
0000
0000
0100
0000
1000
0000
0100
0000
1000
0000
0000
0001
0000
0000
0100
0000
0010
0000
0100
0000
0010
0000
0000
0000
0000
0000
1001
0000
0000
0000
0000
0000
0110
0000
0000
0000
0000
0000
0101
0000
0000
0000
0000
0000
,  // measure 122
1010
1100
0011
1001
0101
0110
1001
1100
,  // measure 123
0101
0000
1001
0000
0011
0000
0110
0000
1100
0000
0001
1000
0100
0000
1000
0010
,  // measure 124
0100
0000
0001
0010
0001
0000
0100
0010
1000
0000
0001
1000
0000
0000
0010
0000
,  // measure 125
1000
0001
1000
0001
0100
0000
0000
0000
0010
0000
0000
0000
0010
0000
0000
0000
,  // measure 126
1000
0000
1000
0100
0010
0000
0001
0100
,  // measure 127
0010
0000
1000
0100
0010
0000
0001
0000
,  // measure 128
1000
0001
0010
0001
1000
0000
0100
0010
,  // measure 129
0001
0000
0100
0010
1000
0000
0010
0000
,  // measure 130
1000
0000
0100
0010
0001
0000
0100
0010
,  // measure 131
1000
0000
0001
0100
0010
0000
1000
0000
,  // measure 132
0010
0100
0001
0010
2200
0000
0000
3300
,  // measure 133
2001
0000
3010
0000
1010
0110
0101
0011
,  // measure 134
1001
1100
0101
1010
1001
0011
0110
1100
,  // measure 135
1001
0011
1001
1010
0110
0011
1001
1100
,  // measure 136
0101
1001
1100
0110
0101
1001
0011
1010
,  // measure 137
1000
0001
0010
0100
1000
0000
0001
0010
0100
0000
1100
0000
0011
0000
1010
0000
,  // measure 138
0101
0011
1100
1001
0011
0101
1010
0011
,  // measure 139
1100
1010
0101
1001
0011
1010
1100
1001
,  // measure 140
0011
0000
0110
0000
1001
0000
0101
0000
1010
0000
0200
0300
1001
0000
0020
0030
,  // measure 141
1000
0100
0001
0100
1000
0000
0010
0000
0110
0000
1001
0000
0011
0000
0101
0000
,  // measure 142
1010
0011
1100
1001
0110
0101
0011
1100
,  // measure 143
1001
0110
1100
0101
0011
1001
1100
1001
,  // measure 144
0110
0000
0011
0000
1001
0000
0101
0000
1010
0000
0001
0100
0001
1000
0100
0000
,  // measure 145
0010
0000
0000
0100
0000
0000
1000
0000
0010
0000
1000
0000
0010
0000
0000
0100
0000
0000
0001
0000
1000
0000
0001
0000
1000
0000
0000
0000
0000
0000
0010
0000
0000
1000
0000
0000
0000
0000
0000
0010
0000
0000
0100
0000
0000
0000
0000
0000
,  // measure 146
0010
1000
0000
0010
0100
0000
0001
0000
0100
0000
0001
0010
0000
0001
1000
0000
,  // measure 147
0001
0000
0000
0100
0000
0000
0000
0000
0000
0010
0000
0000
1000
0000
0100
0000
0010
0000
0001
0000
0010
0000
0100
0000
1000
0000
0000
0000
0000
0000
0010
0000
0000
0100
0000
0000
0000
0000
0000
0010
0000
0000
0100
0000
0000
0000
0000
0000
,  // measure 148
0001
1000
0000
0010
0100
0000
1000
0001
0100
0000
0010
1000
0000
1000
0001
0000
,  // measure 149
0001
0100
1000
0010
0001
0000
0000
0000
1100
0000
0101
0000
1001
0000
1010
0000
,  // measure 150
0110
0011
1100
1001
0110
0101
0011
1100
,  // measure 151
1001
0000
0000
0000
0000
0000
0010
0000
1000
0000
0001
0000
0100
0000
0000
0000
0000
0000
0010
0000
0000
0100
0000
0000
0001
0000
0000
0000
0000
0000
1100
0000
0000
0000
0000
0000
0011
0000
0000
0000
0000
0000
0110
0000
0000
0000
0000
0000
,  // measure 152
1001
1100
0101
1010
0011
1100
1001
0110
,  // measure 153
0001
1000
0010
0100
0010
0000
1000
0000
0101
0000
0011
0000
1001
0000
1100
0000
,  // measure 154
0110
1001
0011
1010
1100
0101
1001
0011
,  // measure 155
1100
0000
0000
0000
0000
0000
1000
0000
0001
0000
0100
0000
0001
0000
0000
0000
0000
0000
1000
0000
0000
0001
0000
0000
0100
0000
0000
0000
0000
0000
1010
0000
0000
0000
0000
0000
0101
0000
0000
0000
0000
0000
0011
0000
0000
0000
0000
0000
,  // measure 156
1010
0000
1100
0000
1001
0000
0011
0000
0100
0001
1000
0100
1000
0001
0010
0001
,  // measure 157
0010
0000
0100
0000
0010
0000
0100
0000
0000
1000
0000
0000
0001
0000
0000
0000
0000
0000
0000
0000
0000
0000
0000
0000
1100
0000
0000
0000
0000
0000
0000
0000
0000
0000
0000
0000
0101
0000
0000
0000
0000
0000
0000
0000
0000
0000
0000
0000
,  // measure 158
0011
1001
1100
0101
,  // measure 159
0011
0000
0100
0000
1000
0010
0000
0010
1100
0000
0000
0000
0101
0000
0000
0000
,  // measure 160
1001
0000
0011
0000
1100
0000
0101
1000
,  // measure 161
0010
0000
0000
1000
0000
0000
0001
0000
0000
0010
0000
0000
0001
0000
1000
0000
0001
0000
1000
0000
0001
0000
1000
0000
0001
0000
0000
0000
0000
0000
0100
0000
0000
0000
0000
0000
0010
0000
0000
1000
0000
0000
0010
0000
0000
0100
0000
0000
,  // measure 162
0010
0000
0100
0000
0001
0010
0001
0010
0100
0000
1000
0000
0010
0100
0001
0100
,  // measure 163
0010
0000
1000
0000
0100
0010
0001
0010
0100
0000
1000
0000
0010
0100
0001
1000
,  // measure 164
0100
0000
1000
0000
0100
1000
0001
0010
0001
1000
0100
1000
0001
0010
0001
1000
,  // measure 165
0010
0100
0001
0010
0100
0000
0000
0000
2002
0000
0000
0000
0000
0000
0000
0000
,  // measure 166
0000
0000
0000
0000
,  // measure 167
0003
0000
0000
0000
,  // measure 168
0000
0000
3000
0000
;
