#VERSION:0.83;
#TITLE:Grief & Malice;
#SUBTITLE:;
#ARTIST:Helblinde;
#TITLETRANSLIT:;
#SUBTITLETRANSLIT:;
#ARTISTTRANSLIT:;
#GENRE:;
#ORIGIN:;
#CREDIT:;
#BANNER:;
#BACKGROUND:Grief & Malice-bg.png;
#PREVIEWVID:;
#JACKET:Grief & Malice-jacket.png;
#CDIMAGE:;
#DISCIMAGE:;
#LYRICSPATH:;
#CDTITLE:;
#MUSIC:Grief & Malice.mp3;
#OFFSET:1.108999;
#SAMPLESTART:111.681976;
#SAMPLELENGTH:15.000000;
#SELECTABLE:YES;
#BPMS:0.000=200.000;
#STOPS:;
#DELAYS:;
#WARPS:;
#TIMESIGNATURES:0.000=4=4;
#TICKCOUNTS:0.000=4;
#COMBOS:0.000=1;
#SPEEDS:0.000=1.000=0.000=0;
#SCROLLS:0.000=1.000;
#FAKES:;
#LABELS:0.000=Song Start;
#BGCHANGES:;
#KEYSOUNDS:;
#ATTACKS:
;

//---------------dance-single - ----------------
#NOTEDATA:;
#CHARTNAME:;
#STEPSTYPE:dance-single;
#DESCRIPTION:;
#CHARTSTYLE:;
#DIFFICULTY:Beginner;
#METER:9;
#RADARVALUES:0.406088,0.413765,0.005374,0.026868,0.000000,529.000000,528.000000,1.000000,5.000000,0.000000,0.000000,0.000000,0.000000,0.000000,0.406088,0.413765,0.005374,0.026868,0.000000,529.000000,528.000000,1.000000,5.000000,0.000000,0.000000,0.000000,0.000000,0.000000;
#CREDIT:;
#NOTES:
0000
0000
0000
0000
,
1000
0000
1000
0000
,
1000
0000
0000
0000
,
0000
0000
0000
0000
,
0001
0000
0001
0000
,
0001
0000
0000
0000
,
0000
0000
0000
0000
,
1000
0010
1000
0010
,
0100
0001
0100
0001
,
0010
0100
0010
0100
,
1000
0001
1000
0001
,
0100
0010
0100
0010
,
1000
0100
1000
0100
,
0010
0001
0010
0001
,
0100
0010
2000
0000
,
3001
0100
0010
1000
,
0100
0010
0001
0100
,
0001
1000
0100
1000
,
0010
0100
0001
0010
,
0100
1000
0001
0100
,
0001
1000
0010
0100
,
0001
0001
0010
0100
,
1000
1000
1000
1000
,
0010
0000
0010
0100
,
0010
0100
0100
0001
,
1000
0000
0010
1000
,
0001
0001
0010
0100
,
1000
0000
1000
0001
,
0100
0010
1000
0001
,
0010
0010
0000
0001
,
0010
0100
0000
0100
,
1000
0010
0000
0010
,
0000
0010
0100
0100
,
0001
0010
0000
0010
,
0000
0010
0100
0100
,
0001
1000
0010
0100
,
0001
0010
0100
1000
,
0100
0010
0001
0010
,
0100
1000
0001
0100
,
0010
1000
0010
0100
,
0001
0010
0100
1000
,
0001
1000
0010
0100
,
0001
0010
0100
1000
,
0001
1000
0010
0100
,
0001
1000
1000
0001
,
0100
0010
1000
0100
,
0010
0100
1000
0010
,
0100
0001
0010
0100
,
1000
0100
0010
0100
,
1000
0001
0100
0010
,
1000
0001
0010
0010
,
0001
0100
0010
1000
,
0001
0010
0001
0100
,
0010
1000
0010
0100
,
0001
0010
0100
1000
,
0010
0100
0001
0010
,
0001
1000
0100
0010
,
0001
0100
0001
1000
,
0010
0100
0001
0001
,
0010
0100
0100
0010
,
0001
0001
0100
0010
,
0010
1000
0001
0000
,
0001
0000
0001
0000
,
1000
1000
0001
0000
,
0001
0100
0100
0000
,
0000
0000
0000
0000
,
0000
0001
0100
0000
,
0010
1000
0000
0001
,
0010
0000
0100
1000
,
0001
0100
0000
0010
,
1000
0000
0100
0010
,
0000
0001
1000
0010
,
0100
0000
0000
0010
,
0000
0000
0100
0000
,
0000
0001
0000
0000
,
1000
0001
1000
0010
,
1000
0100
0010
0001
,
0100
0010
1000
0002
,
0103
0010
1000
0010
,
0100
0001
0010
0100
,
1000
0001
0100
0010
,
1000
0010
0100
0001
,
0010
0100
1000
0010
,
1000
0100
0010
0001
,
0100
0000
0000
0000
,
0010
0000
0000
0000
,
1000
1000
0001
0001
,
0010
0010
0100
0100
,
1000
0010
1000
0010
,
0200
0000
0000
0000
,
0310
0000
0010
0000
,
1000
0000
1000
0000
,
0100
0010
0001
0010
,
0100
1000
0010
0200
,
0301
1000
0001
1000
,
0100
0100
0010
0001
,
0100
0010
1000
0010
,
0100
0001
0010
0100
,
1000
0001
0100
0010
,
0100
0100
0010
1000
,
0001
0010
0100
1000
,
0001
1000
0010
0100
,
0010
1000
0001
0010
,
0100
1000
0100
0010
,
0001
0100
0010
1000
,
0010
0100
0001
0010
,
0100
1000
0001
1000
,
0010
0100
0001
0001
,
1000
0100
0100
0000
,
0010
0010
0000
0001
,
0100
0100
0010
0010
,
1000
1000
0002
0000
,
0103
0100
0001
0010
,
0100
1000
0010
0010
,
0100
0001
1000
0001
,
0010
0010
0100
1000
,
0001
0100
0010
0010
,
0100
0001
0010
0100
,
1000
1000
0010
0100
,
0001
0100
0010
0010
,
1000
0100
0010
0001
,
1000
1000
0001
0100
,
0010
0100
0001
0001
,
0010
0100
1000
0001
,
0100
0100
0001
1000
,
0010
0100
0001
0001
,
0010
0100
0100
0000
,
1000
1000
0000
0010
,
0010
0000
0100
0001
,
1000
0001
1000
0010
,
0100
0100
0001
0001
,
1000
0100
1000
0100
,
0010
0010
0001
0001
,
0100
0010
1000
0010
,
1000
1000
0100
0100
,
0010
0001
0010
0100
,
1000
1000
0001
0001
,
1000
0010
0100
0010
,
1000
0000
1000
0000
,
1000
0001
0001
0010
,
0100
0000
0100
0000
,
0010
0001
1000
0001
,
0100
0000
0100
0000
,
0001
0001
1000
1000
,
0010
0000
0010
0000
,
1000
1000
0100
0010
,
0001
0000
0001
0000
,
0100
0100
0010
0010
,
1000
0000
1000
0000
,
0001
0100
0010
1000
,
0100
0000
0100
0000
,
0010
0100
1000
0001
,
0100
0100
0001
0001
,
1000
0100
0010
0001
,
1001
0000
0000
0000
;

//---------------dance-single - ----------------
#NOTEDATA:;
#CHARTNAME:;
#STEPSTYPE:dance-single;
#DESCRIPTION:;
#CHARTSTYLE:;
#DIFFICULTY:Medium;
#METER:13;
#RADARVALUES:0.739250,0.744777,0.677070,0.037615,0.005374,963.000000,837.000000,126.000000,7.000000,0.000000,0.000000,0.000000,0.000000,0.000000,0.739250,0.744777,0.677070,0.037615,0.005374,963.000000,837.000000,126.000000,7.000000,0.000000,0.000000,0.000000,0.000000,0.000000;
#CREDIT:;
#NOTES:
0000
0000
0000
0000
,
1000
0100
1000
0100
,
1000
0100
0000
0000
,
0000
0000
0000
0000
,
0010
0001
0010
0001
,
0010
0001
0000
0000
,
0000
0000
0000
0000
,
1000
0010
0100
0010
,
1000
0100
0010
0001
,
0100
0010
1000
0010
,
0100
0101
0001
1001
,
1000
0100
0010
0100
,
0010
0001
1000
0010
,
0100
0001
1000
0001
,
0010
0100
2000
0000
,
3001
0101
1000
1010
,
0100
0101
0001
0011
,
0010
1100
0010
0101
,
1000
1100
0001
0101
,
0010
0011
0001
0101
,
0100
0110
0010
1010
,
1000
0001
1000
0001
1000
0000
0001
0000
,
0100
0001
0100
0010
1000
0010
0100
0010
,
1001
0000
0000
0000
1000
0100
0010
0100
,
1000
0000
0001
0100
0010
0000
0100
0000
,
1001
0000
0000
0000
0001
0010
0100
1000
,
0100
0000
1000
0010
1000
0000
0010
0100
,
0110
0000
0000
0000
0001
1000
0010
0100
,
0001
0000
1000
0100
0010
0000
0001
0000
,
0100
0000
0100
0000
0000
0010
0100
0000
,
0001
0000
0001
0000
0000
1000
0001
0000
,
1010
0100
0000
0100
,
0000
0000
0000
0000
0100
0000
0000
0000
0001
0000
0000
0001
0000
0000
0001
0000
,
0000
0010
0000
0010
,
0000
0000
0000
0000
0010
0000
0000
0000
0100
0000
0000
0100
0000
0000
0100
0000
,
0001
0010
0100
1000
0010
0100
0001
1000
,
0001
0010
0100
1000
0010
0100
0001
0010
,
0001
0010
0100
1000
0010
0100
0010
1000
,
0100
0010
0001
0100
0010
0000
1001
0000
,
0001
0100
0010
1000
0100
0010
0001
0100
,
0010
1000
0010
0100
0001
0010
0100
1000
,
0001
0100
0010
1000
0001
0100
0001
0100
,
0010
1000
0100
1000
0010
0100
0001
0010
,
0001
0010
0100
1000
0001
0100
0010
1000
,
0001
1000
0100
1000
0010
0100
0001
0010
,
0001
0010
0100
1000
0010
0100
0001
1000
,
0100
0010
0001
0100
0010
1000
0010
0100
,
0001
0010
0100
1000
0001
0010
0100
1000
,
0010
1000
0100
0010
0001
1000
0010
0100
,
0010
1000
0100
0010
0001
0100
0010
1000
,
0010
0100
0001
0010
0100
1000
0100
1000
,
0010
0100
0001
1000
0010
0100
0001
0010
,
0100
1000
0010
0100
0001
0010
0100
1000
,
0100
0010
0001
1000
0001
0100
0010
1000
,
0100
0010
0001
0100
0010
1000
0001
0100
,
0010
1000
0100
0010
0001
0100
0001
0010
,
0100
1000
0010
1000
0010
0100
0001
0010
,
0100
1000
0001
0100
0010
1000
0100
0010
,
0001
0100
0001
0010
0100
1000
0100
0010
,
0001
0100
0010
1000
0010
0100
0001
0010
,
0100
1000
0100
0010
0001
0100
0010
1000
,
0010
0010
1001
0000
,
0001
0000
0001
0010
,
0011
1001
0000
1000
,
1010
1001
0101
0000
,
0000
0000
0000
0000
,
0001
0000
0010
0100
1000
0000
0000
0000
,
1000
0100
0010
0000
0000
0000
0010
0100
,
1000
0000
0000
0000
1000
0100
0010
0001
,
0100
0000
0010
1000
0100
0000
0000
0000
,
0100
1000
0010
0000
0000
0000
0010
1000
,
0100
0000
0000
0000
0100
1000
0010
0100
,
1001
0110
0000
0011
,
1100
0000
1001
0110
,
0000
1010
0101
0000
,
0011
1000
1010
0001
,
1001
1010
1100
0101
,
0011
1000
0100
1000
0010
0100
0020
0000
,
1030
0100
0010
0001
0100
0001
1000
0010
,
0100
0001
0010
0100
1000
0100
0010
0001
,
1000
0001
0100
0010
1000
0100
1000
0010
,
0100
0001
0010
0001
0010
0100
1000
0010
,
0100
0001
1000
0010
0100
0010
1000
0100
,
0010
0001
0100
0001
0010
0001
1000
0100
,
1000
0000
0000
0000
,
0001
0000
0000
0000
,
0100
0100
0010
0010
1000
1000
0100
0100
,
0010
0010
0001
0001
0100
0100
0010
0010
,
1000
0001
1000
0001
1000
0001
1000
0001
,
0200
0320
0230
0320
,
0130
0000
0001
0100
0001
0100
0010
0100
,
0010
0000
1000
0100
1000
0100
0010
0100
,
0010
0000
0001
0100
0001
0100
0010
0100
,
0010
0000
1000
0100
0010
0100
2000
0000
,
3001
0100
0010
1000
0100
0010
0001
0100
,
0010
0100
0010
0100
0001
0010
0100
1000
,
0001
0100
0010
1000
0010
0100
0001
0010
,
0100
1000
0001
0100
0001
0010
0100
1000
,
0010
0100
0001
0100
0010
1000
0100
0010
,
0001
0100
0010
1000
0010
0100
0001
0010
,
0001
1000
0100
1000
0010
0100
0010
1000
,
0100
0010
0001
0100
0010
0100
0001
0010
,
0001
1000
0100
1000
0010
0100
0001
1000
,
0010
0100
0001
0010
0100
1000
0001
0100
,
0010
1000
0010
1000
0100
0010
0001
0100
,
0001
0010
0100
1000
0001
0100
0010
1000
,
0010
0100
0001
0010
0100
0010
0001
1000
,
0100
1000
0010
0100
0001
0100
0001
0010
,
0100
1000
0010
1000
0010
1000
0100
0010
,
0001
0100
0001
0100
0010
1000
0100
0010
,
0100
0010
0100
1000
0001
1000
0010
0100
,
0001
1000
0010
0100
0001
0000
0000
0000
,
1100
1001
0101
0011
,
1100
1010
0110
1001
,
1100
0101
0011
1001
,
1100
1001
0101
0011
,
1100
1010
0110
1001
,
1100
0000
0011
0000
1000
0001
1000
0001
,
1010
0101
0011
1001
,
1100
1010
0110
1100
,
1010
1001
0011
0101
,
0110
1001
0110
0011
,
1100
1010
1100
1010
,
0101
1010
0101
0011
,
1100
1001
0011
1001
,
1010
1100
1001
0110
,
0001
0000
0100
0100
0100
0000
0010
0000
,
1000
1000
1000
0000
0001
0000
0100
0100
,
0100
0000
0001
0000
0010
0100
0010
0100
,
0010
0001
1000
0100
1000
0001
1000
0010
,
0100
0100
0010
0010
,
1000
0000
0001
0100
0001
0100
0001
0000
,
0010
0010
0001
0001
,
1000
0000
1000
0100
0010
0001
0010
0000
,
0100
0100
1000
1000
,
0010
0000
1000
0001
1000
0001
1000
0000
,
0100
0100
0010
0010
,
0001
0000
1000
0001
1000
0001
1000
0000
,
0010
0110
1000
1100
,
0001
0101
0010
0011
,
0001
1001
1000
1010
,
0100
0101
0001
1010
,
1000
0011
0001
1100
,
1000
0110
0001
0101
,
0010
1010
1000
0110
,
0001
0000
0110
0000
1000
0001
1000
0000
,
0010
0101
0010
1100
,
0001
0101
1000
1010
,
0100
0101
0010
1001
,
0010
0101
1000
1100
,
0001
0101
1000
1010
,
0100
0101
0001
0011
,
1000
1010
0001
0101
,
0010
0011
1000
1100
,
1001
0000
0000
0000
;

//---------------dance-single - ----------------
#NOTEDATA:;
#CHARTNAME:;
#STEPSTYPE:dance-single;
#DESCRIPTION:;
#CHARTSTYLE:;
#DIFFICULTY:Challenge;
#METER:18;
#RADARVALUES:1.375634,1.406801,1.155318,0.005374,1.434743,1792.000000,1577.000000,215.000000,1.000000,0.000000,0.000000,0.000000,0.000000,0.000000,1.375634,1.406801,1.155318,0.005374,1.434743,1792.000000,1577.000000,215.000000,1.000000,0.000000,0.000000,0.000000,0.000000,0.000000;
#CREDIT:;
#NOTES:
// measure 0
0000
0000
0000
0000
,  // measure 1
1000
0100
0010
0000
1000
0100
0010
0000
,  // measure 2
0001
0010
0100
0000
0000
0000
0000
0000
,  // measure 3
0000
0000
0000
0000
0000
0000
0000
0000
0000
1000
0010
0100
,  // measure 4
0001
0010
0100
0000
0001
0010
0100
0000
,  // measure 5
1000
0100
0010
0000
0000
0000
0000
0000
,  // measure 6
0000
0000
0000
0000
,  // measure 7
1000
0000
1000
0010
0000
0010
0100
0000
0100
0001
0000
0001
,  // measure 8
0010
0000
0010
0100
0000
0100
1000
0000
1000
0001
0000
0001
,  // measure 9
0100
0000
0100
0010
0000
0010
1000
0000
1000
0100
0000
0100
,  // measure 10
0010
0000
0010
0001
0000
0001
0010
0000
0010
0001
0000
0001
,  // measure 11
0100
0000
0100
0010
0000
0010
1000
0000
1000
0001
0000
0001
,  // measure 12
1000
0000
1000
0100
0000
0100
0010
0000
0010
0001
0000
0001
,  // measure 13
0100
0000
0100
1000
0000
1000
0100
0000
0100
0001
0000
0001
,  // measure 14
0010
0000
0010
0100
0000
0100
1000
0010
0100
0001
0010
0100
,  // measure 15
1000
0100
0010
0001
0100
0010
0100
0001
0010
0100
1000
0010
0100
0001
1000
0001
,  // measure 16
0010
0100
1000
0010
0100
0010
1000
0100
0010
0001
0100
0010
0100
0001
0010
0100
,  // measure 17
1000
0001
0100
0001
0010
0100
1000
0100
1000
0010
0100
0001
1000
0010
1000
0100
,  // measure 18
0010
0001
0100
0010
0100
0001
0010
0001
1000
0100
1000
0010
0100
0001
1000
0100
,  // measure 19
0010
0001
0100
0001
0010
0001
1000
0010
0100
0010
1000
0100
0010
0001
0100
0010
,  // measure 20
1000
0010
1000
0100
0010
0001
1000
0010
1000
0001
0100
0001
0010
0100
1000
0010
,  // measure 21
0100
0001
0100
0001
0100
0010
0100
0001
0100
0001
1000
0010
1000
0100
0010
0001
,  // measure 22
1000
0010
1000
0010
1000
0001
1000
0010
1000
0100
0010
0100
0010
0001
0100
0010
,  // measure 23
1001
0000
0000
0000
0110
0101
0110
0101
,  // measure 24
0110
0000
1001
1010
1001
0000
0110
0000
,  // measure 25
1100
0000
0000
0000
1100
0110
0011
0110
,  // measure 26
1100
0000
1001
1010
0101
0000
0011
0001
,  // measure 27
1001
0000
0000
0000
0110
1001
0110
1001
,  // measure 28
0110
0000
1100
0110
0011
0000
1001
0000
,  // measure 29
0110
0000
0110
0000
0000
0101
0101
0000
,  // measure 30
1001
0000
1001
0000
0000
1100
1100
0000
,  // measure 31
1000
0000
0100
0010
0001
0000
0100
0010
1000
0010
0100
0000
0001
0000
0010
0100
,  // measure 32
1000
0100
0010
0000
0001
0000
0100
0010
1000
0000
0001
0100
0000
0001
0100
0000
,  // measure 33
0010
0000
1000
0100
0010
0000
0100
1000
0010
0100
0001
0000
0100
0000
0010
1000
,  // measure 34
0100
0010
0001
0000
0010
0000
0001
0100
0010
0000
1000
0001
0000
1000
0001
0000
,  // measure 35
0100
0010
0100
0010
1000
0100
1000
0010
1000
0001
0100
0001
0010
0001
0010
0100
,  // measure 36
1000
0100
1000
0010
0100
0010
0100
0001
0010
0001
0010
0100
0010
0001
0100
0010
,  // measure 37
1000
0010
1000
0100
0010
0100
1000
0001
0100
0010
0100
0001
0010
0100
1000
0010
,  // measure 38
0100
0001
0010
0100
1000
0010
0100
0001
0100
0000
0000
0000
1001
0000
0000
0000
,  // measure 39
0010
0100
0001
0100
0010
1000
0100
0010
0100
1000
0010
0100
0001
0010
0100
1000
,  // measure 40
0010
0100
0010
1000
0100
0010
0001
0100
0001
0010
0100
1000
0001
0100
0010
1000
,  // measure 41
0100
0010
0100
1000
0010
0100
0001
0100
0010
1000
0100
0010
0001
0100
0010
1000
,  // measure 42
0001
0010
0001
1000
0100
1000
0010
0100
0001
0010
0001
1000
0010
0100
0001
1000
,  // measure 43
0100
0010
0100
1000
0010
0100
0001
0010
0100
1000
0100
1000
0010
1000
0010
0100
,  // measure 44
0001
0100
0010
1000
0100
0010
0001
1000
0001
0100
0010
1000
0100
0010
0100
1000
,  // measure 45
0010
0100
0001
0100
0010
0100
0010
1000
0100
0010
0100
1000
0010
0100
0001
0010
,  // measure 46
0001
0100
0010
0100
0001
0010
0100
0010
0100
1000
0010
0100
0001
1000
0100
1000
,  // measure 47
0010
0100
0010
0100
0001
0010
0100
0010
0001
0100
0001
1000
0001
0100
0001
1000
,  // measure 48
0100
0010
0001
0010
0100
1000
0010
0100
0001
1000
0001
1000
0100
1000
0010
0100
,  // measure 49
0001
0010
0001
0010
0100
1000
0100
1000
0010
0100
0001
1000
0100
0010
0001
0100
,  // measure 50
0010
0100
0001
0100
0001
1000
0010
1000
0100
0010
0100
0010
0100
0010
0100
0010
,  // measure 51
0001
0100
0010
1000
0100
1000
0010
0100
0010
1000
0100
0010
0001
0100
0001
1000
,  // measure 52
0010
0100
0001
1000
0001
0010
0100
1000
0010
0100
0010
1000
0001
1000
0001
0100
,  // measure 53
0001
1000
0100
0010
0001
0010
0100
1000
0100
1000
0010
0100
0001
1000
0100
0010
,  // measure 54
0001
0100
0001
0100
0010
1000
0100
1000
0010
0100
0001
0010
0100
1000
0001
0100
,  // measure 55
0010
1000
0100
0010
0001
0100
0001
0010
0100
1000
0100
0010
0100
1000
0001
0100
,  // measure 56
0010
1000
0010
1000
0010
0100
0001
0100
0010
1000
0010
0100
0010
1000
0001
0100
,  // measure 57
0010
1000
0010
0100
0001
0010
0100
1000
0001
0010
0100
1000
0010
0100
0010
1000
,  // measure 58
0100
0010
0001
0100
0010
1000
0100
0010
0001
0100
0001
0100
0010
0100
0001
0010
,  // measure 59
0100
1000
0001
0100
0010
1000
0010
0100
0010
1000
0100
0010
0001
0100
0010
1000
,  // measure 60
0100
0010
0100
1000
0100
0010
0001
0100
0010
0100
0001
0010
0100
1000
0100
1000
,  // measure 61
0010
0000
0010
0000
1001
0001
1000
0000
,  // measure 62
0001
0100
0001
0000
1000
0000
0001
0000
,  // measure 63
0110
0010
0100
0000
0010
0100
0010
0000
,  // measure 64
1001
0110
1001
0000
,  // measure 65
0000
0000
0000
0000
,  // measure 66
0000
0000
0001
0100
0010
1000
0000
0000
,  // measure 67
1000
0010
0100
0001
0000
0000
0001
0100
,  // measure 68
0010
1000
0000
0000
1000
0010
0100
0001
,  // measure 69
0010
0100
1000
0010
0000
0000
0010
1000
,  // measure 70
0100
0010
0000
0000
0010
0100
1000
0010
,  // measure 71
0000
0000
0010
1000
0100
0010
0001
0100
,  // measure 72
0110
0101
0010
1100
,  // measure 73
1010
0001
0101
0011
,  // measure 74
0001
0000
1010
0000
1100
0010
0100
0001
,  // measure 75
0101
1010
1100
0011
,  // measure 76
1100
1001
0110
0110
,  // measure 77
0001
0000
0100
0000
0001
0000
1000
0000
0010
0100
0010
1000
0001
0000
0000
0000
,  // measure 78
0001
1000
0100
0010
0100
1000
0010
0100
0001
0010
0001
1000
0010
1000
0010
0100
,  // measure 79
0001
1000
0001
0010
0100
1000
0100
0010
0001
0100
0010
0100
0001
0010
0100
1000
,  // measure 80
0010
0100
0010
1000
0100
1000
0001
0100
0001
1000
0010
1000
0001
0100
0001
0010
,  // measure 81
0001
0010
0100
1000
0100
1000
0010
0100
0001
0100
0010
1000
0001
0100
0010
0100
,  // measure 82
0001
0010
0100
1000
0010
0100
0010
1000
0100
0010
0001
0100
0010
0100
0001
0010
,  // measure 83
0100
1000
0001
0100
0001
1000
0100
1000
0010
0100
0010
1000
0100
0010
0001
0100
,  // measure 84
0110
0010
0010
0010
,  // measure 85
0110
0000
0010
0000
0010
0100
0010
0100
,  // measure 86
1010
1010
1100
1100
0110
0110
0011
0011
,  // measure 87
0101
0101
1001
1001
1010
1010
0110
0110
,  // measure 88
0001
0010
0100
1000
0001
0010
0100
1000
0001
0010
0100
1000
0001
0010
0100
1000
,  // measure 89
0001
0100
1000
0100
0001
0010
1000
0010
0001
0100
1000
0100
0001
0010
1000
0010
,  // measure 90
0001
0000
0010
0010
0001
0001
0100
0100
,  // measure 91
0010
0000
0001
0001
1000
1000
0100
0100
,  // measure 92
0010
0000
1000
1000
0010
0010
0100
0100
,  // measure 93
0001
0000
0001
0001
0100
0100
0020
0000
,  // measure 94
1030
0100
0010
0001
0100
0010
0100
0001
0010
0100
1000
0010
0100
0001
1000
0100
,  // measure 95
0010
0100
0010
0001
0010
0001
0100
0010
0100
0001
1000
0100
0010
0001
0100
0010
,  // measure 96
0100
0001
0010
0100
1000
0001
0100
0010
0100
0001
0010
0100
0010
0100
1000
0010
,  // measure 97
0100
0001
1000
0010
1000
0100
1000
0010
0100
0001
0010
0001
0100
0010
1000
0100
,  // measure 98
0010
0001
0100
0010
0100
0001
0100
0010
1000
0100
0010
0001
0100
0001
0010
0100
,  // measure 99
1000
0010
0100
0010
0100
0001
0010
0100
1000
0001
1000
0010
1000
0100
1000
0001
,  // measure 100
0100
0010
1000
0100
1000
0010
0100
0001
0010
0001
0100
0001
1000
0100
0010
0100
,  // measure 101
1000
0010
0100
0010
1000
0100
1000
0010
0100
0001
0010
0001
0100
0010
1000
0100
,  // measure 102
0010
0001
0100
0010
1000
0001
1000
0010
0100
0001
0010
0100
1000
0100
0010
0100
,  // measure 103
1000
0010
0100
0001
0100
0001
0010
0100
1000
0100
1000
0010
0100
0001
0100
0010
,  // measure 104
1000
0100
0010
0001
0100
0010
0100
0001
0010
0100
1000
0001
0100
0001
0100
0010
,  // measure 105
0100
0010
1000
0100
1000
0010
0100
0001
0010
0001
0010
0100
1000
0100
1000
0010
,  // measure 106
0100
0001
0100
0010
1000
0100
0010
0001
0100
0010
0100
0001
0010
0100
0010
0001
,  // measure 107
1000
0100
1000
0010
0100
0001
0100
0010
1000
0001
1000
0001
1000
0001
1000
0010
,  // measure 108
0100
0001
0010
0100
1000
0010
1000
0010
1000
0010
1000
0100
0010
0001
0100
0010
,  // measure 109
1000
0001
1000
0001
1000
0001
1000
0100
0010
0001
0010
0100
1000
0010
1000
0010
,  // measure 110
1000
0010
1000
0100
0010
0001
0100
0001
0010
0100
0010
0100
0010
0100
0010
0100
,  // measure 111
1000
0010
0100
0001
0010
0100
1000
0010
0100
0000
0000
0000
0000
0000
0001
0000
,  // measure 112
1001
1010
1100
1001
0101
0011
0101
1100
,  // measure 113
1010
1100
1010
0101
0011
1100
1010
0101
,  // measure 114
0011
0110
1010
1100
1010
0101
1010
0101
,  // measure 115
0011
1100
1010
1100
0011
0101
0110
1001
,  // measure 116
1100
1010
1100
0011
0101
0011
1100
1010
,  // measure 117
1100
0110
0011
0101
1001
1010
1100
1010
,  // measure 118
0101
0011
0110
1100
1010
1100
1001
0110
,  // measure 119
0101
1001
0011
1100
1010
1100
0110
0011
,  // measure 120
0101
0110
0101
1001
1010
1100
1010
1001
,  // measure 121
0101
0011
0110
1100
1010
1100
0110
0011
,  // measure 122
0101
0110
0101
0011
1100
1010
1001
0101
,  // measure 123
0011
0110
1100
1001
0110
0101
0011
0101
,  // measure 124
0011
0110
1100
1010
1001
0110
0101
0011
,  // measure 125
0101
0110
1010
1100
1001
1001
1001
0101
,  // measure 126
0110
1001
1010
1010
1010
0101
0110
1010
,  // measure 127
1001
1001
1001
1010
1100
0101
0011
0011
,  // measure 128
0011
0110
1100
1010
0101
0101
0101
0110
,  // measure 129
0001
0010
0100
1000
0010
0100
0001
1000
0100
0010
0001
0100
0010
1000
0100
0010
,  // measure 130
0001
0001
0001
0001
,  // measure 131
0001
0000
0001
0001
0001
0001
0001
0000
,  // measure 132
1000
1000
1000
1000
,  // measure 133
1000
0000
1000
0001
1000
0001
1000
0000
,  // measure 134
0010
0010
0010
0010
,  // measure 135
0010
0000
0010
0010
0010
0010
0010
0000
,  // measure 136
0100
0100
0100
0100
,  // measure 137
0100
0000
0100
0010
0100
0010
0100
0000
,  // measure 138
0100
0001
1000
0010
1000
0001
1000
0010
,  // measure 139
1000
0100
0010
0100
1000
0010
0100
0001
,  // measure 140
0010
0100
0010
0001
0100
0010
1000
0100
,  // measure 141
0010
0001
0100
0010
0100
0010
0100
0001
,  // measure 142
0010
0100
1000
0001
0100
0001
1000
0100
,  // measure 143
1000
0010
0100
0001
1000
0100
0010
0100
,  // measure 144
1000
0010
0100
0001
0010
0100
0010
0001
,  // measure 145
1000
0010
0100
0001
1000
1000
1000
0000
,  // measure 146
0001
0100
0010
1000
0100
1000
0010
0100
,  // measure 147
0001
0010
0100
0010
0001
1000
0001
0010
,  // measure 148
0100
1000
0010
0100
0010
1000
0100
0010
,  // measure 149
0001
0100
0010
1000
0001
0100
0001
0010
,  // measure 150
0100
1000
0010
0100
0001
1000
0100
0010
,  // measure 151
0001
0100
0010
0100
0001
0010
0100
1000
,  // measure 152
0001
0100
0001
0100
0010
1000
0010
1000
,  // measure 153
0100
0010
0001
0100
0010
1000
0100
0010
,  // measure 154
1001
0000
0000
0000
;
