#TITLE:Go Beyond!!;
#SUBTITLE:;
#ARTIST:Ryu☆ vs. Sota;
#TITLETRANSLIT:;
#SUBTITLETRANSLIT:;
#ARTISTTRANSLIT:;
#GENRE:;
#CREDIT:;
#BANNER:Go Beyond!!-bn.png;
#BACKGROUND:Go Beyond!!-bg.jpg;
#LYRICSPATH:;
#CDTITLE:;
#MUSIC:Go Beyond!!.mp3;
#OFFSET:1.171000;
#SAMPLESTART:0.955000;
#SAMPLELENGTH:15.000000;
#LASTBEATHINT:0.490897;
#SELECTABLE:YES;
#BPMS:0.000000=200.000000
,104.000000=100.000000
,160.000000=200.000000
,288.000000=100.000000
;
#STOPS:
;
#BGCHANGES:0.000=Go Beyond!!.avi=1.000=0=0=1=====,
99999=-nosongbg-=1.000=0=0=0 // don't automatically add -songbackground-
;
#KEYSOUNDS:;
#ATTACKS:;

//---------------dance-single - ----------------
#NOTES:
     dance-single:
     :
     Beginner:
     4:
     0.157373,0.267162,0.104089,0.182156,0.000000,127.000000,115.000000,12.000000,21.000000,0.000000,0.000000,0.157373,0.267162,0.104089,0.182156,0.000000,127.000000,115.000000,12.000000,21.000000,0.000000,0.000000:
0000
0000
0000
0000
,
0000
0000
0000
0000
,
1000
0000
1000
0000
,
0010
0000
0010
0000
,
0100
0000
0100
0000
,
0002
0000
0003
0000
,
0010
0000
0010
0000
,
0100
0000
0100
0000
,
0010
0000
0000
0000
,
1001
0000
0000
0000
,
0010
0000
0010
0000
,
1000
0000
1000
0000
,
0001
0000
0001
0000
,
0200
0000
0300
0000
,
0010
0000
0010
0000
,
1000
0000
1000
0000
,
0001
0000
1000
0000
,
0002
0000
0003
0000
,
0010
0000
0010
0000
,
0200
0000
0300
0000
,
1000
0000
1000
0000
,
0020
0000
0030
0000
,
1001
0000
0000
0000
,
0110
0000
0000
0000
,
0002
0000
0000
0000
,
0003
0000
0000
0000
,
2002
0000
3003
0000
,
0000
0000
0000
0000
,
0000
0000
0000
0000
,
0000
0000
0000
0000
,
0001
0000
0000
0000
,
0020
0000
0030
0000
,
1000
0000
0000
0000
,
0200
0000
0300
0000
,
1001
0000
0000
0000
,
0010
0000
0000
0000
,
0100
0000
0000
0000
,
0020
0000
0000
0000
,
0000
0000
0000
0000
,
0030
0000
0000
0000
,
1000
0000
1000
0000
,
0010
1000
0010
0100
,
0010
0000
0010
0000
,
0001
0000
1001
0000
,
1000
0000
1000
0000
,
0100
0010
0100
1000
,
0100
0000
1000
0000
,
0002
0000
0000
0000
,
0103
0000
0010
0000
,
1000
0001
0010
0001
,
1000
0000
0100
0000
,
1000
0001
0010
0000
,
1001
0000
0001
0000
,
1001
0000
0010
0000
,
1001
0000
0110
0000
,
0200
0000
0320
0000
,
1030
0000
0001
0000
,
0010
0000
0100
0000
,
2000
0000
0000
0000
,
3000
0000
0010
0000
,
0001
0000
0100
0000
,
1000
0000
0100
0000
,
0020
0000
0000
0000
,
0030
0000
0000
0000
,
0001
0000
1000
0000
,
0001
0000
0010
0000
,
0200
0000
0000
0000
,
0300
0000
1000
0000
,
1001
0000
0110
0000
,
0010
0000
0010
0000
,
2000
0000
0000
0000
,
3000
0000
0001
0000
,
0020
0000
0000
0000
0000
0030
0100
0000
,
2000
0000
0000
0000
0000
3000
0010
0000
,
0100
0001
1000
0001
,
0200
0000
0000
0000
,
0000
0000
0000
0000
,
0300
0000
0000
0000
;

//---------------dance-single - ----------------
#NOTES:
     dance-single:
     :
     Easy:
     11:
     0.387855,0.500928,0.208178,0.503097,0.000000,313.000000,289.000000,24.000000,58.000000,0.000000,0.000000,0.387855,0.500928,0.208178,0.503097,0.000000,313.000000,289.000000,24.000000,58.000000,0.000000,0.000000:
0000
0000
0000
0000
,
0000
0000
0000
0000
,
1000
1000
0001
0001
,
0010
0100
1002
0000
,
0103
0010
0010
1000
,
1020
0000
0130
0000
,
0001
0010
0100
1000
,
1200
0000
0310
0000
,
0201
0000
1300
0000
,
0001
1000
1001
0001
,
0001
0000
0010
0000
0100
1000
0000
1000
,
0010
0100
0000
0100
,
0001
0010
0001
0100
,
1000
0100
0000
0100
0000
0101
0000
0000
,
1000
0000
0001
0000
0010
0100
0000
0100
,
0010
0001
1000
0100
,
1100
0000
1100
0000
,
0020
0000
0230
0000
,
0301
0010
0001
0010
,
0100
0001
0100
1000
,
0010
0100
0010
0100
,
1000
0100
0001
0100
,
1001
0000
0010
0000
0100
0010
0000
0000
,
1000
0100
0010
0000
,
0001
0010
0000
0000
0001
0010
0000
0000
,
0200
0000
2300
0000
,
3020
0230
0302
2003
,
3200
0000
0000
0320
,
0230
2300
3020
0230
,
0320
0000
0000
2030
,
3002
0023
0230
2300
,
3002
0000
0000
0203
,
0320
2030
3002
0023
,
0230
0000
0000
1300
,
0020
0000
0000
0000
0000
0030
0100
0000
,
2000
0000
0000
0000
0000
3000
0010
0000
,
0200
0302
0023
0230
,
2300
0000
0000
0000
,
0000
0000
3020
0000
,
0030
0000
0000
0000
0000
1000
1000
1000
,
0001
0010
0001
0000
0010
0100
1000
0000
,
0010
0100
0010
0000
1000
0100
0010
0000
,
0001
1000
0001
0000
0010
0100
1000
0000
,
0001
0100
1000
0000
0001
0100
1000
0000
,
0001
0010
0100
0000
1000
0100
0010
0000
,
0001
0010
1000
0000
0001
0100
1000
0000
,
0001
0100
0001
1000
0010
1000
0100
0010
,
0002
0203
0320
2030
,
3100
1000
0010
0000
1000
0100
0010
0000
,
0100
1000
0010
0000
0001
0010
0100
1000
,
0010
0100
0001
0000
0010
0100
0001
0000
,
0100
1000
0010
0000
1000
0100
0010
0000
,
1001
0000
0010
0000
0100
0010
1000
0000
,
0011
0000
0100
0000
0010
0001
1000
0000
,
1001
0100
1001
0010
,
0002
0023
0230
2300
,
3010
0010
0100
0101
,
1000
0000
1000
0000
0010
0000
1010
0100
,
0010
0000
0001
0000
0100
0000
0001
0010
,
0100
0000
1000
0000
0010
0000
0100
0010
,
0100
0000
1001
0000
0100
0000
0010
0100
,
1000
0000
1001
0000
0010
0000
0100
0010
,
1000
1001
0001
0011
,
2000
0000
3020
0000
,
0130
0000
0101
0000
0010
0100
1000
0000
,
0001
0000
0101
0000
0001
0010
0100
0000
,
0001
0000
0101
0000
0100
1000
0010
0000
,
1000
0000
1010
0000
0100
0001
0010
0000
,
1001
0000
0010
0000
0100
0010
0000
1000
,
0001
0010
0000
0001
0000
0010
0000
0100
,
2000
0000
3020
0000
,
0130
0000
0001
0000
,
2000
0000
0000
0000
0000
3000
0010
0000
,
0200
0000
0000
0000
0000
0300
0001
0000
,
0020
0230
2300
3002
,
0203
0000
0000
0000
,
0000
0000
0000
0000
,
0300
0000
0000
0000
;

//---------------dance-single - ----------------
#NOTES:
     dance-single:
     :
     Medium:
     13:
     0.493183,0.601114,0.399008,0.477074,0.030359,398.000000,352.000000,46.000000,55.000000,0.000000,0.000000,0.493183,0.601114,0.399008,0.477074,0.030359,398.000000,352.000000,46.000000,55.000000,0.000000,0.000000:
0000
0000
0000
0000
,
0001
0010
0100
1000
,
0001
0100
0001
0000
1000
0100
1000
0000
,
0200
0000
0000
1000
0000
0000
0010
0000
0320
0000
0000
0000
0000
0000
0000
0000
,
0031
0100
0010
1000
,
0011
0000
0000
1000
0000
0000
0001
0000
1010
0000
0000
0000
0000
0000
0000
0000
,
1000
0001
1000
0001
0010
0001
0010
0100
,
1000
0000
0000
1000
0000
0000
0010
0000
0110
0000
0000
0000
0010
0000
0000
0000
,
0101
0000
0000
0000
1100
1000
0100
0000
,
0001
0000
0000
0100
0000
0000
1000
0000
0001
0000
1000
0000
0001
0100
0010
0000
,
1000
0000
1001
0000
0001
0100
0000
0100
,
0010
0010
0000
0010
0000
1000
0000
0001
,
0010
0000
0010
0000
0001
0010
1000
0010
,
0100
0100
0000
1100
0000
1001
0000
0001
,
1100
0000
0100
0000
0010
0010
0000
1000
,
0010
0010
0000
0100
0000
0001
0000
1000
,
0100
0011
0100
0011
,
2000
0000
3020
0000
,
0130
0001
0100
1000
,
0100
0001
0010
0000
0001
0010
1000
0000
,
0010
0001
0100
1000
,
0100
0010
1000
0000
0011
0000
1001
0000
,
0101
0010
1001
0000
0001
0100
0000
0100
,
0010
0110
0000
1010
0000
0001
0000
0010
,
0200
0000
0320
0000
,
0031
0000
0000
0000
0000
0000
0000
0000
1000
0000
0000
0001
0000
1000
0000
0000
,
0020
0230
0302
2003
,
3200
0000
0000
0320
,
0230
2300
3020
0230
,
0320
0000
0000
2030
,
3002
0023
0230
2300
,
3002
0000
0000
0203
,
0320
2030
3002
0023
,
0230
0000
0000
1300
,
0020
0000
0000
0000
0000
0030
0100
0000
,
2000
0000
0000
0000
0000
3000
0010
0000
,
0200
0302
0023
0230
,
2300
0000
0000
0000
,
0000
0000
3020
0000
,
0030
0000
0000
0000
0000
1000
1000
1000
,
0001
0010
0100
1000
0001
0010
0100
1000
,
0001
0100
1000
0100
0001
0010
0001
0001
,
0010
0100
1000
0001
0010
0100
0010
1000
,
0100
0010
0001
0010
0100
1000
0020
0000
,
0031
0100
1000
0100
0001
1000
0010
0100
,
0001
0010
0100
0001
1000
0010
1000
0010
,
1000
0001
0010
0100
0001
1000
0010
0100
,
1000
0100
0001
0100
1000
0100
0001
0100
,
0001
0010
0100
1000
0001
0100
0010
1000
,
0100
0010
0001
1000
0001
1000
0001
0010
,
0001
1000
0100
1000
0010
0100
0001
0010
,
0001
0010
0100
0001
0100
0010
0100
0001
,
1001
0000
0001
0000
0010
0001
1000
0001
,
1001
0000
0010
0000
0100
0010
1000
0100
,
0110
0000
0001
0010
1100
0000
0001
1000
,
0021
0230
2300
3020
,
0130
0101
1000
1001
,
0001
0000
0011
0000
1000
0000
1010
0010
,
0100
0011
0100
1010
,
0100
0000
1001
0000
0001
0000
0011
0001
,
1000
1100
0001
0101
,
1000
0000
1100
0000
0010
0000
0110
0010
,
0100
0011
0001
1001
,
0200
0000
0320
0000
,
1030
0000
1001
0000
0001
0010
0100
0000
,
1000
0000
1001
0000
1000
0001
0100
0000
,
1001
0100
1001
0010
,
0101
0000
0011
0000
0001
0010
0100
1000
,
1010
0000
1010
0000
0010
0100
0000
0100
,
0010
0010
0000
1000
0000
0001
0000
0010
,
0100
1002
0103
2001
,
3200
0000
0320
0000
,
0230
0000
0000
0000
0000
0300
1000
0000
,
0020
0000
0000
0000
0000
0030
0001
0000
,
0020
0230
2300
3002
,
0203
0000
0000
0000
,
0000
0000
0000
0000
,
0300
0000
0000
0000
;

//---------------dance-single - ----------------
#NOTES:
     dance-single:
     :
     Hard:
     16:
     0.633208,0.901671,0.537793,0.485748,0.307930,511.000000,449.000000,62.000000,56.000000,0.000000,0.000000,0.633208,0.901671,0.537793,0.485748,0.307930,511.000000,449.000000,62.000000,56.000000,0.000000,0.000000:
0000
0000
0000
0000
,
0001
0010
0100
1000
,
0001
0010
0100
1000
0001
0001
0100
0010
,
1000
0000
0000
0100
0000
0000
0010
0000
2001
0000
0000
0000
0000
0000
0000
0000
,
3001
0100
1000
0100
0001
0100
0010
1000
,
1001
0000
0000
0010
0000
0000
0011
0000
1200
0000
0000
0000
0000
0000
0000
0000
,
1300
0100
0010
0001
0001
0010
0100
1000
,
0010
0000
0000
0010
0000
0000
0100
0000
0010
0000
0000
0000
1001
0000
0000
0000
,
0110
0000
0000
0000
1001
1010
0001
0000
,
0100
0000
0000
0100
0000
0000
0100
0000
0010
0000
0010
0000
1000
0001
0100
0001
,
0100
0000
0100
0000
0010
0010
0000
1000
,
0100
0001
0000
0101
0000
1100
0000
0001
,
0010
0000
1010
0000
0001
1000
0010
0100
,
0101
0110
0000
1100
0000
0011
0000
0001
,
1001
0000
0110
0000
0010
0010
1000
0010
,
0101
0010
1000
0010
0000
0010
0000
1000
,
0001
0000
1001
0000
0001
0001
0010
0100
,
2000
0000
3010
0100
0010
0100
0001
0100
,
0001
1000
0100
0010
0001
1000
0100
1000
,
1100
0011
1100
0011
,
0001
0100
1000
0100
0001
0100
0010
1000
,
0011
0000
1100
0000
0110
0000
1001
0001
,
0011
0000
1100
0000
1001
1001
0000
0010
,
0110
0110
0000
0011
0000
1100
0000
0001
,
0020
0130
2000
3010
,
0200
0000
0000
0000
0000
0000
0000
0000
0310
0000
0000
0001
0000
1000
0000
0000
,
0020
0230
0302
2003
,
3200
0000
0000
0320
,
0230
2300
3020
0230
,
0320
0000
0000
2030
,
3002
0023
0230
2300
,
3002
0000
0000
0203
,
0320
2030
3002
0023
,
0230
0000
0000
1300
,
0020
0000
0000
0000
0000
0030
0100
0000
,
2000
0000
0000
0000
0000
3000
0010
0000
,
0200
0302
0023
0230
,
2300
0000
0000
0000
,
0000
0000
3020
0000
,
0030
0000
0000
0000
0000
1001
1001
1001
,
0010
1000
0010
1000
0010
0000
0100
0000
0001
0010
0001
0010
0001
0000
1000
0100
,
0010
0001
1000
0000
0001
0100
0010
0000
1000
0000
0100
0000
0010
0000
0001
0000
,
0100
0010
1000
0010
0100
0000
0001
0000
0100
0010
0100
0001
0010
0000
0100
1000
,
0001
0100
0010
0000
1000
0100
0010
0000
0002
0000
0000
0000
0203
0000
0000
0000
,
0310
1000
0001
0100
0001
0000
1000
0000
0010
0100
0001
0010
0100
0000
0010
0001
,
1000
0100
1000
0000
0010
0100
0010
0000
1000
0000
0001
0000
0100
0000
0010
0000
,
0100
0010
1000
0001
0010
0000
0100
0010
0001
0010
0001
0010
0100
0000
1000
0100
,
0020
0032
0203
2300
,
3010
0001
0100
0000
0001
0100
0010
0000
1000
0100
0010
0000
0100
1000
0010
0000
,
0100
0001
0010
0000
0100
1000
0010
0000
0100
0000
0001
0000
1000
0000
0100
0000
,
1000
0100
0010
0000
0010
0100
1000
0000
0001
0010
0100
0000
0100
0010
0001
0000
,
1000
0100
0010
0000
0001
0010
0100
0000
2000
0000
0000
0000
3020
0000
0000
0000
,
0130
0001
0010
0000
0100
1000
0010
0000
0100
0001
0100
0000
0010
1000
0010
0000
,
1000
0001
0010
0000
0001
0010
0100
0000
1000
0001
1000
0001
0010
0001
0010
0100
,
1000
0000
1000
0000
0001
0000
1000
0001
1000
0000
0001
0000
1000
0000
0001
0100
,
0001
0010
0100
1000
0001
0010
0100
1000
0010
0100
0001
0100
0010
1000
0100
0010
,
0001
1100
0010
0101
,
0010
0000
1100
0000
0010
0000
1001
0100
,
0010
1001
0010
1001
,
0100
0000
1001
0000
0010
0000
0101
0001
,
0010
1100
0010
0101
,
1000
0000
1100
0000
0001
0000
0011
0001
,
1000
1010
0001
0110
,
2000
0000
3200
0000
,
0310
0000
0011
0000
0100
1000
0010
0000
,
1001
0000
0110
0000
0001
1000
0010
0000
,
1001
0000
0001
0010
0100
1000
0100
0000
,
0001
0100
1000
0100
0010
0001
1000
0100
,
0011
0000
1100
0000
0001
0011
0000
0101
,
1000
1000
0000
0101
0000
1010
0000
0001
,
0010
0000
0001
0000
1000
0001
0100
0010
1000
0000
0001
0000
0010
0100
1000
0001
,
0020
0000
0032
0000
,
0203
0000
0000
0000
0000
0300
1000
0000
,
0020
0000
0000
0000
0000
0030
0001
0000
,
0020
0230
2300
3002
,
0203
0000
0000
0000
,
0000
0000
0000
0000
,
0300
0000
0000
0000
;

//---------------dance-single - ----------------
#NOTES:
     dance-single:
     :
     Challenge:
     18:
     0.764558,1.135437,0.520445,0.425030,0.646219,617.000000,557.000000,60.000000,49.000000,0.000000,0.000000,0.764558,1.135437,0.520445,0.425030,0.646219,617.000000,557.000000,60.000000,49.000000,0.000000,0.000000:
0000
0000
0000
0000
,
0002
0023
0230
1300
,
1001
0001
0100
0010
1000
0010
0001
0010
,
2100
0000
3000
0200
1000
0000
2300
0000
3002
0000
0000
0000
0103
0000
0100
0000
,
1001
0010
1000
0001
0100
0010
0100
0001
,
1010
0000
0000
0101
0000
0000
1100
0000
0022
0000
0000
0000
0033
0000
1000
0000
,
1001
0010
0100
1000
0010
0010
0100
0001
,
1001
0000
0000
0110
0000
0000
0101
0000
1001
0000
0000
0000
0010
0000
0100
0000
,
0110
0000
0000
0000
1001
1001
1001
0000
,
0010
0000
0000
0010
0000
0000
0010
0000
1000
0000
0001
0000
0100
0001
0010
0100
,
1000
0100
1000
0100
0010
0001
0010
0100
,
0100
1000
0010
0210
0000
0001
0000
0310
,
1010
0100
0001
0010
0100
1000
0001
0001
,
0110
1001
0000
0110
0000
0110
0000
0001
,
1100
0001
0010
0100
0010
0001
0010
1000
,
0010
0100
0001
0100
0001
1000
0100
0010
,
0110
0000
0001
1000
1010
1000
0010
0100
,
0012
2003
3200
0320
,
0031
0100
0001
1000
0100
0010
0100
0010
,
0110
0000
1001
0000
0110
0010
1001
0000
,
0001
0010
0001
1000
0100
1000
0100
1000
,
0101
0000
0000
0000
0011
0000
0000
0000
1200
0000
0000
0000
0310
0000
0010
0100
,
1001
0000
0110
0000
0011
0011
0000
1100
,
0110
0000
1001
0000
0000
0000
0110
0000
0000
0000
0101
0000
0001
1000
0001
1000
,
0001
0000
0000
0010
0000
0000
0100
0010
0001
1000
0001
1000
0100
0000
0000
1000
0000
0000
0001
0100
0010
1000
0001
1000
,
0002
0000
0000
0000
0000
0000
0000
0000
1000
0000
0000
1000
0000
1000
0000
0000
,
2003
0000
3000
0000
,
0000
0000
0000
0000
,
0000
0000
0000
0000
,
0000
0000
0000
0000
,
0001
1000
0100
0010
,
0002
0000
0000
2003
,
3001
0100
1000
0010
,
0002
0000
0000
1003
,
0200
0000
0000
0000
0000
0000
0000
0000
0000
0000
0000
0300
0010
0000
0000
0000
,
0002
0000
0000
0000
0000
0000
0000
0000
0000
0000
0000
0003
0100
0000
0000
0000
,
0020
2030
3200
0320
,
0032
0000
0000
0000
,
0000
0000
0203
0000
,
0300
0000
0000
0000
0000
0000
0000
0000
0000
0000
0000
0000
0000
0000
0000
0000
1000
0001
0000
0000
0110
0000
0000
0000
1001
0000
0000
0000
0110
0000
0000
0000
,
1100
0001
0100
0010
1000
0100
1000
0001
0100
0010
0100
0010
1000
0100
0010
0001
,
0100
0010
0100
0001
1000
0010
1000
0010
0100
0001
0010
0100
1000
0100
0010
0100
,
1000
0001
1000
0001
0100
0010
1000
0001
0100
0010
0100
0010
1000
0100
0010
0001
,
0100
0001
1000
0001
0100
0010
0100
0010
1000
0100
1000
0100
0010
0001
0010
0001
,
0100
0010
1000
0010
0100
0001
0100
0010
1000
0100
0010
0001
0010
0100
1000
0001
,
1000
0010
0100
0010
0100
0001
0010
0100
1000
0100
1000
0001
0010
0001
0100
0010
,
1000
0100
1000
0100
0010
0001
0100
0001
1000
0010
1000
0010
0100
0001
0010
0001
,
2000
3002
0023
2030
,
3100
0010
0100
0001
0010
0001
0010
0100
1000
0001
1000
0010
0100
0010
0100
0001
,
0010
0100
1000
0100
0010
0001
0010
0001
1000
0010
1000
0010
0100
0001
0100
0001
,
1000
0010
0100
0010
1000
0001
0010
0001
0100
0010
1000
0001
0100
0010
1000
0001
,
0010
0100
1000
0001
0010
0100
0010
0001
1000
0010
0100
0001
1000
0010
0100
0001
,
1000
0100
1000
0100
0010
0100
1000
0100
0010
0100
1000
0001
0010
0001
0100
0001
,
0010
0100
1000
0010
1000
0100
0010
0001
0010
0001
1000
0010
0100
0010
0100
0001
,
0010
0100
1000
0100
0001
0100
1000
0001
0010
0001
0100
0010
0001
1000
0100
0010
,
1000
0100
0010
0001
1000
0100
0010
0001
0100
0010
1000
0001
0100
0010
1000
0001
,
0100
0010
1000
0100
0010
0001
0010
0001
,
1000
0100
1000
0010
0100
0001
0010
0001
,
1001
0000
1000
0010
0100
0001
1000
0010
,
0100
0001
0010
0001
0010
0100
1000
0001
,
1001
0000
0010
0100
0001
1000
0100
0010
,
0001
0010
0001
1000
0010
0100
0001
1000
,
1001
0000
0010
1000
0010
1000
0100
0010
,
0012
0000
0203
1000
,
0302
0010
2003
0010
,
3200
0000
0010
0000
0302
0000
1000
1000
,
0023
1000
0001
1000
,
0100
0000
0000
0000
0001
0000
0000
0000
2030
0000
0000
0000
3001
0000
0010
0001
,
0101
0000
1001
0000
0110
1100
0000
0101
,
1010
1010
0000
0110
0000
0101
0000
1010
,
0100
0000
0000
1000
0000
0000
0001
0010
0001
0100
0001
0010
0100
0000
0000
1000
0000
0000
0001
0100
0001
1000
0010
1000
,
0200
0000
2300
0000
,
3020
0000
0000
0000
0000
0030
0001
0000
,
0200
0000
0000
0000
0000
0300
1000
0000
,
0200
0320
0032
2003
,
3020
0000
0000
0000
,
0000
0000
0000
0000
,
0030
0000
0000
0000
;

//---------------dance-double - ----------------
#NOTES:
     dance-double:
     :
     Easy:
     10:
     0.333333,0.434138,0.147459,0.208178,0.000000,269.000000,252.000000,17.000000,24.000000,0.000000,0.000000,0.333333,0.434138,0.147459,0.208178,0.000000,269.000000,252.000000,17.000000,24.000000,0.000000,0.000000:
00000000
00000000
00000000
00000000
,
00000000
00000000
00000000
00000000
,
00001000
00010000
00001000
00010000
,
00100000
01000000
10010000
00000000
,
10000000
00100000
10000000
00100000
,
01000000
00001000
00011000
00000000
,
00010000
00000100
00010000
00000100
,
00001000
00000010
00001001
00000000
,
00000110
00000000
00001001
00000000
,
00000010
00000010
00000100
00000100
,
00000001
00000010
00000100
00001000
,
00000010
00010000
00000000
00010000
00000000
00010000
00000000
00000000
,
00000100
00001000
00010000
01000000
,
00001000
00010000
00000000
00001000
00000000
00010000
00000000
00000000
,
00100000
10000000
00100000
10000000
,
00010000
00100000
00000000
00100000
00000000
00100000
00000000
00000000
,
00011000
00000000
00010100
00000000
,
00000100
00010000
00001000
00010000
,
00001000
00100000
01000000
10000000
,
00100000
01000000
00010000
00010000
,
00100000
00001000
00000100
00000010
,
00000100
00000001
00000010
00000010
,
00001001
00000000
00000010
00000000
00000100
00000001
00000000
00000100
,
00000010
00001000
00000000
00000100
00000000
00000100
00000000
00000000
,
00002000
00000000
00003002
00000000
,
00001003
00000000
00000000
00000000
,
00000020
00000000
00000000
00000000
,
00000030
00000000
00000000
00000000
,
00000000
00000000
00000000
00000000
,
00000000
00000000
00000000
00000000
,
00000001
00000010
00000100
00001000
,
00020000
00000000
00000000
00030000
,
10000000
01000000
00100000
00010000
,
00002000
00000000
00000000
00003100
,
00020000
00000000
00000000
00030010
,
00000200
00000000
00000000
00000000
00000000
00000300
00000010
00000000
,
00002000
00023000
00230000
02300000
,
23000000
00000000
00000000
00000000
,
00000000
00000000
30020000
00000000
,
00030000
00000000
00000000
00000000
00000000
01000000
01000000
01000000
,
00010000
00100000
01000000
00000000
10000000
00000000
00100000
00000000
,
01000000
00010000
00100000
00010000
,
00001000
00000100
00001000
00000000
00000010
00000000
00000100
00000000
,
00000001
00000010
00000100
00000000
,
00000010
00000001
00000010
00000000
00000100
00000000
00001000
00000000
,
00000010
00000100
00000010
00001000
,
00000100
00000010
00000100
00000000
00010000
00000000
00001000
00000000
,
00101000
00000000
01010000
00000000
,
10000000
00000000
01000000
00000000
10000000
00100000
01000000
00000000
,
00010000
00000000
00100000
00000000
00001000
00010000
00001000
00000000
,
00100000
00000000
01000000
00000000
10000000
01000000
10000000
00000000
,
00100000
01000000
00010000
00000000
00110000
00000000
00000000
00000000
,
00001000
00000000
00010000
00000000
00000100
00010000
00001000
00000000
,
00100000
00000000
00010000
00000000
00100000
00001000
00010000
00000000
,
00010100
00000000
00101000
00000000
,
00010000
01010000
11000000
10100000
,
10000000
01000000
10000000
00100000
,
10000000
00000000
01000000
00000000
00100000
00000000
00010000
01000000
,
00010000
00100000
01000000
00100000
,
00001000
00000000
00100000
00000000
00010000
00000000
00001000
00000100
,
00001000
00000010
00001000
00000001
,
00000010
00000000
00000100
00000000
00000010
00000000
00000001
00000100
,
00000010
00001000
00000100
00000010
,
00000200
00000000
00001000
00000000
,
00020300
00001000
00030200
00001000
,
00020300
00000100
00032000
00010000
,
02003000
00100000
00010000
00100000
,
00010000
00010000
03200000
01000000
,
10300000
00000000
01000000
00000000
10000000
00100000
00000000
01000000
,
00010000
01000000
00000000
01000000
00000000
00100000
00000000
00010000
,
00001000
00010000
00000100
00000000
00010000
00001000
01000000
00000000
,
00002000
00000000
00013000
00000000
,
00021000
00000000
00000000
00030000
,
00002000
00000000
00000000
00003000
,
00100000
01000000
00100000
00001000
,
00000200
00000000
00000000
00000000
,
00000000
00000000
00000000
00000000
,
00000300
00000000
00000000
00000000
;

//---------------dance-double - ----------------
#NOTES:
     dance-double:
     :
     Medium:
     13:
     0.468400,0.601114,0.320941,0.433704,0.030359,378.000000,341.000000,37.000000,50.000000,0.000000,0.000000,0.468400,0.601114,0.320941,0.433704,0.030359,378.000000,341.000000,37.000000,50.000000,0.000000,0.000000:
00000000
00000000
00000000
00000000
,
00000020
00002030
00003020
00020030
,
00031000
00010000
00001000
00010000
,
00100000
00000000
00000000
00100000
00000000
00000000
01000000
00000000
00100000
00000000
00000000
00000000
00000000
00000000
00000000
00000000
,
10000000
01000000
10000000
01000000
,
00110000
01010000
00011000
00000000
,
00001000
00010000
00001000
00010000
,
00000100
00000000
00000000
00000100
00000000
00000000
00001000
00000000
00000100
00000000
00000000
00000000
00000000
00000000
00000000
00000000
,
00000101
00000000
00000000
00000000
00000001
00001000
00000110
00000000
,
00000100
00000000
00000000
00000100
00000000
00000000
00000100
00000000
00000001
00000000
00000010
00000000
00000001
00001000
00000001
00000000
,
00001000
00001000
00000010
00000100
,
00001000
00010000
00000000
00010100
00000000
00001100
00000000
00001000
,
00010000
01000000
00100000
01000000
,
00001000
00010000
00000000
00011000
00000000
00010100
00000000
00000100
,
00010000
00001000
00100000
01000000
,
00100000
00001000
00000000
00110000
00000000
00010100
00000000
00010000
,
00000100
00001100
01000000
01001000
,
00002000
00023000
00230000
20300000
,
31000000
10000000
01000000
10000000
00100000
10000000
00100000
10000000
,
00010000
00110000
01000000
01010000
,
00001000
00010000
00001000
00010000
00000100
00010000
00000100
00010000
,
00001000
00000000
00110000
00000000
00001000
00000000
00010100
00010000
,
00000100
00000000
00010000
00000000
00000100
00001000
00000000
00000010
,
00000100
00000001
00000000
00000001
00000000
00000010
00000000
00000100
,
00001000
00010000
00100000
00000000
00010000
01000000
10000000
00000000
,
00000000
00000000
00000000
00000000
00000000
00000000
00000000
00000000
00010000
00000000
00000000
00010000
00000000
00001000
00000000
00000000
,
00022000
00000000
00000000
00000000
,
00033000
00000000
00000000
00000000
,
00000000
00000000
00000000
00000000
,
00000000
00000000
00000000
00000000
,
00002000
00023000
00230000
02300000
,
03020000
00000000
00000000
00230000
,
02300000
23000000
30200000
02300000
,
03020000
00000000
00000000
00100000
,
00032000
00000000
00000000
00000010
,
00023000
00000000
00000000
01000000
,
00032000
00003200
00000320
00000032
,
00000203
00000000
00000000
00000000
,
00000000
00000000
00000320
00000000
,
00000030
00000000
00000000
00000000
00000000
00000000
00000000
00000000
00000000
00000000
00000000
00000000
00000000
00000000
00000000
00000000
00000100
00000010
00000000
00000000
00000100
00000000
00000000
00000000
00000100
00000000
00000000
00000000
00000100
00000000
00000000
00000000
,
00000001
00000010
00000100
00001000
00000010
00000100
00001000
00010000
,
00000100
00001000
00010000
00100000
00010000
01000000
00100000
01000000
,
00010000
01000000
10000000
01000000
00010000
00100000
10000000
00100000
,
00010000
01000000
00100000
00010000
00001000
01000000
00010000
10000000
,
10000000
01000000
00100000
00010000
01000000
00100000
00010000
00001000
,
00100000
00010000
00001000
00000100
00001000
00000010
00000100
00000010
,
00001000
00000010
00000001
00000010
00001000
00000100
00000001
00000100
,
00002000
00023000
02030000
03200000
,
10300000
00100000
00010000
00001000
00010000
00000010
00000100
00000001
,
00001000
00000100
00010000
00001000
00010000
00100000
10000000
01000000
,
00100000
00001000
00010000
00100000
10000000
01000000
00010000
00001000
,
00000100
00000010
00001000
00000001
00000100
00000010
00000100
00000010
,
00001001
00000010
00000100
00001000
00010000
00100000
01000000
10000000
,
10000000
01000000
00100000
00010000
00001000
00000100
00000010
00000001
,
00000001
00000100
00000010
00001000
00010000
01000000
00100000
10000000
,
10000000
10100000
01100000
01010000
,
00012000
01000000
00100000
00010000
,
00100000
01000000
00100000
00100000
,
00023000
00000100
00000010
00000100
,
00001000
00000100
00000010
00000010
,
00030200
00000010
00001000
00010000
,
00001000
00000010
00001000
00001000
,
00020300
00100000
00001000
00000010
,
00031000
00000000
00002000
00000000
,
00013000
00011000
00100000
00110000
,
10000000
00000000
11000000
00000000
00100000
00000000
00011000
00000100
,
00000010
00000101
00000010
00010010
,
00001000
00000000
00001100
00000000
00010000
00000000
00110000
01000000
,
10010000
00000000
10010000
00000000
00100000
01010000
00000000
00100000
,
00001000
00110000
00000000
00101000
00000000
00101000
00000000
00001000
,
00010000
00000100
00000020
00000000
00001030
00010000
00200000
00000000
,
00310000
00000000
00002000
00000000
,
00023000
00000000
00000000
00000000
00000000
00000000
00000000
00000000
00000000
00000000
00000000
00030000
00002000
00000000
00000000
00000000
,
00023000
00000000
00000000
00000000
00000000
00000000
00000000
00000000
00000000
00000000
00000000
00030000
00002000
00000000
00000000
00000000
,
00203000
02300000
03200000
00302000
,
00003200
00000000
00000000
00000000
,
00000000
00000000
00000000
00000000
,
00000300
00000000
00000000
00000000
;

//---------------dance-double - ----------------
#NOTES:
     dance-double:
     :
     Hard:
     16:
     0.636925,1.035251,0.364311,0.459726,0.364311,514.000000,472.000000,42.000000,53.000000,0.000000,0.000000,0.636925,1.035251,0.364311,0.459726,0.364311,514.000000,472.000000,42.000000,53.000000,0.000000,0.000000:
00000000
00000000
00000000
00000000
,
00000020
00000230
00000320
00020030
,
00031000
00010000
00001000
00010000
,
00101000
00000000
00000000
00110000
00000000
00000000
01000000
00000000
10000000
00000000
00000000
00000000
00010000
00000000
00010000
00000000
,
00100000
01000000
00100000
01000000
,
10010000
01100000
10010000
00000000
,
00010000
00001000
00010000
00000100
,
00001100
00000000
00000000
00001001
00000000
00000000
00000010
00000000
00000100
00000000
00000000
00000000
00000000
00000000
00000000
00000000
,
00000110
00000000
00000000
00000000
00000100
00000110
00001001
00000000
,
00000010
00000000
00000000
00000010
00000000
00000000
00000010
00000000
00001000
00000000
00000100
00000000
00010000
00000100
00001000
00000100
,
00010000
00100000
10000000
01000000
00100000
00010000
10000000
00100000
,
00010000
00001000
01000000
01010000
00000000
01100000
00000000
01000000
,
10010000
01000000
00100000
00010000
00001000
00000010
00001000
00010000
,
00011000
00011000
00000000
01001000
00000000
00001010
00000000
00000010
,
00000101
00000010
00001000
00000100
00000001
00000100
00001000
00010000
,
00100000
00001000
00100000
00110000
00000000
01100000
00000000
10000000
,
01100000
00000000
00010000
10000000
01100000
00100000
01000000
00010000
,
00002000
00003020
00000230
00000302
,
00001003
00000100
00001000
00000100
00100000
00001000
00100000
00001000
,
01010000
00000000
10100000
00000000
00100000
00010000
00001000
00000000
,
00011000
00000000
00010000
00000100
00000010
00000100
00010000
00001000
,
00000010
00000000
00000001
00000000
00000100
00000000
00000001
00000000
00010000
00000000
00000100
00000000
00001000
00000000
00000100
00010000
,
00001000
00000000
00011000
00000000
00010000
00011000
00000000
00001000
,
00011000
00000000
00011000
00000000
00000000
00000000
00101000
00000000
00000000
00000000
01001000
00000000
00010000
00100000
00010000
00000000
,
10000000
00000000
10000000
00000000
00010000
00100000
01000000
10000000
00100000
00000000
01000000
00000000
00001000
00010000
00100000
01000000
,
10000000
00000000
00000000
00000000
00000000
00000000
00000000
00000000
00010000
00000000
00000000
00001000
00000000
00001000
00000000
00000000
,
00022000
00000000
00000000
00000000
,
00033000
00000000
00000000
00000000
,
00000000
00000000
00000000
00000000
,
00000000
00000000
00000000
00000000
,
00002000
00023000
00230000
02300000
,
03020000
00000000
00000000
00230000
,
02300000
23000000
30200000
02300000
,
03020000
00000000
00000000
00100000
,
00032000
00000000
00000000
00000010
,
00023000
00000000
00000000
01000000
,
00032000
00003200
00000320
00000032
,
00000203
00000000
00000000
00000000
,
00000000
00000000
00000320
00000000
,
00000030
00000000
00000000
00000000
00000000
00000000
00000000
00000000
00000000
00000000
00000000
00000000
00000000
00000000
00000000
00000000
00000100
00000010
00000000
00000000
00001001
00000000
00000000
00000000
00000110
00000000
00000000
00000000
00001001
00000000
00000000
00000000
,
00000001
00000010
00000001
00000010
00000001
00000000
00001000
00000000
00000010
00001000
00000010
00001000
00000010
00000000
00010000
00000000
,
00001000
00100000
00001000
00100000
00001000
00000000
01000000
00000000
00100000
10000000
01000000
00000000
10000000
00010000
01000000
00000000
,
00100000
10000000
00100000
10000000
00100000
00000000
01000000
00000000
00010000
01000000
00010000
01000000
00010000
00000000
00100000
00000000
,
00001000
00010000
00001000
00010000
00001000
00000000
00010000
00000000
00000100
00001000
00000010
00000000
00000110
00000000
00000000
00000000
,
00000010
00000100
00000010
00000100
00000001
00000000
00001000
00000000
00000010
00001000
00000010
00001000
00000100
00000000
00010000
00000000
,
00001000
01000000
00001000
01000000
00100000
00000000
10000000
00000000
00010000
01000000
00100000
00000000
10000000
01000000
00100000
00000000
,
00010000
01000000
00010000
10000000
01000000
00000000
00100000
00000000
00001000
01000000
00010000
00100000
01000000
00000000
00100000
00000000
,
00012000
00000000
00000000
00003000
00020000
00000000
00000000
00000000
00030020
00000000
00000000
00000000
00000230
00000000
00000000
00000000
,
00000301
00000010
00000100
00001000
00000100
00000010
00000001
00000010
00000100
00000000
00001000
00000000
00000100
00000000
00010000
00000000
,
00001000
00100000
00010000
00100000
00001000
00100000
00001000
00100000
00010000
00000000
10000000
00000000
00100000
00000000
00010000
00000000
,
00100000
10000000
00010000
01000000
00100000
10000000
00010000
00100000
01000000
00000000
10000000
00000000
00100000
00000000
01000000
00000000
,
00001000
00010000
00001000
00010000
00000100
00001000
00000100
00001000
00000002
00000000
00000000
00000000
00002003
00000000
00000000
00000000
,
00003010
00001000
00000100
00001000
00000010
00001000
00000100
00001000
00000010
00000000
00000100
00000000
00001000
00000000
00010000
00000000
,
00100000
01000000
00001000
01000000
00100000
01000000
00001000
01000000
00100000
00000000
10000000
00000000
01000000
00000000
00010000
00000000
,
00001000
00010000
00001000
00010000
00000100
00000000
00010000
00001000
00010000
00001000
01000000
00000000
00001000
00010000
00001000
00010000
,
00000010
00001000
00000001
00000100
00000010
00001000
00000001
00000100
00000010
00001000
00000001
00000100
00000010
00001000
00000001
00000100
,
00000010
00000000
00001000
00010000
00100000
10000000
00100000
00010000
,
00001000
00000000
00010000
00001000
00000100
00000001
00000100
00001000
,
00010000
00100000
00010000
00001000
00010000
01000000
00010000
00001000
,
00000100
00000010
00000100
00001000
00000100
00010000
00000100
00000100
,
00001000
00010000
01000000
10000000
01000000
00100000
10000000
00010000
,
00100000
00001000
00000100
00000001
00000100
00000010
00001000
00010000
,
10000000
01000000
00010000
01000000
10000000
00100000
00010000
00100000
,
20000000
00000000
01000000
00000000
,
30020000
10000000
00032000
01000000
,
00003020
00010000
00000230
00010000
,
00002300
00000010
00000100
00010000
,
00100000
00000000
00000000
00000000
01000000
00000000
00000000
00000000
00023000
00000000
00000000
00000000
00031000
00000000
00010000
00001000
,
00010000
00000000
00011000
00000000
00010000
00101000
00000000
00001000
,
00100000
01010000
00000000
00110000
00000000
10010000
00000000
00100000
,
10000000
00000000
00100000
00000000
01000000
00100000
00010000
00001000
00000010
00000000
00000100
00000000
00000010
00000100
00001000
00010000
,
02000000
00000000
03002000
00000000
,
00023000
00000000
00000000
00000000
00000000
00000000
00000000
00000000
00000000
00000000
00000000
00030000
00002000
00000000
00000000
00000000
,
00023000
00000000
00000000
00000000
00000000
00000000
00000000
00000000
00000000
00000000
00000000
00030000
00002000
00000000
00000000
00000000
,
00203000
02300000
03200000
00302000
,
00003200
00000000
00000000
00000000
,
00000000
00000000
00000000
00000000
,
00000300
00000000
00000000
00000000
;

//---------------dance-double - ----------------
#NOTES:
     dance-double:
     :
     Challenge:
     18:
     0.710035,1.102042,0.407682,0.425030,0.490086,573.000000,526.000000,47.000000,49.000000,0.000000,0.000000,0.710035,1.102042,0.407682,0.425030,0.490086,573.000000,526.000000,47.000000,49.000000,0.000000,0.000000:
// measure 0
00000000
00000000
00000000
00000000
,  // measure 1
00000002
00002003
00003002
00000203
,  // measure 2
00000310
00000100
00000010
00000100
00000001
00000010
00000100
00000010
,  // measure 3
00001001
00000000
00000000
00000100
00000010
00000000
00000100
00000000
00000100
00000000
00000000
00000000
00000010
00000000
00000010
00000000
,  // measure 4
00001000
00000100
00001000
00010000
00100000
10000000
00010000
01000000
,  // measure 5
01100000
00000000
00000000
10000000
00010000
00000000
01000000
00000000
10010000
00000000
00000000
00000000
00100000
00000000
00100000
00000000
,  // measure 6
10000000
01000000
00010000
00001000
00100000
00010000
00100000
01000000
,  // measure 7
00110000
00000000
00000000
01000000
00010000
00000000
00010000
00000000
01000000
00000000
00000000
00000000
00010000
00000000
10000000
00000000
,  // measure 8
01100000
00000000
00000000
00000000
10010000
10010000
10010000
00000000
,  // measure 9
01000000
00000000
00000000
01000000
00000000
00000000
01000000
00000000
00100000
00000000
00100000
00000000
01000000
00100000
00010000
00001000
,  // measure 10
00010000
01000000
10000000
00100000
01000000
00010000
00100000
01000000
,  // measure 11
10000000
10100000
00000000
00110000
00000000
00011000
00000000
00010000
,  // measure 12
00010100
00001000
00000010
00000001
00001000
00000100
00000001
00000010
,  // measure 13
00001100
00000110
00000000
00010100
00000000
00110000
00000000
00001000
,  // measure 14
01010000
00100000
10000000
01000000
00010000
00001000
00000100
00000001
,  // measure 15
00000010
00001000
00000001
00000100
00001000
00010000
01000000
10000000
,  // measure 16
00010000
00100000
10000000
01000000
00010000
01000000
10000000
00100000
,  // measure 17
02100000
03020000
00032000
00003200
,  // measure 18
00000310
00000001
00000010
00000001
00010000
00000100
00010000
00000100
,  // measure 19
00001010
00000000
00010100
00000000
00001000
00010000
01000000
00000000
,  // measure 20
10100000
00000000
10000000
01000000
00010000
00001000
00000100
00001000
,  // measure 21
00100000
00000000
00010000
00000000
00000010
00000000
00001000
00000000
00100000
00000000
00010000
00000000
00001000
00000000
00000010
00000100
,  // measure 22
00000110
00000000
00000110
00000000
00001001
00001001
00000000
00000110
,  // measure 23
00001100
00000000
00011000
00000000
00000000
00000000
00110000
00000000
00000000
00000000
00011000
00000000
00001000
00010000
00000100
00010000
,  // measure 24
00001000
00000000
00001000
00000000
01000000
00100000
00010000
00001000
00000100
00000000
00000010
00000000
00000100
00001000
00010000
00100000
,  // measure 25
10000000
00000000
00000000
00000000
00000000
00000000
00000000
00000000
00010000
00000000
00000000
00001000
00000000
00001000
00000000
00000000
,  // measure 26
00022000
00000000
00000000
00000000
,  // measure 27
00033000
00000000
00000000
00000000
,  // measure 28
00000000
00000000
00000000
00000000
,  // measure 29
00000000
00000000
00000000
00000000
,  // measure 30
00000200
00002300
00023000
20030000
,  // measure 31
30200000
00000000
00000000
02300000
,  // measure 32
03020000
00030200
00000320
00002030
,  // measure 33
00023000
00000000
00000000
10000000
,  // measure 34
00032000
00000000
00000000
00000001
,  // measure 35
00023000
00000000
00000000
10000000
,  // measure 36
00032000
00000001
00000010
00000100
,  // measure 37
00023000
00000000
00000000
00000000
,  // measure 38
00000000
00000000
00032000
00000000
,  // measure 39
00003000
00000000
00000000
00000000
00000000
00000000
00000000
00000000
00000000
00000000
00000000
00000000
00000000
00000000
00000000
00000000
00000100
00000010
00000000
00000000
00001001
00000000
00000000
00000000
00000110
00000000
00000000
00000000
00001001
00000000
00000000
00000000
,  // measure 40
00000001
00000100
00000010
00000100
00000001
00001000
00000010
00001000
00000100
00010000
00001000
00010000
00001000
00100000
00010000
00100000
,  // measure 41
00010000
01000000
00100000
01000000
00010000
00000000
10000000
00000000
01000000
00000000
00010000
00000000
01000000
00000000
10000000
00000000
,  // measure 42
00100000
01000000
00100000
10000000
00010000
01000000
00010000
00100000
00001000
00010000
00001000
00010000
00000100
00001000
00000100
00001000
,  // measure 43
00000010
00000100
00000010
00001000
00000001
00000010
00000100
00001000
00000100
00000010
00000001
00000100
00000001
00000100
00000001
00000100
,  // measure 44
00000010
00001000
00000100
00001000
00000010
00001000
00000010
00000100
00000001
00000010
00000100
00001000
00010000
00100000
01000000
10000000
,  // measure 45
00100000
01000000
00010000
01000000
00100000
01000000
00010000
00100000
00010000
10000000
01000000
00100000
00010000
00001000
00000100
00000010
,  // measure 46
00000001
00000000
00000100
00000000
00001000
00000000
00000001
00000000
00000010
00000000
00001000
00000000
00000100
00010000
00000010
00010000
,  // measure 47
00002000
00023000
02030000
23000000
,  // measure 48
30010000
01000000
00100000
01000000
00010000
10000000
01000000
00010000
01000000
10000000
00010000
01000000
00010000
00100000
01000000
10000000
,  // measure 49
00010000
00100000
00001000
00010000
01000000
00010000
00001000
00100000
00010000
00000000
00001000
00000000
00000100
00000000
00000010
00000000
,  // measure 50
00000001
00001000
00000100
00001000
00000001
00000010
00001000
00000010
00000001
00000100
00000010
00001000
00000001
00000100
00000010
00001000
,  // measure 51
00000100
00010000
00001000
00000100
00001000
00010000
00000100
00001000
00010000
00000000
00100000
00000000
01000000
00000000
10000000
00000000
,  // measure 52
00010000
01000000
00001000
00100000
00010000
01000000
00001000
00100000
00010000
01000000
10000000
01000000
00010000
00100000
10000000
00100000
,  // measure 53
00010000
00100000
01000000
00100000
00010000
00001000
00000100
00000010
,  // measure 54
00000100
00001000
00010000
00001000
00000010
00000100
00000010
00001000
00000100
00010000
00001000
00000100
00000010
00001000
00000010
00000100
,  // measure 55
00000001
00000010
00000100
00001000
00000010
00000100
00001000
00010000
00000100
00001000
00010000
00100000
00001000
00010000
00100000
01000000
,  // measure 56
10000000
01000000
00010000
00100000
01000000
10000000
01000000
00010000
,  // measure 57
00001000
00000100
00000001
00000010
00000100
00001000
00010000
01000000
,  // measure 58
10100000
00000000
01000000
00010000
01000000
10000000
01000000
00010000
,  // measure 59
00100000
00010000
00001000
00000100
00000010
00001000
00000001
00000100
,  // measure 60
00000110
00000000
00000010
00000001
00000100
00001000
00010000
01000000
,  // measure 61
10000000
00100000
10000000
01000000
00010000
00001000
00000100
00000001
,  // measure 62
00000011
00000000
00000001
00000100
00001000
00010000
01000000
10000000
,  // measure 63
00020000
00000000
00230000
01000000
,  // measure 64
20300000
00010000
30200000
01000000
,  // measure 65
00302000
00000000
01000000
00000000
00003200
00000000
00000010
00000001
,  // measure 66
00002300
00010000
00100000
01000000
,  // measure 67
00023000
00000000
00000000
00000000
00100000
00000000
00000000
00000000
00001000
00000000
00000000
00000000
00030100
00000000
00010000
00001000
,  // measure 68
00011000
00000000
00011000
00000000
01010000
00011000
00000000
00001100
,  // measure 69
00011000
01010000
00000000
10100000
00000000
01010000
00000000
00001000
,  // measure 70
00011000
00000000
00000100
00000000
00000001
00000100
00001000
00010000
01000000
00000000
10000000
00000000
01000000
00010000
00001000
00000100
,  // measure 71
00000002
00000000
00000023
00000000
,  // measure 72
00002030
00000000
00000000
00000000
00000000
00000000
00000000
00000000
00000000
00000000
00000000
00003000
00020000
00000000
00000000
00000000
,  // measure 73
00032000
00000000
00000000
00000000
00000000
00000000
00000000
00000000
00000000
00000000
00000000
00003000
00020000
00000000
00000000
00000000
,  // measure 74
00230000
02300000
03200000
00302000
,  // measure 75
00003200
00000000
00000000
00000000
,  // measure 76
00000000
00000000
00000000
00000000
,  // measure 77
00000300
00000000
00000000
00000000
;
