#VERSION:0.83;
#TITLE:Final Boss;
#SUBTITLE:;
#ARTIST:Thaehan;
#TITLETRANSLIT:;
#SUBTITLETRANSLIT:;
#ARTISTTRANSLIT:;
#GENRE:;
#ORIGIN:;
#CREDIT:;
#BANNER:Final Boss-bn.jpg;
#BACKGROUND:Final Boss-bg.jpg;
#PREVIEWVID:;
#JACKET:Final Boss-jacket.jpg;
#CDIMAGE:;
#DISCIMAGE:;
#LYRICSPATH:;
#CDTITLE:;
#MUSIC:Final Boss.mp3;
#OFFSET:1.676000;
#SAMPLESTART:7.455000;
#SAMPLELENGTH:15.000000;
#SELECTABLE:YES;
#BPMS:0.000=130.000,
92.000=65.000,
108.000=130.000,
138.000=65.000,
139.000=130.000,
186.000=65.000,
186.500=130.000;
#STOPS:72.000=0.116,
72.250=0.115,
72.500=0.116,
72.750=0.115,
73.000=0.116,
73.250=0.115,
73.500=0.116,
73.750=0.115,
78.000=0.116,
78.250=0.115,
78.500=0.116,
78.750=0.115,
79.000=0.116,
79.250=0.115,
79.500=0.116,
79.750=0.115,
84.000=0.116,
84.250=0.115,
84.500=0.116,
84.750=0.115,
85.000=0.116,
85.250=0.115,
85.500=0.116,
85.750=0.115,
90.000=0.116,
90.250=0.115,
90.500=0.116,
90.750=0.115,
91.000=0.116,
91.250=0.115,
91.500=0.116,
91.750=0.115;
#DELAYS:;
#WARPS:;
#TIMESIGNATURES:0.000=4=4;
#TICKCOUNTS:0.000=4;
#COMBOS:0.000=1;
#SPEEDS:0.000=1.000=0.000=0;
#SCROLLS:0.000=1.000;
#FAKES:;
#LABELS:0.000=Song Start;
#BGCHANGES:;
#KEYSOUNDS:;
#ATTACKS:
;

//---------------dance-single - ----------------
#NOTEDATA:;
#CHARTNAME:;
#STEPSTYPE:dance-single;
#DESCRIPTION:;
#CHARTSTYLE:;
#DIFFICULTY:Beginner;
#METER:4;
#RADARVALUES:0.168863,0.215142,0.042216,0.075988,0.000000,140.000000,135.000000,5.000000,9.000000,0.000000,0.000000,0.000000,0.000000,0.000000,0.168863,0.215142,0.042216,0.075988,0.000000,140.000000,135.000000,5.000000,9.000000,0.000000,0.000000,0.000000,0.000000,0.000000;
#CREDIT:;
#NOTES:
0000
0000
0000
0000
,
0000
0000
0000
0000
,
0000
0000
0000
0000
,
0000
0000
0000
0000
,
0000
0000
0000
0000
,
1001
1000
0000
0001
,
0000
0100
0000
0010
,
1000
0010
0000
0100
,
0000
0100
0000
0001
,
1000
0001
0000
0001
,
0000
0100
0000
0100
,
0010
1000
0000
1000
,
0001
0000
0001
0000
,
0100
0010
0100
0000
,
0100
0000
0100
0000
,
0001
1000
0001
0000
,
1000
0000
0001
0100
,
0010
0010
1000
0001
,
2000
0000
3000
0001
,
0000
1000
0020
0000
,
0030
0100
0000
0001
,
2000
0000
3000
0001
,
0000
0010
0002
0000
,
0003
0000
0000
0000
,
0000
0000
0000
0000
,
0200
0000
0000
0000
,
0020
0000
0000
0330
,
0001
1000
0001
1000
,
0010
0010
0100
0100
,
0001
1000
0001
1000
,
0100
0100
0010
0010
,
0001
1000
0010
1000
,
0001
0001
1000
1000
,
0010
0100
0001
1000
,
0010
0100
0002
0103
,
0100
0010
0000
1000
,
0000
0001
0000
1000
,
0001
1000
0000
0010
,
0100
0010
0000
1001
,
0000
1001
0000
0110
,
0000
0110
0000
0001
,
0001
1000
1000
0001
,
1000
0001
0000
0100
,
0000
0010
0000
0100
,
0000
0010
0000
0100
,
0010
0100
0010
1000
,
0001
0000
1000
0000
0002
0103
0000
0010
,
0000
0000
0000
0010
0000
0000
0000
1000
,
0000
0000
0000
1000
0000
0100
0000
0010
,
0000
0000
0000
0010
0000
0000
0000
0001
,
0000
0000
0000
0001
0000
1000
0000
0100
,
0000
0000
0000
0100
0000
0000
0000
1000
,
0000
0000
0000
1000
0000
0010
0000
0100
,
0000
0000
0000
0100
0000
0001
0000
0001
,
0000
1000
0000
1000
0000
0020
0000
0000
,
0000
0000
0000
0000
,
0000
0000
0000
0000
0000
0030
0000
0000
;

//---------------dance-single - ----------------
#NOTEDATA:;
#CHARTNAME:;
#STEPSTYPE:dance-single;
#DESCRIPTION:;
#CHARTSTYLE:;
#DIFFICULTY:Easy;
#METER:9;
#RADARVALUES:0.301542,0.430285,0.244852,0.092875,0.004222,250.000000,221.000000,29.000000,11.000000,0.000000,0.000000,0.000000,0.000000,0.000000,0.301542,0.430285,0.244852,0.092875,0.004222,250.000000,221.000000,29.000000,11.000000,0.000000,0.000000,0.000000,0.000000,0.000000;
#CREDIT:;
#NOTES:
0000
0000
0000
0000
,
0000
0000
0000
0000
,
0000
0000
0000
0000
,
0000
0000
0000
0000
,
0000
0000
0000
0000
,
1001
0010
0001
0100
,
0001
0010
0100
0100
,
1000
0001
0100
0010
,
0100
0001
1000
1000
,
0110
0100
1000
0100
,
0001
0010
0001
1000
,
0100
0010
0001
1000
,
0010
0010
0100
0100
,
0001
0010
0100
0100
,
0010
0010
0100
0100
,
0001
1000
0010
0010
,
0100
0100
0010
0010
,
0001
1001
0000
1001
,
0100
0100
0010
0010
1000
0000
1001
0000
,
0000
0000
1001
0000
0001
0010
0001
0010
,
0100
1100
0000
1010
,
1000
0010
0100
0001
0010
0000
0011
0000
,
0000
0000
0101
0000
0001
1000
0010
0100
,
0002
0000
2003
0000
3020
0100
2030
0000
,
3200
0320
0032
0203
,
0310
0010
1000
1000
0100
0100
0010
0010
,
0001
0000
1000
0000
0001
0000
1000
0000
0010
0000
0100
0000
0010
0100
0010
0000
,
0001
1001
1000
0110
,
0001
0110
1000
0110
,
0001
0011
1000
1001
,
0010
0000
0110
0000
1000
0001
1000
0000
,
0001
0011
0100
0101
,
0010
1010
1000
1100
,
0001
0101
1000
1001
,
0010
0000
0110
0000
0002
0000
1003
0100
,
1000
0010
0100
0001
,
0010
0001
1000
0000
0100
0000
0001
0000
,
0100
0000
1000
0000
0100
1000
0010
0000
,
0100
0010
0100
0001
,
0001
0000
1000
0001
1000
0000
0010
0000
,
0010
0000
0001
0100
0001
0000
0100
0000
,
1100
0000
0010
0000
0011
0000
1000
0001
,
1000
0001
0100
0000
0100
0000
0010
0000
,
0000
0010
0000
0100
,
0000
0100
0000
0010
,
0100
0000
0010
0000
0100
0000
0001
1000
,
0001
1000
0010
0100
0001
1001
0000
0100
,
0000
0001
0000
1000
0000
0100
0000
1000
,
0000
0010
0000
0100
0000
0001
0000
0010
,
0000
0001
0000
0100
0000
0010
0000
0010
,
0000
1000
0000
1000
0000
0101
0000
0001
,
0000
1000
0000
0100
0000
0010
0000
0001
,
0000
1000
0000
1000
0000
0010
0000
0100
,
0000
0001
0000
0100
0000
0010
0000
1000
,
0000
0100
0000
0010
0000
2002
0000
0000
,
0000
0000
0000
0000
,
0000
0000
0000
0000
0000
3003
0000
0000
;

//---------------dance-single - ----------------
#NOTEDATA:;
#CHARTNAME:;
#STEPSTYPE:dance-single;
#DESCRIPTION:;
#CHARTSTYLE:;
#DIFFICULTY:Medium;
#METER:11;
#RADARVALUES:0.413715,0.572447,0.236409,0.109761,0.025329,343.000000,315.000000,28.000000,13.000000,0.000000,0.000000,0.000000,0.000000,0.000000,0.413715,0.572447,0.236409,0.109761,0.025329,343.000000,315.000000,28.000000,13.000000,0.000000,0.000000,0.000000,0.000000,0.000000;
#CREDIT:;
#NOTES:
0000
0000
0000
0000
,
0000
0000
0000
0000
,
0000
0000
0000
0000
,
0000
0000
0000
0000
,
0000
0000
0000
0000
,
0001
0000
1010
0000
1000
0001
0100
0000
,
0000
0001
0100
0000
0010
0010
0100
0000
,
0001
0000
1001
0000
0100
0010
0100
0000
,
1000
0010
0100
0001
1000
1000
0001
0001
,
0100
0000
1001
0000
0010
1000
0100
0000
,
0000
0001
1000
0000
0100
0100
0010
0000
,
0001
0000
1000
0000
0001
0010
0100
0000
,
1000
1000
0010
0010
0100
0100
0001
0001
,
1000
0100
0020
0130
,
0002
0103
2000
3100
,
0010
0100
0020
0031
,
0200
0000
1300
0000
0020
0000
0031
1000
,
0100
0000
1001
0000
0010
0100
1010
0000
,
0001
0101
1000
1010
0001
0000
0101
0000
,
1000
0010
1001
0000
0010
0001
0100
1001
,
0010
0000
0110
0000
1000
0001
1100
0000
,
0001
0101
1000
1001
0010
0000
0110
0000
,
0001
1000
0110
0000
0001
0100
0010
1000
,
1001
0000
0100
0000
0010
0000
1000
0000
0001
0001
1000
1000
0001
0001
0100
0000
,
0010
0001
0100
1000
0010
1000
0100
0010
,
0011
0001
1001
1100
1001
0001
0010
0100
,
1000
0000
0010
0000
0100
0000
0001
0000
1000
0001
0100
0001
1000
1000
0001
0000
,
0001
0100
0010
1000
0010
0100
0001
0010
,
0100
0100
1000
1000
0010
0010
0100
1000
,
0100
0001
1000
0100
0010
0001
1000
0100
,
0010
0001
0100
0010
0100
0100
0010
0010
,
1001
0100
0010
0001
0100
0010
1000
0100
,
0010
0010
0001
0001
0010
0010
0100
1000
,
0001
0100
0010
1000
0100
1000
0010
0001
,
0010
0100
0001
1000
0200
0000
0310
0001
,
0010
0100
1000
1000
0001
0100
0010
0000
,
0100
0010
0010
0000
1000
0100
0010
0000
,
0001
0000
0010
0000
0100
0100
1000
0000
,
0001
0000
0100
0000
0010
0000
0001
0100
,
0001
0000
1000
0100
1000
0000
0010
0100
,
0010
0000
0001
0010
0001
0000
1000
1000
,
1001
0000
0001
0001
0101
0000
0010
0100
,
0010
0100
0001
0000
0001
0000
2000
0000
,
3100
0002
0103
2000
,
3010
0000
0002
0000
0013
0000
1000
0100
,
1000
0100
0010
0001
0010
0001
1000
1000
,
0001
0001
1000
1000
0002
0013
0000
0101
,
0000
1000
0010
0100
0000
0000
0001
1000
,
0000
0100
0100
0010
0000
0001
0000
1010
,
0000
0100
0001
1000
0000
0100
0010
0001
,
1000
0010
0100
0001
1000
0100
0000
1100
,
0000
0010
0100
0001
0000
0000
0100
0010
,
0000
1000
1000
0001
0000
0100
0000
0110
,
0000
0001
0010
0100
0000
1000
1000
0001
,
0001
0010
0010
0100
0100
2000
0000
0000
,
0000
0000
0000
0000
,
0000
0000
3000
0000
;

//---------------dance-single - ----------------
#NOTEDATA:;
#CHARTNAME:;
#STEPSTYPE:dance-single;
#DESCRIPTION:;
#CHARTSTYLE:;
#DIFFICULTY:Hard;
#METER:14;
#RADARVALUES:0.730937,0.858670,0.101318,0.118204,0.882311,606.000000,594.000000,12.000000,14.000000,0.000000,0.000000,0.000000,0.000000,0.000000,0.730937,0.858670,0.101318,0.118204,0.882311,606.000000,594.000000,12.000000,14.000000,0.000000,0.000000,0.000000,0.000000,0.000000;
#CREDIT:;
#NOTES:
0000
0000
0000
0000
,
0000
0000
0000
0000
,
0000
0000
0000
0000
,
0000
0000
0000
0000
,
0000
0000
0000
0000
,
1000
0000
0010
0000
0100
0001
0100
0001
0100
0000
0010
0000
1000
0000
0100
0000
,
0000
0000
0001
0100
0010
1000
0100
0000
1000
0001
0100
0000
1001
0000
0010
0000
,
0100
0000
0001
0000
0010
0001
1000
0001
1000
0000
0010
0000
0100
0000
0001
0000
,
1000
0100
0010
0000
0001
0100
0010
0000
1000
0010
1000
0010
0100
0001
0100
0001
,
1000
0000
0100
0000
0010
0100
0010
0100
1000
0000
0001
0000
0100
0000
0010
0000
,
0000
0000
0100
0001
1000
0010
0100
0000
0001
1000
0001
0000
1100
0000
0010
0000
,
0001
0000
0100
0000
0010
1000
0010
1000
0010
0000
0100
0000
0001
0000
0010
0000
,
0100
1000
0100
0010
0001
0010
0001
1000
0100
1000
0100
1000
0010
0100
0010
0100
,
0001
0000
1000
0000
0010
0100
0010
0100
0002
0000
0013
0000
2000
0000
3010
0000
,
0002
0103
2000
3100
0002
1003
0200
0301
,
0100
0000
1000
0000
0010
0100
0010
0100
0002
0000
0103
0000
2000
0000
3100
0000
,
0002
0000
0013
0000
2000
0000
3010
0000
0200
0000
0301
0000
0200
0000
1300
1000
,
0010
0000
0100
0000
0001
1000
0010
0100
0010
0100
0001
0100
0001
1000
0010
1000
,
0100
0100
0010
0010
0001
0001
0100
0100
0010
0000
1000
0000
0010
0100
0010
0100
,
0001
0010
0001
0010
0100
1000
0100
1000
0001
0001
1000
1000
0010
0010
0100
0100
,
0001
0000
1000
0000
0010
0100
0010
1000
0001
1000
0001
0010
0100
0010
0100
1000
,
0100
1000
0010
0100
0001
0010
0100
1000
0001
0000
0100
0000
0010
1000
0010
1000
,
0001
0100
0001
0010
0001
0010
0100
1000
0100
0010
0001
0010
0100
1000
0100
0010
,
1001
0100
0010
0100
0001
0100
0001
0100
1000
0100
0001
0010
1000
0010
0001
1000
,
0010
0010
0100
1000
0100
0001
0100
0001
0010
0100
0010
0100
1000
0010
0100
0001
,
1001
0100
0010
0001
0100
0010
1000
0010
0100
0001
0010
0100
1000
0010
0100
0001
,
1000
0000
0001
0000
1000
0000
0001
0000
0100
0000
0010
0000
0100
0000
0010
0000
1000
0000
0100
0000
1000
0000
0100
0000
0010
0100
1000
0001
1000
0000
0000
0000
,
0010
0100
0001
0100
0010
1000
0100
1000
0010
0100
0001
1000
0010
0100
0001
0010
,
0100
1000
0100
1000
0010
0100
0010
0100
0001
0010
0001
0010
0100
0000
1000
0010
,
0100
0001
1000
0001
0010
0001
0010
0100
1000
0010
0100
0010
1000
0000
1000
0010
,
0100
0001
0010
0001
0010
0100
1000
0010
0100
0000
0100
0000
0010
0000
0010
0000
,
1000
0001
0100
0001
0010
0100
1000
0001
0100
0010
1000
0010
0100
0001
0010
0100
,
1000
0001
0100
0010
1000
0100
0010
0001
0100
0010
1000
0100
0010
0000
0001
1000
,
0001
0100
0010
1000
0010
0100
0001
1000
0001
0010
0100
1000
0010
0000
1000
0001
,
0100
0010
1000
0010
0100
0001
0010
0100
2000
0000
0000
0000
3001
0000
1000
0000
,
0001
0000
1000
0000
0010
0100
0010
0100
0010
0000
1000
0000
0010
0000
0100
0000
,
0001
0010
0001
0010
0001
0000
1000
0000
0001
0000
1000
0000
0100
0000
1000
0000
,
0100
0000
0010
0000
0100
0000
0010
0000
0001
0010
0001
0000
1000
0000
0001
0000
,
1000
0000
0010
0000
0100
0000
0010
0000
0100
0000
0001
0000
1000
0001
1000
0000
,
0001
1000
0001
0000
0010
0001
0010
0001
0010
0000
0100
0000
1000
0000
0001
0000
,
1000
0001
1000
0001
1000
0000
0010
0000
1000
0000
0001
0000
0010
0000
0010
0000
,
0011
0000
0100
0000
1000
0000
1000
0000
1100
0000
0010
0000
0001
0100
0001
0100
,
0010
1000
0010
1000
0100
0000
0100
0000
0010
0000
0010
0000
0100
0000
0000
0000
,
1100
0100
0110
0100
,
0101
0000
0100
0000
1100
0000
0010
0100
,
0010
0000
0100
0000
0001
0000
1000
0000
0001
0000
1000
0000
0010
0100
0001
1000
,
0010
0100
0001
1000
0100
0010
0001
0100
0010
0000
1000
0000
1000
0000
0001
0100
,
0001
0100
0010
0000
1000
0000
0100
0000
0010
0000
0000
0000
0001
0100
0010
1000
,
0100
0000
1000
0001
0100
0000
0110
0000
0001
0000
1000
0000
0100
0000
0010
0100
,
0010
0001
0010
0000
0100
0000
1000
0000
0001
0000
0100
0010
1000
0100
0010
0001
,
0100
0010
1000
0100
0010
0001
0100
0010
1000
0100
0010
0000
0001
0000
0100
0010
,
0100
0001
0100
0000
0010
0000
1000
0000
0100
0000
0000
0000
0001
1000
0100
0010
,
0001
0000
0100
0010
0100
0000
1001
0000
0010
0000
0100
0000
0001
0000
0010
0001
,
0010
0001
0010
0000
0100
0000
1000
0000
0001
0000
0100
0010
1000
0001
0100
0010
,
1000
0001
1000
0100
0010
0001
1000
0010
0100
0001
2000
0000
0000
0000
0000
0000
,
0000
0000
0000
0000
,
0000
0000
3000
0000
;

//---------------dance-single - ----------------
#NOTEDATA:;
#CHARTNAME:;
#STEPSTYPE:dance-single;
#DESCRIPTION:;
#CHARTSTYLE:;
#DIFFICULTY:Challenge;
#METER:18;
#RADARVALUES:1.037303,1.550376,0.835873,0.768328,1.435338,860.000000,761.000000,99.000000,91.000000,0.000000,0.000000,0.000000,0.000000,0.000000,1.037303,1.550376,0.835873,0.768328,1.435338,860.000000,761.000000,99.000000,91.000000,0.000000,0.000000,0.000000,0.000000,0.000000;
#CREDIT:;
#OFFSET:1.676000;
#BPMS:0.000000=130.000000
,92.000000=65.000000
,108.000000=130.000000
,138.000000=65.000000
,139.000000=195.000000
,141.000000=130.000000
,142.000000=195.000000
,144.000000=130.000000
,145.000000=195.000000
,150.000000=130.000000
,150.500000=195.000000
,155.000000=130.000000
,155.500000=195.000000
,156.000000=130.000000
,156.500000=195.000000
,157.000000=130.000000
,158.000000=195.000000
,160.000000=130.000000
,161.000000=195.000000
,163.000000=130.000000
,167.000000=195.000000
,169.000000=130.000000
,171.000000=100.000000
,171.500000=185.399994
,172.000000=100.000000
,172.500000=185.699997
,173.000000=100.000000
,173.500000=185.699997
,174.000000=100.000000
,174.500000=185.800003
,175.000000=100.000000
,175.500000=185.699997
,176.000000=100.000000
,176.500000=185.800003
,177.000000=100.000000
,177.500000=185.699997
,178.000000=100.000000
,178.500000=185.699997
,179.000000=130.000000
,183.000000=195.000000
,186.000000=65.000000
,186.500000=130.000000
;
#STOPS:72.000000=0.116000
,72.250000=0.115000
,72.500000=0.116000
,72.750000=0.115000
,73.000000=0.116000
,73.250000=0.115000
,73.500000=0.116000
,73.750000=0.115000
,78.000000=0.116000
,78.250000=0.115000
,78.500000=0.116000
,78.750000=0.115000
,79.000000=0.116000
,79.250000=0.115000
,79.500000=0.116000
,79.750000=0.115000
,84.000000=0.116000
,84.250000=0.115000
,84.500000=0.116000
,84.750000=0.115000
,85.000000=0.116000
,85.250000=0.115000
,85.500000=0.116000
,85.750000=0.115000
,90.000000=0.116000
,90.250000=0.115000
,90.500000=0.116000
,90.750000=0.115000
,91.000000=0.116000
,91.250000=0.115000
,91.500000=0.116000
,91.750000=0.115000
,139.000000=0.077000
,139.500000=0.077000
,140.000000=0.076700
,140.500000=0.076900
,142.000000=0.077000
,142.500000=0.077000
,143.000000=0.077000
,143.500000=0.076800
,145.000000=0.077000
,145.500000=0.077000
,146.000000=0.077000
,146.500000=0.076500
,147.000000=0.077000
,147.500000=0.077000
,148.000000=0.077000
,148.500000=0.076500
,149.000000=0.077000
,149.500000=0.077000
,150.500000=0.077000
,151.000000=0.077000
,151.500000=0.077000
,152.000000=0.077000
,152.500000=0.077000
,153.000000=0.076500
,153.500000=0.077000
,154.000000=0.077000
,154.500000=0.077000
,155.500000=0.077000
,156.500000=0.076700
,158.000000=0.077000
,158.500000=0.077000
,159.000000=0.077000
,159.500000=0.076700
,161.000000=0.077000
,161.500000=0.077000
,162.000000=0.077000
,162.500000=0.076800
,167.000000=0.038500
,167.250000=0.038400
,167.500000=0.038400
,167.750000=0.038400
,168.000000=0.038500
,168.250000=0.038400
,168.500000=0.038400
,168.750000=0.038500
,183.000000=0.038400
,183.250000=0.038500
,183.500000=0.038500
,183.750000=0.038500
,184.000000=0.038400
,184.250000=0.038500
,184.500000=0.038500
,184.750000=0.038500
,185.000000=0.038400
,185.250000=0.038500
,185.500000=0.038500
,185.750000=0.038500
;
#DELAYS:;
#WARPS:;
#TIMESIGNATURES:0.000000=4=4
;
#TICKCOUNTS:0.000000=4
;
#COMBOS:0.000000=1
;
#SPEEDS:0.000000=1.000000=0.000000=0
;
#SCROLLS:0.000000=1.000000
;
#FAKES:;
#LABELS:0.000000=Song Start
;
#NOTES:
0000
0000
0000
0000
,
0002
0000
0103
0000
0001
0100
0010
1000
0010
0000
0100
0000
0010
0000
1000
0000
,
0000
0000
0001
1000
0100
0000
0010
0000
0001
0100
0001
0100
0010
1000
0010
1000
0001
0000
0001
0000
1000
0000
1000
0000
0100
0000
0100
0000
0010
0000
0010
0000
,
0200
0000
2300
0000
3001
0100
0010
0100
0010
0000
0001
0000
0010
0000
1000
0000
,
0100
0010
0001
1000
0100
0010
0001
1000
0100
0010
0001
1000
0100
0010
0001
1000
,
0101
0000
0001
0000
0100
1000
0100
0001
2000
0000
0100
0000
3020
0000
0001
0000
,
1030
0000
0001
0010
1000
0000
1000
0000
0010
0001
0010
0001
0100
0001
0100
0001
1000
0000
1000
0000
0100
0000
0100
0000
0010
0000
0010
0000
0001
0000
0001
0000
,
2000
0000
3020
0000
0130
0001
0100
0001
0200
0000
0320
0000
2030
0000
3200
0000
,
0310
0000
0001
0000
1000
0000
0010
0000
0100
0000
0001
0000
0010
0000
0100
0000
1000
0100
0010
0001
1000
0100
0010
0001
1000
0100
0010
0001
1000
0100
0010
0001
,
2000
0000
3010
0000
1000
0010
0100
0001
0020
0000
0100
0000
0032
0000
0100
0000
,
1003
0000
1000
0100
0001
0000
0001
0000
0100
1000
0100
1000
0001
1000
0001
1000
0010
0000
0010
0000
0100
0000
0100
0000
0001
0000
0001
0000
1000
0000
1000
0000
,
0020
0000
0230
0000
0310
0100
0001
0010
0200
0000
0320
0000
0230
0000
2300
0000
,
3001
0001
0100
0100
0010
0010
1000
1000
0100
0100
0010
0010
0001
0001
0100
0100
,
0002
0000
0103
0000
0010
1000
0001
0100
0020
0000
0230
0000
0302
0000
0023
0000
,
0230
0320
0032
0203
2300
3020
0032
2003
,
3200
0000
0310
0000
0100
0100
1000
0010
0200
0000
2300
0000
3200
0000
0302
0000
,
0023
0000
2030
0000
3200
0000
0302
0000
0203
0000
2300
0000
3020
0000
0031
0001
,
1000
0000
0100
0000
0011
0001
1000
1000
0100
0100
0010
0010
1001
0001
1000
1000
,
0010
0100
0110
0001
0010
0100
0110
0100
1000
0000
0010
0000
0110
0100
0001
0001
,
1000
1000
0010
0010
0101
0100
0001
0001
0010
0100
0010
1000
0100
0010
0110
0001
,
1000
0000
0010
0000
0110
0100
0001
0001
1000
1000
0100
0100
0011
0010
0001
0001
,
1000
0010
1010
0100
0001
0100
0101
0001
0010
0000
0100
0000
1001
0010
1000
0010
,
0001
0100
1000
0100
1001
0010
0100
0001
0010
0100
1000
0010
0100
0001
0010
0100
,
1001
0010
0100
0001
1000
0100
0010
0001
0100
0010
0100
0010
1000
0100
0010
0001
1000
0010
0001
0010
1000
0100
0001
0100
1000
0001
0100
0010
1000
0000
1000
0001
,
0100
0010
0100
0001
0010
0100
0010
0100
1000
0010
1000
0010
0100
0000
0001
0100
0010
1000
0010
1000
0100
0010
0100
0010
0001
0100
0010
1000
0100
0010
0001
0100
,
0110
0001
0101
0100
1010
1000
1100
0100
0110
0010
0011
0001
0101
0100
1010
1000
,
1001
0000
1001
0000
0011
0000
0011
0000
1001
0000
1001
0000
1100
0000
1100
0000
1001
0000
1001
0000
0110
0000
0110
0000
1001
1001
0110
0110
1001
0000
0000
0000
,
0001
0010
0100
1000
0001
0010
0100
1000
0001
0100
0010
1000
0010
0100
0001
1000
,
0120
0230
2300
3200
0302
2003
3020
0032
0023
0230
0302
0203
2300
3000
1000
0100
,
0001
0010
0100
1000
0100
0010
0001
0010
0100
1000
0001
0010
0100
0000
1000
0010
,
0001
0000
0010
0000
1000
0000
0010
0000
1000
0000
0001
0000
0100
0000
0001
0000
1000
0100
0010
0001
1000
0100
0010
0001
1000
0100
0010
0001
1000
0100
0010
0001
,
1000
0010
0100
0001
0100
0010
1000
0100
0010
0001
0010
0001
0100
0010
1000
0100
,
0021
0032
0203
0320
2030
3200
0320
0032
0023
0230
2300
3200
0320
0030
0001
0100
,
0010
0100
0010
1000
0010
0100
0001
0100
0001
0010
0100
0010
0100
0000
1000
0010
,
0001
0000
0010
0000
1000
0000
0010
0000
1000
0000
0100
0000
0010
0000
0001
0000
0100
0010
0001
0100
1000
0001
0010
1000
0011
0000
0000
0000
1001
0000
0000
0000
,
1100
0000
1001
0000
0010
0100
0010
0100
1001
0000
1010
0000
0101
0000
0110
0000
,
0001
0100
0001
0100
1010
0000
0110
0000
0101
0000
0110
0000
1001
0000
1100
0000
,
1001
0000
0011
0000
1001
0000
0110
0000
1000
0001
1001
0000
0110
0000
1001
0000
,
1010
0000
0101
0000
1001
0000
1010
0000
0110
0000
0101
0000
1000
0001
0101
0000
,
0010
1000
1100
0000
1000
0001
1000
0001
0101
0000
1010
0000
1100
0000
1001
0000
,
0001
0100
1000
0100
0011
0000
0110
0000
1100
0000
1001
0000
0100
0001
0100
0001
,
0101
0010
0100
0010
0100
0010
1000
0010
1010
0010
0100
0001
0010
0010
0100
0100
,
1000
1000
0001
0001
0100
0000
0010
0000
1000
0000
0001
0000
1001
0000
0000
0000
,
1010
1001
1010
1001
,
1010
0000
1001
0000
1010
0000
0011
0011
,
0101
0000
0101
0000
1010
0000
1010
0000
1100
0000
0110
0000
0001
0001
0010
0010
,
1000
1000
0010
0010
0001
0001
0010
0010
2000
3000
0011
0000
1000
0000
0010
0001
,
0010
0000
1000
0000
0002
0000
0000
0000
0010
0000
0000
0000
0203
0000
0000
0000
1000
0000
0000
0000
0301
0000
1000
0100
0001
0000
0001
0000
0100
1000
0100
1000
,
0010
1000
0010
1000
0001
0000
0001
0000
0010
0000
0010
0000
0100
0000
0100
0000
1000
0000
1000
0000
0002
0000
0000
0000
0203
0000
0000
0000
0310
0000
1000
0000
,
0010
1000
0020
0000
0230
0000
0302
0000
0023
0000
0130
1000
0001
0100
0010
1000
,
0100
0010
0001
0100
1000
0100
0001
0010
1000
0010
0002
0000
0103
0000
0001
0100
,
0010
0000
1000
0000
0200
0000
0000
0000
0010
0000
0000
0000
2300
0000
0000
0000
0010
0000
0000
0000
3001
0000
0001
0010
1000
0000
1000
0000
0010
0001
0010
0001
,
1000
0001
1000
0001
0100
0000
0100
0000
0010
0000
0010
0000
1000
0000
1000
0000
0001
0000
0001
0000
0200
0000
0000
0000
0320
0000
0000
0000
0130
0000
0010
0000
,
1000
0100
0020
0000
0230
0000
0320
0000
0032
0000
1003
1000
0010
0010
0100
0100
,
0001
0001
0010
0010
1000
1000
0010
0010
0001
0100
2002
0000
0000
0000
0000
0000
,
0000
0000
0000
0000
,
0000
0000
3003
0000
;

//---------------dance-double - ----------------
#NOTEDATA:;
#CHARTNAME:;
#STEPSTYPE:dance-double;
#DESCRIPTION:;
#CHARTSTYLE:;
#DIFFICULTY:Easy;
#METER:8;
#RADARVALUES:0.270181,0.358571,0.135091,0.067545,0.004222,224.000000,208.000000,16.000000,8.000000,0.000000,0.000000,0.000000,0.000000,0.000000,0.270181,0.358571,0.135091,0.067545,0.004222,224.000000,208.000000,16.000000,8.000000,0.000000,0.000000,0.000000,0.000000,0.000000;
#CREDIT:;
#NOTES:
00000000
00000000
00000000
00000000
,
00000000
00000000
00000000
00000000
,
00000000
00000000
00000000
00000000
,
00000000
00000000
00000000
00000000
,
00000000
00000000
00000000
00000000
,
00000001
00000010
00000100
00001000
,
00000000
00000110
00000001
00000100
,
00001000
00010000
00001000
00010000
,
00100000
01000000
00010000
00010000
,
10000000
01000000
00100000
00010000
,
00000000
10010000
01000000
00010000
,
10000000
01000000
00100000
00001000
,
00010000
00010000
00001000
00001000
,
00010000
00100000
10000000
10000000
,
00100000
00100000
00010000
00010000
,
00001000
00010000
00000100
00000100
,
00000010
00000010
00000001
00000001
,
00001000
00001001
00000000
00001001
,
00000100
00001000
00010000
00100000
01000000
00000000
01100000
00000000
,
00000000
00000000
01100000
00000000
01000000
00100000
00010000
00001000
,
00000100
00001001
00000000
00001001
,
00000001
00000100
00001000
00010000
00100000
00000000
10010000
00000000
,
00000000
00000000
10010000
00000000
10000000
00100000
00010000
00001000
,
00000100
00000000
00000001
00000000
00000100
00000100
00000110
00000000
,
00000001
00000000
00000100
00000000
00001000
00010000
00011000
00000000
,
00002000
00203000
02300000
23000000
,
30100000
00000000
01000000
00000000
00100000
00000000
01000000
00000000
00001000
00000000
00010000
00000000
00001000
00010000
00001000
00000000
,
00011000
00010000
00100000
01000000
,
00010000
10000000
00010000
00000000
00100000
00000000
00100000
00000000
,
01000000
10000000
01000000
00000000
00100000
00000000
00100000
00000000
,
00010000
01000000
00002000
00000000
,
00013000
00001000
00010000
00000100
,
00000010
00000100
00000010
00000000
00000001
00000000
00000100
00000000
,
00000010
00001000
00000010
00000000
00000100
00000000
00000001
00000000
,
00000010
00000100
00020000
00031000
,
00001000
00010000
00100000
10000000
,
10000000
01000000
00100000
00010000
,
00001000
00000010
00000100
00001000
,
00010000
00100000
10000000
01000000
,
01000000
00010000
00010000
00100000
,
00100000
00000000
10000000
00000000
10000000
00000000
01000000
00100000
,
00010000
00000000
00001000
00000100
00000010
00000000
00000001
00000000
,
00000001
00001000
00000000
00000010
,
00000000
00000010
00000000
00000010
,
00000000
00000010
00000000
00000100
,
00000100
00000100
00000100
00000001
,
00001000
00000000
00000001
00001000
00000001
00000010
00000000
00000100
,
00000000
00001000
00000000
00000010
00000000
00000000
00000000
00001001
,
00000000
00000100
00000000
00001000
00000000
00010000
00000000
00001000
,
00000000
00100000
00000000
00010000
00000000
10000000
00000000
10000000
,
00000000
01000000
00000000
01000000
00000000
00100000
00000000
00001000
,
00000000
00010000
00000000
00100000
00000000
00000000
00000000
01100000
,
00000000
00010000
00000000
01000000
00000000
00001000
00000000
00010000
,
00000000
00000100
00000000
00000010
00000000
00000001
00000000
00000100
,
00000000
00001000
00000000
00010000
00000000
00022000
00000000
00000000
,
00000000
00000000
00000000
00000000
,
00000000
00000000
00000000
00000000
00000000
00033000
00000000
00000000
;

//---------------dance-double - ----------------
#NOTEDATA:;
#CHARTNAME:;
#STEPSTYPE:dance-double;
#DESCRIPTION:;
#CHARTSTYLE:;
#DIFFICULTY:Medium;
#METER:11;
#RADARVALUES:0.424571,0.693237,0.287068,0.067545,0.046437,352.000000,318.000000,34.000000,8.000000,0.000000,0.000000,0.000000,0.000000,0.000000,0.424571,0.693237,0.287068,0.067545,0.046437,352.000000,318.000000,34.000000,8.000000,0.000000,0.000000,0.000000,0.000000,0.000000;
#CREDIT:;
#NOTES:
00000000
00000000
00000000
00000000
,
00000000
00000000
00000000
00000000
,
00000000
00000000
00000000
00000000
,
00000000
00000000
00000000
00000000
,
00000000
00000000
00000000
00000000
,
00000001
00000000
00001001
00000000
00000100
00001000
00000010
00000000
,
00000000
00000100
00001001
00000000
00000010
00000100
00000001
00000000
,
00001000
00000000
00000100
00000000
00000010
00000010
00000100
00000000
,
00001000
00000100
00010000
00001000
00100000
01000000
10000000
00000000
,
00100000
00000000
01010000
00000000
00010000
00010000
01000000
00000000
,
00000000
00100000
10010000
00000000
01000000
01000000
00100000
00000000
,
00010000
00000000
10000000
00000000
00100000
01000000
00010000
00000000
,
00100000
01000000
00100000
00010000
00001000
00000010
00000100
00000010
,
00001000
00000000
00000001
00000000
00000010
00000100
00000010
00000100
,
00001000
00010000
00001000
00010000
00100000
01000000
00100000
01000000
,
10000000
00000000
00100000
00000000
01000000
00100000
01000000
00100000
,
00010000
00001000
00010000
00001000
00000100
00000010
00000100
00000010
,
00001000
00001001
00000001
00001001
,
00001000
00011000
00010000
01010000
10000000
00000000
10100000
00000000
,
00100000
00000000
01100000
00000000
01000000
00001000
00001000
00011000
,
00010000
00010010
00000010
00000110
,
00000100
00000011
00000100
00001010
00000100
00000000
00011000
00000000
,
00001000
00000000
00101000
00000000
01000000
10100000
01000000
00110000
,
10010000
00000000
00010000
00000000
01000000
00000000
00100000
00000000
10000000
01000000
00010000
01000000
10000000
01000000
00010000
00000000
,
00100000
00000000
01000000
00000000
00010000
00000000
00100000
00000000
00001000
00000000
00010000
00000000
00001000
00010000
00001000
00000000
,
00010100
00001000
00000110
00000001
00000110
00001000
00010100
00010000
,
00001000
00010000
00001000
00010000
00100000
01000000
00100000
01000000
00010000
10000000
00010000
10000000
00100000
00010000
00001000
00000000
,
00011000
00010000
00100000
01000000
00010000
00100000
01000000
10000000
,
00100000
00100000
01000000
01000000
00001000
00001000
00010000
00000100
,
00000010
00000010
00000001
00000001
00000100
00000100
00000001
00000010
,
00000100
00000100
00001000
00001000
00000010
00000100
00001001
00000000
,
00000001
00000010
00000100
00001000
00010000
00100000
01000000
10000000
,
00100000
00100000
01000000
01000000
00010000
00010000
10000000
00000000
,
01000000
00100000
00010000
00010000
00100000
00100000
01000000
00000000
,
10000000
00100000
00010000
00000000
00012000
00000000
00013000
00000000
,
00001000
00000000
00010000
00100000
01000000
00000000
00100000
00000000
,
00010000
00001000
00000100
00000000
00000001
00000000
00000010
00000000
,
00001000
00000000
00010000
00000000
01000000
10000000
00100000
00000000
,
00010000
00000000
00001000
00000000
00000100
00000000
00000001
00000001
,
00000100
00000000
00001000
00001000
00010000
00000000
01000000
01000000
,
10000000
00000000
00100000
00100000
00010000
00000000
00001000
00010000
,
00011000
00000000
00000100
00001000
00001100
00000000
00001000
00010000
,
00100000
01000000
10000000
00000000
10000000
00000000
00200000
00000000
,
00310000
00002000
00013000
02000000
,
03010000
00000000
00000200
00000000
00010300
00000000
00001000
00010000
,
00001000
00010000
00100000
01000000
00100000
01000000
00010000
00001000
,
00000100
00001000
00010000
00100000
02000000
13000000
00000000
10010000
,
00000000
00010000
00100000
01000000
00000000
00000000
10000000
10000000
,
00000000
00100000
10000000
10010000
00000000
01000000
00000000
00100000
,
00000000
00010000
00100000
01000000
00000000
00100000
00001000
00010000
,
00000100
00001000
00000010
00000100
00000001
00001000
00000000
00001001
,
00000000
00000001
00000010
00000100
00000000
00000000
00001000
00000101
,
00000000
00000010
00001000
00000100
00000000
00000010
00000000
00000001
,
00000000
00000100
00000001
00000010
00000000
00000100
00001000
00010000
,
00100000
00001000
00010000
00000100
00000010
00022000
00000000
00000000
,
00000000
00000000
00000000
00000000
,
00000000
00000000
00000000
00000000
00000000
00033000
00000000
00000000
;

//---------------dance-double - ----------------
#NOTEDATA:;
#CHARTNAME:;
#STEPSTYPE:dance-double;
#DESCRIPTION:;
#CHARTSTYLE:;
#DIFFICULTY:Hard;
#METER:14;
#RADARVALUES:0.695958,0.836665,0.135091,0.016886,0.755663,577.000000,561.000000,16.000000,2.000000,0.000000,0.000000,0.000000,0.000000,0.000000,0.695958,0.836665,0.135091,0.016886,0.755663,577.000000,561.000000,16.000000,2.000000,0.000000,0.000000,0.000000,0.000000,0.000000;
#CREDIT:;
#NOTES:
// measure 0
00000000
00000000
00000000
00000000
,  // measure 1
00000000
00000000
00000000
00000000
,  // measure 2
00000000
00000000
00000000
00000000
,  // measure 3
00000000
00000000
00000000
00000000
,  // measure 4
00000000
00000000
00000000
00000000
,  // measure 5
00000001
00000000
00000100
00000000
00000010
00001000
00000010
00001000
00000100
00000000
00000010
00000000
00000001
00000000
00000100
00000000
,  // measure 6
00000000
00000000
00000010
00000000
00000110
00000000
00000000
00000000
00000001
00000010
00001000
00000000
00010000
00000000
00000000
00000000
,  // measure 7
00001000
00000000
00010000
00000000
00001000
00100000
00001000
00100000
00001000
00000000
00010000
00000000
00100000
00000000
01000000
00000000
,  // measure 8
00010000
00100000
01000000
00000000
10000000
01000000
00100000
00000000
00010000
01000000
00100000
01000000
00010000
01000000
00100000
01000000
,  // measure 9
00010000
00000000
10000000
00000000
01000000
00100000
00010000
00100000
01000000
00000000
10000000
00000000
00100000
00000000
10000000
00000000
,  // measure 10
00000000
00000000
01000000
00010000
00001000
00000000
00010000
00000000
00010100
00000000
00000010
00000000
00000001
00000000
00000100
00000000
,  // measure 11
00000010
00000000
00000100
00000000
00000001
00000100
00000010
00001000
00000100
00000000
00000010
00000000
00000001
00000000
00000010
00000000
,  // measure 12
00000100
00001000
00000100
00001000
00000010
00001000
00000010
00001000
00000100
00010000
00000100
00010000
00001000
00010000
00001000
00010000
,  // measure 13
00100000
00000000
01000000
00000000
00100000
01000000
00010000
00100000
01000000
00000000
10000000
00000000
01000000
00000000
00100000
00000000
,  // measure 14
00001000
00000100
00001000
00010000
00100000
00010000
00001000
00000100
,  // measure 15
00000001
00000000
00000010
00000000
00000100
00000010
00000100
00000010
00000100
00000000
00001000
00000000
00010000
00000000
00100000
00000000
,  // measure 16
00010000
00000000
00001000
00000000
00000100
00000000
00001000
00000000
00010000
00000000
01000000
00000000
00010000
00000000
01000000
00100000
,  // measure 17
10000000
00000000
01000000
00000000
10000000
01000000
10000000
01000000
00100000
00010000
00100000
00010000
00001000
00000100
00001000
00000100
,  // measure 18
00000010
00000001
00001001
00000010
00001000
00000100
00000110
00000001
00000100
00000000
00000010
00000000
00001000
00000100
00001000
00000100
,  // measure 19
00010000
00001000
00010000
00001000
00100000
00010000
00100000
00010000
01000000
10000000
01000000
00010000
01000000
10000000
01010000
00010000
,  // measure 20
00100000
00000000
01000000
00000000
10000000
00100000
10000000
00100000
01000000
00010000
01000000
00010000
00100000
00001000
00100000
00001000
,  // measure 21
00010000
00000100
00001100
00000010
00000001
00000100
00000110
00000100
00000001
00000000
00000010
00000000
00000100
00001000
00000100
00001000
,  // measure 22
00010000
00100000
00010000
00100000
01000000
10000000
01000000
10000000
00100000
01000000
00100000
00010000
00001000
00000100
00000010
00001000
,  // measure 23
00010000
00000000
01000000
00000000
00100000
00000000
01000000
00000000
00010000
00000000
01000000
00000000
00100000
00000000
00010000
00000000
00001000
00000000
00010000
00000000
00000100
00000000
00010000
00000000
00001000
00100000
00001000
00100000
00001000
00000000
00000000
00000000
,  // measure 24
00000010
00000000
00000001
00000000
00000010
00000000
00001000
00000000
00000010
00000000
00000001
00000000
00000100
00000000
00001000
00000000
00010000
00000000
00000100
00000000
00010000
00000000
00001000
00000000
00010000
00000000
00100000
00000000
10000000
00000000
01000000
10000000
,  // measure 25
00010000
01000000
00010000
00001000
00000010
00001000
00010000
01000000
,  // measure 26
00100000
00000000
01000000
00000000
00100000
00000000
00010000
00000000
00001000
00000000
00010000
00000000
00001000
00000000
00010000
00000000
00000100
00000000
00000010
00000000
00000100
00000000
00000010
00000000
00001000
00010000
00000100
00010000
00001000
00000000
00000000
00000000
,  // measure 27
00010000
00001000
00010000
00100000
10000000
01000000
00100000
00010000
,  // measure 28
01000000
00100000
00010000
00001000
00100000
00001000
00100000
00010000
00001000
00000100
00001000
00000100
00001000
00000000
00000010
00000100
,  // measure 29
00000001
00000010
00000001
00000010
00000100
00000010
00000100
00001000
00000100
00001000
00000010
00001000
00000010
00000000
00000100
00000001
,  // measure 30
00000010
00001000
00010000
00100000
01000000
01000000
00100000
00100000
,  // measure 31
10010000
10000000
01000000
10000000
00100000
00010000
00001000
00010000
,  // measure 32
00000100
00001000
00000100
00001000
00000010
00000100
00000001
00000010
00000100
00001000
00000010
00000100
00000010
00000000
00001000
00000000
,  // measure 33
00000100
00010000
00000100
00010000
00001000
00010000
00001000
00010000
00100000
01000000
00100000
01000000
00010000
00000000
00100000
00000000
,  // measure 34
01000000
00000000
10000000
00000000
01000000
00000000
00100000
00000000
00010000
00000000
00001000
00000000
00000100
00000000
00010000
00000000
00001000
00010000
00001000
00010000
00000100
00001000
00000100
00001000
00000001
00000000
00000000
00000000
00000001
00000000
00000000
00000000
,  // measure 35
00000100
00000000
00000100
00000000
00001000
00010000
00001000
00010000
00100000
00000000
10000000
00000000
01000000
00000000
00100000
00000000
,  // measure 36
01000000
10000000
01000000
10000000
00100000
00000000
00010000
00000000
00001000
00000000
00010000
00000000
00000100
00000000
00000010
00000000
,  // measure 37
00000100
00000000
00010000
00000000
00001000
00000000
00010000
00000000
00100000
01000000
00100000
00000000
00010000
00000000
00001000
00000000
,  // measure 38
00010000
00000000
00000100
00000000
00010000
00000000
00001000
00000000
00010000
00000000
00001000
00000000
00100000
00010000
00100000
00000000
,  // measure 39
00001000
00010000
00001000
00000000
00010000
00000100
00001000
00000010
00000100
00000000
00000001
00000000
00000100
00000000
00000010
00000000
,  // measure 40
00001000
00000100
00010000
00000100
00010000
00000000
00001000
00000000
00010000
00000000
00100000
00000000
10000000
00000000
10000000
00000000
,  // measure 41
11000000
00000000
00100000
00000000
00001000
00000000
00001000
00000000
00011000
00000000
00010000
00000000
00000010
00000100
00000010
00000100
,  // measure 42
00001000
00010000
00001000
00010000
00100000
00000000
01000000
00000000
00100000
00000000
01000000
00000000
00110000
00000000
00000000
00000000
,  // measure 43
00010000
00001010
00001000
01010000
,  // measure 44
00010000
00000000
00001100
00000000
00001000
00000000
00000100
00010000
,  // measure 45
00100000
00000000
01000000
00000000
00100000
00000000
00010000
00000000
00001000
00000000
00010000
00000000
00000100
00001000
00000100
00001000
,  // measure 46
00000010
00000100
00000001
00000010
00001000
00010000
01000000
10000000
00020000
00000000
10030000
00000000
00100000
00000000
01000000
00010000
,  // measure 47
01000000
00010000
00100000
00000000
01000000
00000000
10000000
00000000
00100000
00000000
00000000
00000000
01000000
00000000
01100000
00000000
,  // measure 48
00000000
00000000
10000000
01000000
00010000
00000000
00001000
00000000
00000000
00000000
00010000
00000000
00001000
00000000
00010000
00000100
,  // measure 49
00010000
00000100
00010000
00000000
00001000
00000000
00000100
00000000
00000010
00000000
00001000
00000001
00000010
00000100
00001000
00000010
,  // measure 50
00000100
00000001
00000010
00000100
00001000
00000010
00000100
00000001
00000010
00000100
00001000
00000000
00000001
00000000
00000010
00000100
,  // measure 51
00001000
00000100
00000010
00000000
00000001
00000000
00000100
00000000
00000001
00000000
00000000
00000000
00000010
00001000
00010000
00000000
,  // measure 52
00001000
00000000
00101000
00000000
01000000
00000000
10000000
00000000
00100000
00000000
01000000
00000000
00100000
00000000
10000000
00100000
,  // measure 53
01000000
00010000
00100000
00000000
01000000
00000000
10000000
00000000
01000000
00000000
00100000
00010000
01000000
00010000
00100000
00001000
,  // measure 54
00010000
00100000
01000000
00010000
00100000
00001000
00010000
00000100
00000010
00001000
00020000
00000000
00000000
00000000
00000000
00000000
,  // measure 55
00000000
00000000
00000000
00000000
,  // measure 56
00000000
00000000
00000000
00000000
00000000
00030000
00000000
00000000
;

//---------------dance-double - ----------------
#NOTEDATA:;
#CHARTNAME:;
#STEPSTYPE:dance-double;
#DESCRIPTION:;
#CHARTSTYLE:;
#DIFFICULTY:Challenge;
#METER:18;
#RADARVALUES:0.944428,1.505997,0.371499,0.557249,1.342463,783.000000,739.000000,44.000000,66.000000,0.000000,0.000000,0.000000,0.000000,0.000000,0.944428,1.505997,0.371499,0.557249,1.342463,783.000000,739.000000,44.000000,66.000000,0.000000,0.000000,0.000000,0.000000,0.000000;
#CREDIT:;
#OFFSET:1.676000;
#BPMS:0.000000=130.000000
,92.000000=65.000000
,108.000000=130.000000
,138.000000=65.000000
,139.000000=195.000000
,141.000000=130.000000
,142.000000=195.000000
,144.000000=130.000000
,145.000000=195.000000
,150.000000=130.000000
,150.500000=195.000000
,155.000000=130.000000
,155.500000=195.000000
,156.000000=130.000000
,156.500000=195.000000
,157.000000=130.000000
,158.000000=195.000000
,160.000000=130.000000
,161.000000=195.000000
,163.000000=130.000000
,167.000000=195.000000
,169.000000=130.000000
,171.000000=100.000000
,171.500000=185.399994
,172.000000=100.000000
,172.500000=185.699997
,173.000000=100.000000
,173.500000=185.699997
,174.000000=100.000000
,174.500000=185.800003
,175.000000=100.000000
,175.500000=185.699997
,176.000000=100.000000
,176.500000=185.800003
,177.000000=100.000000
,177.500000=185.699997
,178.000000=100.000000
,178.500000=185.699997
,179.000000=130.000000
,183.000000=195.000000
,186.000000=65.000000
,186.500000=130.000000
;
#STOPS:72.000000=0.116000
,72.250000=0.115000
,72.500000=0.116000
,72.750000=0.115000
,73.000000=0.116000
,73.250000=0.115000
,73.500000=0.116000
,73.750000=0.115000
,78.000000=0.116000
,78.250000=0.115000
,78.500000=0.116000
,78.750000=0.115000
,79.000000=0.116000
,79.250000=0.115000
,79.500000=0.116000
,79.750000=0.115000
,84.000000=0.116000
,84.250000=0.115000
,84.500000=0.116000
,84.750000=0.115000
,85.000000=0.116000
,85.250000=0.115000
,85.500000=0.116000
,85.750000=0.115000
,90.000000=0.116000
,90.250000=0.115000
,90.500000=0.116000
,90.750000=0.115000
,91.000000=0.116000
,91.250000=0.115000
,91.500000=0.116000
,91.750000=0.115000
,139.000000=0.077000
,139.500000=0.077000
,140.000000=0.076700
,140.500000=0.076900
,142.000000=0.077000
,142.500000=0.077000
,143.000000=0.077000
,143.500000=0.076800
,145.000000=0.077000
,145.500000=0.077000
,146.000000=0.077000
,146.500000=0.076500
,147.000000=0.077000
,147.500000=0.077000
,148.000000=0.077000
,148.500000=0.076500
,149.000000=0.077000
,149.500000=0.077000
,150.500000=0.077000
,151.000000=0.077000
,151.500000=0.077000
,152.000000=0.077000
,152.500000=0.077000
,153.000000=0.076500
,153.500000=0.077000
,154.000000=0.077000
,154.500000=0.077000
,155.500000=0.077000
,156.500000=0.076700
,158.000000=0.077000
,158.500000=0.077000
,159.000000=0.077000
,159.500000=0.076700
,161.000000=0.077000
,161.500000=0.077000
,162.000000=0.077000
,162.500000=0.076800
,167.000000=0.038500
,167.250000=0.038400
,167.500000=0.038400
,167.750000=0.038400
,168.000000=0.038500
,168.250000=0.038400
,168.500000=0.038400
,168.750000=0.038500
,183.000000=0.038400
,183.250000=0.038500
,183.500000=0.038500
,183.750000=0.038500
,184.000000=0.038400
,184.250000=0.038500
,184.500000=0.038500
,184.750000=0.038500
,185.000000=0.038400
,185.250000=0.038500
,185.500000=0.038500
,185.750000=0.038500
;
#DELAYS:;
#WARPS:;
#TIMESIGNATURES:0.000000=4=4
;
#TICKCOUNTS:0.000000=4
;
#COMBOS:0.000000=1
;
#SPEEDS:0.000000=1.000000=0.000000=0
;
#SCROLLS:0.000000=1.000000
;
#FAKES:;
#LABELS:0.000000=Song Start
;
#NOTES:
00000000
00000000
00000000
00000000
,
00000002
00000000
00000013
00000000
00000100
00001000
00000100
00001000
00000001
00000000
00000010
00000000
00000100
00000000
00001000
00000000
,
00000000
00000000
00000010
00000000
00000100
00000010
00000100
00000000
00000001
00000000
00000100
00000000
00000010
00000000
00001000
00000000
00000100
00000000
00000100
00000000
00000010
00000000
00000010
00000000
00000001
00000000
00000001
00000000
00000100
00000000
00000100
00000000
,
00000020
00000000
00002030
00000000
00003100
00000010
00000100
00000010
00000100
00000000
00001000
00000000
00000100
00000000
00000001
00000000
,
00000100
00001000
00000100
00010000
00001000
00010000
00001000
00010000
00100000
01000000
00100000
01000000
00010000
00100000
00010000
10000000
,
12000000
00000000
03100000
00000000
00010000
00001000
00010000
00100000
00020000
00000000
01000000
00000000
20030000
00000000
00100000
00000000
,
31000000
00000000
10000000
00100000
00010000
00000000
00001000
00000000
00010000
00001000
00010000
00001000
00010000
00000100
00010000
00000100
00001000
00000000
00000010
00000000
00001000
00000000
00000100
00000000
00000010
00000000
00000010
00000000
00000001
00000000
00000100
00000000
,
00002000
00000000
00023000
00000000
00031000
00010000
00001000
00000100
00002000
00000000
00023000
00000000
00230000
00000000
20300000
00000000
,
31000000
00000000
10000000
00000000
00100000
00000000
01000000
00000000
00010000
00000000
00100000
00000000
00001000
00000000
00010000
00000000
00000100
00001000
00000100
00000000
00001000
00000010
00001000
00000000
00000010
00000100
00000010
00000000
00000100
00000001
00000100
00000000
,
00002010
00000000
00003010
00000000
00001000
00010000
00001000
00000100
00002000
00000000
00000010
00000000
00003002
00000000
00000010
00000000
,
00000103
00000000
00000001
00000100
00001000
00000000
00010000
00000000
00001000
00010000
00001000
00010000
00001000
01000000
00001000
01000000
00010000
00000000
00100000
00000000
00010000
00000000
01000000
00000000
00100000
00000000
00100000
00000000
10000000
00000000
01000000
00000000
,
00200000
00000000
02300000
00000000
03010000
00001000
00010000
00100000
00020000
00000000
00032000
00000000
00003200
00000000
00000302
00000000
,
00000013
00000001
00000100
00000010
00001000
00000100
00010000
00001000
00100000
00010000
00001000
00000010
00001000
00010000
01000000
00100000
,
20000000
00000000
31000000
00000000
00100000
00100000
00010000
00010000
02000000
00000000
03200000
00000000
00320000
00000000
00032000
00000000
,
00003020
00002030
00023000
00230000
20300000
30200000
00320000
00031000
,
00011000
00000000
00010000
00000000
00000010
00000010
00000100
00000100
00000002
00000000
00000023
00000000
00000230
00000000
00020300
00000000
,
00230000
00000000
00320000
00000000
00032000
00000000
00003020
00000000
00000230
00000000
00002300
00000000
00023000
00000000
01030000
01000000
,
00100000
00000000
10000000
00000000
01010000
00010000
00100000
00100000
00001000
00001000
00010000
00010000
00001100
00000100
00000010
00000010
,
00000001
00000010
00001100
00010000
00100000
01000000
10010000
00100000
01000000
00000000
00010000
00000000
00110000
00010000
00100000
01000000
,
10000000
00100000
00010000
00001000
00011000
00010000
00000010
00001000
00010000
00100000
00001000
00000010
00010000
01000000
00011000
00000100
,
00010000
00000000
00001000
00000000
00011000
00010000
00000010
00000010
00000100
00000100
00000001
00000001
00001010
00001000
00000100
00000100
,
00010000
00001000
00101000
00100000
00001000
00000010
00010010
00010000
00001000
00000000
00010000
00000000
01100000
01000000
00100000
01000000
,
00010000
00100000
10000000
00100000
00101000
00001000
00010000
00010000
00001000
00100000
00010000
00000010
00001000
00001000
00010000
00010000
,
00001000
00010000
00100000
01000000
00010000
00100000
01000000
10000000
00010000
01000000
00010000
01000000
00100000
00010000
00100000
00010000
00001000
00000100
00000010
00000100
00001000
00010000
00100000
01000000
10000000
01000000
00010000
00100000
01000000
00000000
10000000
01000000
,
00100000
00010000
00100000
00010000
00001000
00000010
00001000
00010000
01000000
00100000
01000000
00100000
10000000
00000000
10000000
00100000
01000000
00010000
01000000
00010000
00100000
00001000
00100000
00001000
00010000
00001000
00000100
00000010
00000100
00001000
00010000
00001000
,
00100000
00100000
01100000
00011000
00001100
00000010
00000110
00011000
,
01010000
00000000
01000000
00000000
00100000
00000000
00100000
00000000
00001000
00000000
00001000
00000000
00010000
00000000
00010000
00000000
00000010
00000000
00000010
00000000
00001000
00000000
00001000
00000000
00010000
00010000
00001000
00001000
00011000
00000000
00000000
00000000
,
00100000
10000000
00100000
10000000
01000000
00010000
00001000
00010000
00000010
00000100
00000010
00000100
00000001
00000010
00010000
00001000
,
00000100
00010000
00001000
00100000
00010000
01000000
00100000
00010000
00001000
00000100
00000001
00001000
00000100
00000000
00000100
00001000
,
00000010
00010000
00001000
00010000
00100000
01000000
00010000
00100000
10000000
00100000
00010000
01000000
00100000
00000000
00100000
10000000
,
01000000
00000000
00010000
00000000
00001000
00000000
00000010
00000000
00000001
00000000
00000010
00000000
00001000
00000000
00010000
00000000
00001000
00010000
00100000
00000000
00010000
00100000
01000000
00000000
00100000
10000000
00100000
00000000
01000000
00010000
01000000
00000000
,
00100000
10000000
01000000
00010000
00001000
00000100
00001000
00000100
00000001
00001000
00000010
00000100
00000001
00000010
00001000
00010000
,
00100000
01000000
00100000
00001000
00000100
00000010
00000100
00010000
00100000
01000000
00100000
00001000
00000100
00000000
00000100
00001000
,
00000001
00000010
00000100
00001000
00000010
00010000
00001000
00000100
00001000
00010000
00100000
10000000
00010000
00000000
00010000
10000000
,
01000000
00000000
00100000
00000000
00010000
00000000
01000000
00000000
00100000
00000000
00010000
00000000
00001000
00000000
00100000
00000000
00001000
00010000
00001000
00010000
00000010
00001000
00000010
00001000
00000001
00000000
00000000
00000000
00000100
00000000
00000000
00000000
,
00001000
00000000
00010000
00000000
00001000
00100000
00001000
00100000
00010000
00000000
10000000
00000000
00100000
00000000
00010000
00000000
,
00001000
00010000
00001000
00010000
00000100
00000000
00000010
00000000
00000100
00000000
00010000
00000000
00001000
00000000
00000001
00000000
,
00000100
00000000
00001000
00000000
00010000
00000000
01000000
00000000
00100000
10000000
00100000
00000000
01000000
00000000
00100000
00000000
,
00001000
00000000
00010000
00000000
10000000
00000000
01000000
00000000
00010000
00000000
00001000
00000000
00010000
00010000
00000100
00000000
,
00000010
00000010
00000100
00000000
00010000
00001000
00010000
00001000
00100000
00000000
01000000
00000000
10000000
00000000
01000000
00000000
,
00100000
00001000
00100000
00001000
00020000
00000000
00030100
00000000
00002000
00000000
01003000
00000000
00100000
01000000
00100000
01000000
,
01001000
00000000
00001000
00010000
00000100
00001000
00000100
00001000
00001100
00000100
00000010
00000000
00000001
00000010
00000100
00001000
,
00010000
00100000
01000000
10000000
00010000
00000000
00010000
00000000
10000000
00000000
10000000
00000000
01100000
00000000
00000000
00000000
,
10010000
01100000
10010000
00011000
,
00001001
00000000
00011000
00000000
10010000
00000000
00011000
00001100
,
00000110
00000000
00000110
00000000
00001100
00000000
00011000
00000000
00110000
00000000
00110000
00000000
10000000
01000000
00100000
00010000
,
00001000
00000100
00000010
00000001
00000100
00001000
00010000
00100000
10000000
00000000
12000000
00000000
03100000
00000000
00010000
00001000
,
00010000
00000000
00100000
00000000
00020000
00000000
00000000
00000000
01000000
00000000
00000000
00000000
20030000
00000000
00000000
00000000
00100000
00000000
00000000
00000000
31000000
00000000
10000000
00100000
00010000
00000000
00001000
00000000
00010000
00001000
00010000
00001000
,
00010000
00000100
00010000
00000100
00001000
00000000
00000010
00000000
00001000
00000000
00000100
00000000
00000010
00000000
00000010
00000000
00000001
00000000
00000100
00000000
00002000
00000000
00000000
00000000
00023000
00000000
00000000
00000000
00031000
00000000
00010000
00000000
,
00001000
00000100
00002000
00000000
00023000
00000000
00230000
00000000
20300000
00000000
31000000
10000000
00100000
01000000
00010000
00100000
,
00001000
00010000
00000100
00001000
00000010
00000100
00000001
00000010
00000100
00001000
00002010
00000000
00003010
00000000
00001000
00010000
,
00001000
00000000
00000100
00000000
00002000
00000000
00000000
00000000
00000010
00000000
00000000
00000000
00003002
00000000
00000000
00000000
00000010
00000000
00000000
00000000
00000103
00000000
00000001
00000100
00001000
00000000
00010000
00000000
00001000
00010000
00001000
00010000
,
00001000
01000000
00001000
01000000
00010000
00000000
00100000
00000000
00010000
00000000
01000000
00000000
00100000
00000000
00100000
00000000
10000000
00000000
01000000
00000000
00200000
00000000
00000000
00000000
02300000
00000000
00000000
00000000
03010000
00000000
00001000
00000000
,
00010000
00100000
00020000
00000000
00032000
00000000
00003200
00000000
00000302
00000000
00000013
00000001
00000100
00000010
00001000
00000100
,
00010000
00001000
00100000
00010000
00001000
00000010
00001000
00010000
01000000
00001000
00022000
00000000
00000000
00000000
00000000
00000000
,
00000000
00000000
00000000
00000000
,
00000000
00000000
00000000
00000000
00000000
00033000
00000000
00000000
;
