#TITLE:Die In A Fire;
#SUBTITLE:;
#ARTIST:The Iiving Tombstone;
#TITLETRANSLIT:;
#SUBTITLETRANSLIT:;
#ARTISTTRANSLIT:;
#GENRE:;
#CREDIT:;
#BANNER:Die In A Fire-bn.png;
#BACKGROUND:Die In A Fire-bg.png;
#LYRICSPATH:;
#CDTITLE:cdtitle.png;
#MUSIC:Die In A Fire.mp3;
#OFFSET:2.094000;
#SAMPLESTART:37.314926;
#SAMPLELENGTH:15.000000;
#LASTBEATHINT:1.962160;
#SELECTABLE:YES;
#BPMS:0.000000=110.000000
;
#STOPS:
;
#BGCHANGES:4.000=Die In A Fire.avi=1.000=0=0=0=StretchNoLoop==CrossFade_Faster==,
99999=-nosongbg-=1.000=0=0=0 // don't automatically add -songbackground-
;
#KEYSOUNDS:;
#ATTACKS:;

//---------------dance-single - ----------------
#NOTES:
     dance-single:
     :
     Beginner:
     1:
     0.106684,0.135389,0.016118,0.188041,0.000000,139.000000,136.000000,3.000000,35.000000,0.000000,0.000000,0.106684,0.135389,0.016118,0.188041,0.000000,139.000000,136.000000,3.000000,35.000000,0.000000,0.000000:
0000
0000
0000
0000
,
0000
0000
0000
0000
,
0000
0000
0000
0000
,
0001
0000
1000
0000
,
0001
0000
1000
0000
,
0020
0000
0000
0000
,
0030
0000
0000
0000
,
1000
0000
0010
0000
,
0100
0000
0001
0000
,
2000
0000
0000
0000
,
3000
0000
0000
0000
,
0001
0000
0010
0000
,
0100
0000
1000
0000
,
0002
0000
0000
0000
,
0003
0000
0000
0000
,
1000
0000
0100
0000
,
1000
0000
0010
0000
,
0220
0000
0000
0000
,
0330
0000
0000
0000
,
1000
0000
0002
0003
,
0100
0000
0020
0030
,
1000
0000
0200
0300
,
0010
0000
0002
0003
,
1000
0000
0020
0030
,
0100
0000
0002
0003
,
1000
0000
0010
0000
,
0100
0000
0002
0000
,
1003
0000
1000
0000
,
0010
0000
0010
0000
,
0100
0000
0100
0000
,
0001
0000
0001
0000
,
1000
0000
0001
0000
,
0100
0000
0010
0000
,
1000
0000
0100
0000
,
0010
0000
0001
0000
,
0100
0000
0010
0000
,
1000
0000
0001
0000
,
0200
0000
0000
0000
,
0300
0000
0000
0000
,
1000
0000
0001
0000
,
1000
0000
0010
0000
,
0200
0000
0000
0000
,
0300
0000
0000
0000
,
0001
0000
1000
0000
,
0100
0000
0010
0000
,
0002
0000
0000
0000
,
0003
0000
0000
0000
,
1000
0000
0010
0000
,
0100
0000
0001
0000
,
2002
0000
0000
0000
,
3003
0000
0000
0000
,
1000
0000
0020
0030
,
0100
0000
0020
0030
,
1000
0000
0200
0300
,
0010
0000
0002
0003
,
0100
0000
0020
0030
,
1000
0000
0002
0003
,
0100
0000
0020
0030
,
1000
0000
0002
0003
,
0100
0000
0020
0030
,
1000
0000
0200
0300
,
0010
0000
0002
0003
,
0100
0000
0020
0030
,
1000
0000
0200
0300
,
0001
0000
0200
0300
,
1000
0000
0010
0000
,
0100
0000
0002
0000
,
0013
0000
0010
0000
,
0001
0000
0001
0000
,
1000
0000
1000
0000
,
0010
0000
0010
0000
,
0100
0000
0001
0000
,
1000
0000
0100
0000
,
0010
0000
0001
0000
,
0100
0000
0010
0000
,
1000
0000
0001
0000
,
0100
0000
0010
0000
,
1000
0000
0100
0000
,
1000
0000
0010
0000
,
0100
0000
0001
0000
,
0010
0000
0100
0000
,
1000
0000
0001
0000
,
2000
0000
3000
0000
,
2002
0000
0000
0000
,
3003
0000
0000
0000
;

//---------------dance-single - ----------------
#NOTES:
     dance-single:
     :
     Easy:
     4:
     0.189576,0.225649,0.042981,0.236394,0.000000,247.000000,239.000000,8.000000,44.000000,0.000000,0.000000,0.189576,0.225649,0.042981,0.236394,0.000000,247.000000,239.000000,8.000000,44.000000,0.000000,0.000000:
0000
0000
0000
0000
,
0000
0000
0000
0000
,
0000
0000
0000
0000
,
1000
0000
0001
0000
,
0100
0000
0010
0000
,
2000
0000
0100
0000
,
0001
0000
0010
0000
,
3100
0000
0010
0000
,
0001
0000
0100
0000
,
0020
0000
1000
0000
,
0100
0000
1000
0000
,
0130
0000
0001
0000
,
1000
0000
0010
0000
,
0200
0000
0001
0000
,
0010
0000
0001
0000
,
0310
0000
1000
0000
,
0001
0000
0100
0000
,
0020
0100
0100
0130
,
1001
0000
0000
0000
,
1000
0001
0200
0000
,
0310
1000
0002
0000
,
0013
0100
1000
0100
,
0010
0001
0100
0010
,
1000
0100
0020
0000
,
0031
0100
0020
0000
,
1030
0001
0100
0010
,
2002
0000
3003
0000
,
1000
0001
0010
0001
,
1000
0100
1000
0001
,
2000
3100
0020
0130
,
2000
3010
0200
0310
,
1000
0001
0100
0010
,
1000
0100
0010
0001
,
0200
0310
2000
3100
,
0020
0001
0032
1003
,
1001
0000
1000
0000
,
0010
0000
0100
0000
,
0002
0000
1000
0000
,
0010
0000
1000
0000
,
0013
0000
0100
0000
,
1000
0000
0001
0000
,
0200
0000
0010
0000
,
0001
0000
0010
0000
,
0301
0000
1000
0000
,
0001
0000
0010
0000
,
0002
0000
0010
0000
,
1000
0000
0100
0000
,
0013
0000
0100
0000
,
1000
0000
0010
0000
,
0200
0001
0001
0301
,
1001
0000
0000
0000
,
1000
0001
0200
0000
,
0310
1000
0200
0000
,
0310
0001
0100
0010
,
1000
0100
0010
0100
,
1000
0010
0200
0000
,
0301
1000
0020
0000
,
1030
0001
0100
0010
,
1000
0100
0010
0001
,
0100
0010
2000
0000
,
3100
0010
0002
0000
,
0103
0010
1000
0001
,
0010
0100
1000
0010
,
0100
0001
2000
0100
,
3010
0100
0002
0010
,
0103
0010
1000
0001
,
0220
0000
0330
0000
,
0000
1000
0000
0001
0000
0100
0000
0010
,
0000
1000
0000
0100
0000
0010
0000
0001
,
0000
0100
0000
0010
0000
1000
0000
0100
,
0000
0010
0000
0001
0000
0100
0000
0001
,
0000
1000
0000
0100
0000
1000
0000
0010
,
0000
0100
0000
0001
0000
1000
0000
0010
,
0000
0200
0000
0310
0000
2000
0000
3100
,
0000
0020
0000
0031
0000
2002
0000
3003
,
1000
0010
0100
0001
,
1000
0100
1000
0010
,
0100
0001
0010
0001
,
0100
0010
1000
0001
,
2000
3100
0200
0310
,
0020
0031
0002
1003
,
0000
0010
0000
0110
0000
0100
0000
0001
,
0000
2000
0000
0000
3000
0000
0000
0000
,
2002
0000
0000
0000
,
3003
0000
0000
0000
;

//---------------dance-single - ----------------
#NOTES:
     dance-single:
     :
     Medium:
     8:
     0.308540,0.338473,0.118197,0.225649,0.000000,402.000000,380.000000,22.000000,42.000000,0.000000,0.000000,0.308540,0.338473,0.118197,0.225649,0.000000,402.000000,380.000000,22.000000,42.000000,0.000000,0.000000:
0000
0000
0000
0000
,
0000
0000
0000
0000
,
0000
0000
0000
0000
,
1000
1000
0001
0001
,
0010
0010
0100
0100
,
2000
0000
0000
3001
0200
0000
0000
0310
,
2000
0000
0000
3001
0020
0000
0000
0130
,
1000
0010
1000
0001
,
0010
0100
1000
0001
,
0200
0000
0000
0310
2000
0000
0000
3100
,
0020
0000
0000
0031
2000
0000
0000
3010
,
0100
0101
1000
1001
,
0010
0110
1000
1100
,
0002
0000
0000
1003
0020
0000
0000
0130
,
0002
0000
0000
0013
0200
0000
0000
1300
,
0010
0110
1000
1010
,
0010
0110
0100
1010
,
0100
0001
1000
0001
0100
0001
1000
0002
,
2000
0000
3003
0000
,
1000
0000
0001
0010
0100
0000
1000
0000
,
0010
0000
0100
0001
0010
0000
0100
0000
,
1000
0000
0010
0100
0001
0000
1000
0000
,
0010
0000
0100
0001
0010
0000
0100
0000
,
0110
0000
0001
0100
0010
0000
1000
0000
,
0100
0000
0010
0001
0100
0000
0010
0000
,
1000
0001
1000
0010
,
0100
0001
0010
0100
2000
0000
3000
0000
,
0001
1000
0000
0010
0000
0100
0000
0001
,
1000
0100
0000
1000
0000
0010
0000
0100
,
0001
0020
0000
0130
1000
0020
0000
0130
,
0001
2000
0000
3100
0010
0002
0000
0103
,
0010
1000
0000
0100
0000
1000
0000
0010
,
0100
0001
0000
0010
0000
0001
0000
0100
,
0010
2000
0000
3100
0010
0002
0000
0103
,
0010
1000
0010
0100
0002
0000
1003
0000
,
0010
0010
1000
1000
,
0001
1000
0010
0100
,
0002
0000
0000
0013
0200
0000
0000
1300
,
0020
0000
0000
0130
0002
0000
0000
1003
,
0100
0010
0001
1000
,
0100
1000
0010
0100
,
0002
0000
0000
0013
0200
0000
0000
0310
,
0002
0000
0000
0103
0020
0000
0000
1030
,
0100
0011
1000
1001
,
0001
0110
0100
0101
,
0002
0000
0000
1003
0020
0000
0000
0130
,
0002
0000
0000
0013
0200
0000
0000
1300
,
0010
0110
0100
0101
,
0001
1100
1000
0110
,
0001
0010
0001
0010
0100
1000
0002
2000
,
0000
0000
3003
0000
,
1000
0000
0001
0000
0100
0010
1000
0000
,
0100
0000
0010
0000
0001
0100
0010
0000
,
1000
0000
0001
0000
0100
0001
1000
0000
,
0100
0000
1000
0000
0010
0100
0001
0000
,
0110
0000
1000
0000
0010
0100
0001
0000
,
0010
0000
0100
0000
1000
0001
0100
0000
,
0001
0000
1000
0000
0010
0100
0001
0000
,
0010
0100
1000
0010
0100
0000
0101
0000
,
1100
0000
1000
0000
0001
0100
0010
0000
,
1000
0000
0001
0000
1000
0100
0010
0000
,
0100
0000
1000
0000
0001
0010
0100
0000
,
1000
0000
0001
0000
0100
0001
0010
0000
,
0001
0000
1000
0000
0001
1000
0010
0100
,
0001
0000
0010
0000
0100
1000
0100
0010
,
0001
1000
0001
1000
,
0001
0010
0001
0100
0002
0000
0003
0000
,
0001
0100
0000
0010
0000
1000
0000
0100
,
0010
0001
0000
0100
0000
0010
0000
1000
,
0010
0100
0000
0001
0000
0010
0000
0001
,
0100
0010
0000
1000
0000
0010
0000
1000
,
0100
0010
0000
0001
0000
0010
0000
0001
,
1000
0100
0000
1000
0001
0100
0000
0010
,
0000
2000
0000
3100
0000
0002
0000
0103
,
0000
0020
0000
1030
0000
0001
1000
0000
,
0000
1000
0100
1000
0010
0100
0000
0001
,
0000
0010
0001
1000
0100
1000
0000
0010
,
0000
0100
0001
1000
0100
0010
0000
0001
,
0000
0100
0010
1000
0010
0100
0000
0001
,
0000
1000
0001
0010
0100
1000
0000
0010
,
0000
0100
0001
0010
0000
0001
0100
0010
,
0000
1000
0000
1010
0000
0001
0000
0101
,
0000
1000
0100
1000
0001
0010
0000
0002
,
2000
0000
0000
0000
,
3003
0000
0000
0000
;

//---------------dance-single - ----------------
#NOTES:
     dance-single:
     :
     Hard:
     11:
     0.490441,0.496427,0.257884,0.204158,0.252512,639.000000,591.000000,48.000000,38.000000,0.000000,0.000000,0.490441,0.496427,0.257884,0.204158,0.252512,639.000000,591.000000,48.000000,38.000000,0.000000,0.000000:
0000
0000
0000
0000
,
0000
0000
0000
0000
,
0000
0000
0000
0000
,
1000
1000
0001
0001
,
1000
0010
0100
0000
0001
0010
0100
1000
,
0020
0000
0001
0100
,
2030
0000
0100
0001
,
3010
1000
0100
0000
0010
0001
0100
0000
,
0010
1000
0100
0010
0011
0000
0100
0000
,
2000
0000
0000
0010
3200
0000
0000
0010
,
2300
0000
0000
0010
3002
0000
0000
0100
,
1003
0000
1001
0001
0100
0000
1001
1000
,
0100
0000
0110
0010
0100
0000
0110
0100
,
2000
0001
0100
0001
,
3200
0001
1000
0001
,
1300
0010
1000
0001
0010
0000
0011
0000
,
0100
0000
1000
0000
0010
0000
1000
0000
1010
0000
0000
0101
0000
0000
1001
0000
,
0001
0000
1000
0000
0010
0000
0100
0000
0001
0000
0010
0000
0001
1000
0100
2000
,
0002
0000
0000
3003
,
1001
0000
0000
1000
0010
0000
1000
0000
1100
0000
0000
0100
0010
0000
0001
0000
,
0011
0000
0000
0100
0010
0000
0100
0000
1100
0000
0000
1000
0010
0000
0100
0000
,
0001
1000
0100
0001
0100
1000
0020
0000
,
1030
0000
0100
0000
0010
0000
0001
0000
1000
0000
0001
0000
0100
0001
0100
0000
,
0110
0000
0000
1000
0010
0000
1000
0000
1010
0000
0000
0010
0100
0000
0001
0000
,
0011
0000
0000
0010
0100
0000
1000
0000
1010
0000
0000
0010
0100
0000
0001
0000
,
1000
1000
0010
0010
0100
0001
0010
0100
,
1000
1000
0010
0010
0200
0000
0301
0000
,
0100
0000
0001
0000
0000
0000
0010
0100
1000
0100
0010
0000
0000
0000
0011
0000
,
0000
0000
1100
0000
0000
0000
1000
0100
0010
0001
1000
0000
0010
0000
1000
0000
,
0100
0010
0000
0001
0100
0010
0000
1010
,
0000
0101
0000
1001
0000
1100
0000
0001
,
1000
0000
0010
0000
0000
0000
1000
0100
0010
0001
0010
0000
0000
0000
0011
0000
,
0000
0000
0110
0000
0000
0000
1000
0100
0010
0001
0010
0000
0100
0000
1000
0000
,
0010
0000
0100
0000
0010
0000
1000
0100
0000
0000
0010
0000
0001
0000
0100
0000
,
0010
0000
0010
0000
1000
0000
1000
0001
0010
0000
0100
0000
1100
0000
0000
0000
,
1000
0010
0100
0001
0020
0000
0130
0000
,
1000
0010
0100
0001
0020
0000
0130
0000
,
1000
0000
0010
0000
0100
0000
0001
0000
1000
0001
0000
1000
0010
0000
0000
0000
,
1000
0000
0010
0000
0100
0000
0001
0000
0010
0001
0000
0010
0100
0000
1100
0000
,
1000
0010
0110
0000
0100
0001
0101
0000
,
0001
1000
0100
0010
0011
0000
0001
1000
,
0010
0000
0100
0000
0001
0000
1000
0000
0010
1000
0000
0100
1000
0000
0000
0000
,
0010
0000
0100
0000
0001
0000
0010
0000
0100
1000
0000
0010
1000
0000
1001
0000
,
0002
0000
1003
0010
0200
0000
0310
1000
,
0200
0000
0310
0001
0200
0000
0310
1000
,
0200
0001
1000
1000
,
0320
0001
1000
1000
,
0031
0100
0010
1000
0010
0000
0110
0000
,
0100
0000
0001
0000
0010
0000
0100
0000
1100
0000
0000
0110
0000
0000
0011
0000
,
0001
0000
1000
0000
0010
0000
0100
0000
0001
0000
0010
0000
0100
1000
0001
2000
,
0002
0000
0000
3003
,
0110
0000
0000
0100
0001
0000
1000
0000
1100
0000
0000
0100
0010
0000
0001
0000
,
0101
0000
0000
0100
0010
0000
1000
0000
1001
0000
0000
0001
0010
0000
0100
0000
,
1000
0010
0100
0001
1000
0010
0200
0000
,
0301
0000
1000
0000
0010
0000
0100
0000
0001
0000
0010
0000
0001
1000
0001
0000
,
1001
0000
0000
1000
0010
0000
0100
0000
0110
0000
0000
0010
1000
0000
0100
0000
,
0110
0000
0000
0010
0001
0000
0100
0000
0110
0000
0000
0010
1000
0000
0001
0000
,
0010
0100
1000
0010
0100
0001
2000
0000
,
3010
0000
0100
0000
0001
0000
0010
0000
0100
0000
1000
0000
0001
1000
0001
0000
,
1001
0000
0000
1000
0010
0000
0100
0000
0101
0000
0000
0001
0010
0000
0100
0000
,
1100
0000
0000
1000
0010
0000
0100
0000
0110
0000
0000
0100
0001
0000
0010
0000
,
0100
1000
0010
0100
0001
0010
0200
0000
,
1300
0000
0010
0000
0100
0000
0001
0000
1000
0000
0100
0000
0010
0100
0010
0000
,
1001
0000
1000
0010
0000
0100
0001
0000
1000
0000
0010
0100
0000
0001
0010
0000
,
0100
0000
1000
0001
0000
0100
1000
0000
0100
0000
0010
1000
0000
0010
0001
0000
,
0100
0000
0100
0000
1000
0000
1000
0000
0010
0000
0010
0000
0100
0001
0100
0000
,
0010
0010
1000
1000
0002
0100
0100
0100
,
1003
0000
0010
0000
1000
0000
0100
0010
0100
1000
0100
0000
1000
0000
0010
0000
,
0100
0000
0001
0000
0010
0000
0001
1000
0100
0001
0100
0000
1000
0000
0010
0000
,
0100
0000
0001
0000
1000
0000
0010
0100
0001
1000
0010
0000
0100
0000
0001
0000
,
0010
0000
0001
0000
1000
0000
0100
0010
0001
1000
0010
0000
0100
0000
0010
0000
,
1000
0000
0100
0000
0010
0000
0100
1000
0001
0010
0100
0000
1000
0000
0010
0000
,
0100
0000
0001
0000
0100
0000
0010
1000
0100
0010
0001
0000
1000
0000
0010
0100
,
0000
0000
0001
0200
0000
0000
0310
2000
0000
0000
3100
0020
0000
0000
0031
0020
,
0000
0000
0130
2000
0000
0000
3100
0010
0002
0000
0100
0000
0103
0000
0000
0000
,
0010
0000
1000
0000
0100
0000
0010
0100
1000
0100
0010
0000
0001
0000
0100
0000
,
0010
0000
1000
0000
0001
0000
0010
0001
1000
0100
1000
0000
0010
0000
0100
0000
,
0010
0000
1000
0000
0001
0000
0010
0001
1000
0001
0100
0000
0010
0000
1000
0000
,
0100
0000
0010
0000
0001
0000
0100
0010
1000
0010
0100
0000
0001
0000
1000
0000
,
0010
0000
1000
0000
0100
0000
0010
0100
1000
0010
1000
0000
0001
0000
0100
0000
,
0010
0000
1000
0000
0001
0010
0100
1000
0010
0000
0100
0000
0001
0000
0100
0010
,
0000
0000
1000
0200
0000
0000
0310
0002
0000
0000
0103
0020
0000
0000
1030
0200
,
0000
0000
0310
0001
0010
0000
0100
0000
1000
0000
0010
0000
0100
0000
0002
0000
,
2000
0000
0000
0000
,
3003
0000
0000
0000
;

//---------------dance-double - ----------------
#NOTES:
     dance-double:
     :
     Easy:
     5:
     0.232556,0.293343,0.069844,0.134315,0.000000,303.000000,290.000000,13.000000,25.000000,0.000000,0.000000,0.232556,0.293343,0.069844,0.134315,0.000000,303.000000,290.000000,13.000000,25.000000,0.000000,0.000000:
00000000
00000000
00000000
00000000
,
00000000
00000000
00000000
00000000
,
00000000
00000000
00000000
00000000
,
00000100
00000100
00001000
00001000
,
00010000
00010000
00100000
00100000
,
02000000
00000000
03000000
10000000
,
00200000
00000000
00300000
01000000
,
00010000
00100000
00010000
00100000
,
00001000
00010000
00001000
00010000
,
00000200
00000000
00000300
00001000
,
00000200
00000000
00000000
00000310
,
00001100
00010000
00011000
00000000
,
00011000
00100000
11000000
00000000
,
00200000
00000000
00310000
00010000
,
02000000
00000000
03010000
00010000
,
00001000
00000010
00000110
00000000
,
00000001
00001000
00001100
00000000
,
00100000
00000000
00010000
00000000
00100000
00000000
00001000
00010000
,
00001000
00000000
00000000
00000000
,
00001000
00010000
00100000
00100000
,
00010000
00001000
00000010
00000010
,
00000001
00001000
00000100
00000010
,
00001000
00010000
00100000
01000000
,
10000000
00100000
01000000
01000000
,
00010000
00001000
00010000
00010000
,
00002000
00000000
00003002
00000000
,
00002000
00000000
00003003
00000000
,
00010000
10000000
00000000
01000000
00000000
01000000
00000000
00100000
,
00000000
00010000
00000000
00001000
00000000
00001000
00000000
00000001
,
00000000
00001000
00000000
00010000
00000000
10000000
00000000
00100000
,
00000000
00100000
00000000
00010000
00000000
00010000
00000000
00000100
,
00000000
00001000
00000000
00000010
00000000
00000010
00000000
00001000
,
00000000
00010000
00000000
00100000
00000000
00100000
00000000
00010000
,
10000000
00000000
01000000
00000000
01100000
00000000
00000000
00100000
,
00000000
00010000
00000000
00001000
00000100
00000000
00001000
00000000
,
00000010
00000010
00001000
00001000
,
00010000
00010000
00100000
00100000
,
00020000
00000000
01030000
01000000
,
00002000
00000000
00013000
00010000
,
00000100
00001000
00000010
00000100
,
00000001
00000010
00000100
00001000
,
00000200
00000000
00010300
00010000
,
00002000
00000000
00103000
00100000
,
00011000
00010000
00010100
00001000
,
00110000
00001000
00001100
00010000
,
00002000
00010000
00013000
00000100
,
00000020
00000001
00000031
00001000
,
00000100
00010000
00011000
00000000
,
10000000
00100000
00110000
00000000
,
00001000
00000000
00010000
00000000
00000100
00000000
00000010
00000001
,
00001000
00000000
00000000
00000000
,
00100000
00010000
00100000
00001000
,
00010000
00000100
00010000
00000010
,
00001000
00000001
00001000
00000010
,
00001000
00010000
00001000
00000100
,
00010000
01000000
00010000
00001000
,
00010000
00100000
00010000
00001000
,
00100000
01000000
10000000
00100000
,
01000000
00010000
00100000
00001000
,
00010000
00000100
00000010
00000100
,
00010000
00001000
00100000
00001000
,
00010000
00000100
00000010
00000001
,
00001000
00000100
00001000
00010000
,
10000000
00100000
00010000
00100000
,
10000000
00010000
00100000
00010000
,
00002000
00000000
00003020
00000000
,
00000200
00000000
00000330
00000000
,
00000001
00001000
00000000
00000100
00000000
00001000
00000000
00010000
,
00000000
00100000
00000000
01000000
00000000
00100000
00000000
00001000
,
00000000
00000010
00000000
00000001
00000000
00000010
00000000
00001000
,
00000000
00010000
00000000
00100000
00000000
00010000
00000000
00001000
,
00000000
00100000
00000000
00010000
00000000
10000000
00000000
00100000
,
00000000
00010000
00000000
00001000
00000000
00010000
00000000
00001000
,
00000000
00200000
00000000
01300000
00000000
20000000
00000000
30010000
,
00000000
00200000
00000000
01300000
00000000
00010000
00010000
00000000
,
00001000
00010000
00000000
00000100
00000000
00000010
00000000
00000001
,
00000000
00001000
00000000
00010000
00000000
00100000
00000000
00001000
,
00000000
00010000
00000000
00000100
00000000
00001000
00000000
00000001
,
00000000
00001000
00000000
00010000
00000000
00100000
00000000
00001000
,
00000000
00010000
00000000
00000100
00000000
00010000
00000000
00001000
,
00000000
00100000
00000000
00010000
00000000
10000000
00000000
00100000
,
00000000
00020000
00000000
00031000
00000000
00020000
00000000
00030010
,
00000000
00000100
00000000
00001000
00000000
00100000
00000000
00002000
,
00020000
00000000
00000000
00000000
,
00033000
00000000
00000000
00000000
;

//---------------dance-double - ----------------
#NOTES:
     dance-double:
     :
     Medium:
     8:
     0.305470,0.361038,0.112824,0.107452,0.005373,398.000000,377.000000,21.000000,20.000000,0.000000,0.000000,0.305470,0.361038,0.112824,0.107452,0.005373,398.000000,377.000000,21.000000,20.000000,0.000000,0.000000:
00000000
00000000
00000000
00000000
,
00000000
00000000
00000000
00000000
,
00000000
00000000
00000000
00000000
,
00000010
00001000
00000010
00001000
,
00010000
00100000
00010000
01000000
,
00200000
00000000
10000000
10000000
,
02300000
00000000
00010000
00010000
,
03010000
00001000
00000100
00001000
,
00010000
00100000
00001000
00010000
,
00000200
00000000
00000010
00000010
,
00020300
00000000
00001000
00001000
,
00130000
00000000
00010000
00000000
00001000
00010000
00001000
00000000
,
00000010
00000000
00001000
00000000
00010000
00001000
00010000
00000000
,
00000200
00000010
00001000
00001000
,
00020300
00001000
00100000
00100000
,
00031000
00000000
00100000
00000000
01000000
10000000
01000000
00000000
,
00100000
00000000
00000000
00000000
00010000
00000000
00000000
00000000
01000000
00000000
00000000
01000000
00000000
00000000
00001000
00000000
,
00001000
00010000
00001000
00010000
00000100
00000010
00000001
00001000
,
00000010
00000000
00000000
00000000
,
00100000
00000000
00010000
01000000
00100000
00000000
00010000
00000000
,
00001000
00000000
00010000
00000100
00000010
00000000
00000001
00000000
,
00001000
00000001
00001000
00000000
00000010
00000100
00000010
00000000
,
00001000
00010000
00100000
00000000
00010000
00100000
01000000
00000000
,
10000000
00000000
00100000
00000000
01000000
00010000
00100000
00000000
,
00010000
00000000
00100000
00000000
00001000
00010000
00100000
00000000
,
00020000
00000000
00032000
00000000
,
00200000
00000000
00303000
00000000
,
00100000
00010000
00000000
00010000
10000000
00100000
00000000
01000000
,
00000000
00010000
00000000
00001000
00000100
00000010
00000000
00000001
,
00001000
00000100
00000000
00001000
00000001
00000100
00000000
00000101
,
00000000
00001100
00000000
00011000
00000000
00110000
00000000
10000000
,
00100000
01000000
00000000
00010000
00100000
00010000
00000000
00001000
,
00000000
00001000
00000000
00000001
00001000
00000001
00000000
00001000
,
00010000
00100000
00010000
00100000
00001000
00000000
00010000
00000000
,
00000100
00000100
00001000
00001000
00000001
00000100
00000010
00000000
,
00001000
00001000
00010000
00010000
,
10000000
10000000
00010000
00010000
,
00100000
00010000
00100000
00000000
00001000
00000000
00011000
00000000
,
00010000
00000100
00010000
00000000
00000010
00000000
00001010
00000000
,
00000100
00000000
00000100
00000000
00000001
00001000
00000001
00000000
,
00000010
00000000
00000010
00000000
00000001
00001000
00000001
00000000
,
00001000
00000100
00010000
00000000
00001000
00000000
00011000
00000000
,
00100000
00010000
00001000
00000000
00000100
00000000
00001100
00000000
,
00002000
00013000
00000200
00000310
,
00002000
00013000
00002000
00003010
,
00000200
00000001
00000010
00000310
,
00000002
00000010
00001000
00001003
,
00000100
00001000
00000100
00000000
00010000
00000000
00011000
00000000
,
00100000
00000000
01000000
00000000
10000000
00000000
00000000
00000000
00100000
00000000
00000000
00100000
00000000
00000000
01000000
00000000
,
01000000
00010000
00100000
00001000
00010000
00000100
00000010
00000001
,
00001000
00000000
00000000
00000000
,
00100000
00000000
00010000
00000000
00100000
01000000
10000000
00000000
,
00100000
00000000
00010000
00000000
00001000
00010000
00100000
00000000
,
00010000
00000000
00001000
00000000
00010000
00000100
00001000
00000000
,
00000010
00000000
00000100
00000000
00000001
00001000
00000100
00000000
,
00010000
00000000
00000100
00000000
00000010
00000001
00000010
00000000
,
00000100
00000000
00001000
00000000
00000010
00000100
00000010
00000000
,
00001000
00010000
00001000
00000000
00000100
00001000
00000100
00000000
,
00011000
00100000
00011000
00000100
,
00010000
00000000
00100000
00000000
10000000
01000000
00100000
00000000
,
00010000
00000000
00100000
00000000
00001000
00010000
00000100
00000000
,
00001000
00000010
00000100
00000000
00001001
00000000
00000010
00000000
,
00000100
00000001
00000010
00000000
00001001
00000000
00001000
00000000
,
00000100
00001000
00000100
00000000
00010000
00001000
00010000
00000000
,
00100000
10000000
00100000
00000000
01000000
00010000
00100000
00000000
,
00002000
00010000
00023000
00001000
,
00030200
00010000
00000300
00000000
,
00001000
00100000
00000000
00010000
10000000
00100000
00000000
01000000
,
00000000
01000000
00000000
00010000
00001000
00000010
00000000
00001000
,
00000000
00001000
00000000
00010000
10000000
00100000
00000000
00010000
,
00000000
00010000
00000000
00000100
00000010
00000001
00000000
00001000
,
00000000
00001000
00000000
00010000
10000000
00100000
00000000
00010000
,
00000000
00010000
00000000
00001000
00100000
00010000
00000000
00100000
,
00000000
11000000
00000000
00110000
00000000
00011000
00000000
00010100
,
00000000
00000011
00000000
00001001
00000000
00000100
00000100
00000000
,
00000001
00001000
00000000
00000100
00000000
00000100
00000000
00010000
,
00001000
00100000
00000000
01000000
00000000
01000000
00000000
00100000
,
00010000
00001000
00000000
00000010
00000000
00000010
00000000
00001000
,
00010000
10000000
00000000
00100000
00000000
00100000
00000000
10000000
,
00010000
00100000
00000000
00000100
00000000
00000100
00000000
00010000
,
00001000
00000100
00000000
00000001
00000000
00000001
00000000
00001000
,
00000000
00001100
00000000
00010000
00000000
10100000
00000000
01000000
,
00000000
00010000
00100000
00001000
00010000
00000100
00000000
00000020
,
00000200
00000000
00000000
00000000
,
00000330
00000000
00000000
00000000
;

//---------------dance-double - ----------------
#NOTES:
     dance-double:
     :
     Hard:
     11:
     0.474323,0.496427,0.247139,0.096707,0.206845,618.000000,572.000000,46.000000,18.000000,0.000000,0.000000,0.474323,0.496427,0.247139,0.096707,0.206845,618.000000,572.000000,46.000000,18.000000,0.000000,0.000000:
// measure 0
00000000
00000000
00000000
00000000
,  // measure 1
00000000
00000000
00000000
00000000
,  // measure 2
00000000
00000000
00000000
00000000
,  // measure 3
00001000
00001000
00000001
00000001
,  // measure 4
00001000
00010000
00100000
00000000
00010000
00001000
00000100
00000010
,  // measure 5
00000002
00000000
00001000
00000100
,  // measure 6
00002003
00000000
00010000
00000100
,  // measure 7
00013000
00100000
00010000
00000000
10000000
00100000
00010000
00000000
,  // measure 8
00011000
00000000
00010100
00000000
00000100
00000010
00000001
00000000
,  // measure 9
00002000
00000000
00000010
00000001
,  // measure 10
00003200
00000000
00000010
00010300
,  // measure 11
00011000
00010000
00010100
00000010
,  // measure 12
00001100
00010000
10100000
01000000
,  // measure 13
00020000
00001000
10000000
10000000
,  // measure 14
00032000
00000001
01000000
01000000
,  // measure 15
00003100
00001000
00000010
00000000
00000100
00000001
00000010
00000000
,  // measure 16
00000001
00000000
00001000
00000000
00000010
00000000
00001000
00000000
00011000
00000000
00000000
00110000
00000000
00000000
11000000
00000000
,  // measure 17
10000000
00000000
01000000
00000000
00100000
00000000
00010000
00000000
00001000
00000000
00000100
00000000
00001000
00000001
00000100
00000010
,  // measure 18
00001000
00000000
00000000
00000000
,  // measure 19
10010000
00000000
00000000
00100000
01000000
00000000
00100000
00000000
00010000
00000000
00000000
00001000
00000100
00000000
00000010
00000000
,  // measure 20
00000001
00000000
00000000
00001000
00000100
00000000
00001000
00000000
00010000
00000000
00000000
00100000
00001000
00000000
00010000
00000000
,  // measure 21
00000100
00000100
00001000
00001000
00010000
00010000
10000000
00100000
,  // measure 22
00010000
00000000
00010000
00000000
00001000
00000000
00001000
00000000
00000100
00000000
00000100
00000000
00000001
00001000
00000001
00000000
,  // measure 23
00000010
00000000
00000000
00000100
00001000
00000000
00010000
00000000
00100000
00000000
00000000
00010000
00001000
00000000
00000100
00000000
,  // measure 24
00001000
00000000
00000000
00010000
10000000
00000000
00100000
00000000
00010000
00000000
00000000
00001000
00010000
00000000
00000100
00000000
,  // measure 25
00001000
00001000
00000001
00000001
00000010
00000010
00000100
00001000
,  // measure 26
00010000
00010000
10000000
10000000
00200000
00000000
00300000
00000000
,  // measure 27
10000000
00000000
01000000
00000000
00000000
00000000
10000000
01000000
00100000
00010000
00001000
00000000
00000000
00000000
00001100
00000000
,  // measure 28
00000000
00000000
00000101
00000000
00000000
00000000
00000001
00000010
00000100
00001000
00010000
00000000
00100000
00000000
00001000
00000000
,  // measure 29
00010000
00010000
00000000
00100000
10000000
10000000
00000000
10010000
,  // measure 30
00000000
00011000
00000000
00010100
00000000
00001001
00000000
00001000
,  // measure 31
00010000
00000000
10000000
00000000
00000000
00000000
00100000
01000000
00010000
01000000
00100000
00000000
00000000
00000000
00011000
00000000
,  // measure 32
00000000
00000000
00010100
00000000
00000000
00000000
00001000
00000001
00000010
00000100
00001000
00000000
00010000
00000000
00100000
00000000
,  // measure 33
00001000
00000000
00010000
00000000
00100000
00000000
10000000
00010000
00000000
00000000
00001000
00000000
00000100
00000000
00010000
00000000
,  // measure 34
00001000
00000000
00001000
00000000
00100000
00000000
00100000
00010000
10000000
00000000
00100000
00000000
00020000
00000000
00000000
00000000
,  // measure 35
00031000
00001000
00010000
00000100
00001010
00000000
00000001
00000000
,  // measure 36
00000100
00000100
00001000
00001000
00000110
00000000
00000100
00000000
,  // measure 37
00000001
00000000
00001000
00000000
00010000
00000000
01000000
00000000
00010000
00100000
00000000
00010000
00100000
00000000
00000000
00000000
,  // measure 38
00001000
00000000
00010000
00000000
00100000
00000000
00010000
00000000
00001000
01000000
00000000
00001000
00100000
00000000
00010100
00000000
,  // measure 39
00010000
00000010
00000110
00000000
00001000
00000001
00000011
00000000
,  // measure 40
00001000
00010000
10000000
00100000
00020000
00000000
00031000
00100000
,  // measure 41
00010000
00000000
00001000
00000000
00000100
00000000
00001000
00000000
00010000
00100000
00000000
00001000
00010000
00000000
00000000
00000000
,  // measure 42
00100000
00000000
00010000
00000000
00001000
00000000
01000000
00000000
00010000
00001000
00000000
00010000
00100000
00000000
01010000
00000000
,  // measure 43
20000000
00000000
31000000
00100000
00020000
00000000
00031000
00000100
,  // measure 44
00000020
00000000
00000031
00000010
00000200
00000000
00001300
00010000
,  // measure 45
00200000
00000000
00010000
00000000
01000000
01000000
01000000
00000000
,  // measure 46
00302000
00000000
00010000
00000000
01000000
01000000
01000000
00000000
,  // measure 47
00013000
00000100
00010000
00000010
00000100
00000000
00001001
00000000
,  // measure 48
00000010
00000000
00000100
00000000
00010000
00000000
01000000
00000000
11000000
00000000
00000000
10010000
00000000
00000000
01001000
00000000
,  // measure 49
00010000
00000000
00000100
00000000
00000010
00000000
00000001
00000000
00001000
00000000
00000100
00000000
00001000
00010000
01000000
00001000
,  // measure 50
00010000
00000000
00000000
00000000
,  // measure 51
00001001
00000000
00000000
00000010
00000100
00000000
00001000
00000000
00010000
00000000
00000000
00001000
00000100
00000000
00010000
00000000
,  // measure 52
00100000
00000000
00000000
00010000
00001000
00000000
01000000
00000000
00100000
00000000
00000000
00010000
00001000
00000000
00010000
00000000
,  // measure 53
10000000
10000000
01000000
01000000
00010000
00001000
00000100
00000010
,  // measure 54
00000001
00000001
00001000
00001000
00010000
10000000
00100000
00010000
,  // measure 55
00011000
00000000
00000000
00010000
00001000
00000000
00010000
00000000
00000100
00000000
00000000
00000010
00000100
00000000
00001000
00000000
,  // measure 56
00010000
00000000
00000000
00100000
00010000
00000000
01000000
00000000
00001000
00000000
00000000
00010000
00000100
00000000
00000010
00000000
,  // measure 57
00000001
00000001
00001000
00001000
00010000
10000000
00100000
00010000
,  // measure 58
00001000
00001000
00010000
00010000
00000100
00000010
00000001
00001000
,  // measure 59
00011000
00000000
00000000
10000000
00010000
00000000
00100000
00000000
00011000
00000000
00000000
00001000
00000001
00000000
00001000
00000000
,  // measure 60
00011000
00000000
00000000
00100000
00010000
00000000
10000000
00000000
00011000
00000000
00000000
00010000
00000100
00000000
00001000
00000000
,  // measure 61
00000010
00000010
00000100
00000100
00000001
00000010
00001000
00010000
,  // measure 62
00001000
00001000
00100000
00100000
00010000
10000000
01000000
00100000
,  // measure 63
00010000
00000000
00100000
00001000
00000000
00010000
00000100
00000000
00000010
00000000
00000001
00001000
00000000
00010000
00100000
00000000
,  // measure 64
00001000
00000000
00010000
00000100
00000000
00000010
00001000
00000000
00010000
00000000
00001000
00100000
00000000
00010000
10000000
00000000
,  // measure 65
00100000
00100000
00010000
00010000
00001000
00001000
00100000
01000000
,  // measure 66
00001000
00001000
00000001
00000001
00002000
00000000
00003000
00000000
,  // measure 67
00000001
00000000
00001000
00000000
00000100
00000000
00010000
00001000
00100000
00010000
10000000
00000000
00100000
00000000
00010000
00000000
,  // measure 68
00001000
00000000
00100000
00000000
00010000
00000000
00001000
00000100
00000010
00000001
00001000
00000000
00000010
00000000
00000100
00000000
,  // measure 69
00001000
00000000
00010000
00000000
00100000
00000000
10000000
01000000
00100000
00010000
00001000
00000000
00000100
00000000
00010000
00000000
,  // measure 70
00001000
00000000
00100000
00000000
00010000
00000000
00001000
00000100
00000010
00000001
00001000
00000000
00000010
00000000
00000100
00000000
,  // measure 71
00001000
00000000
00010000
00000000
00000100
00000000
00000010
00001000
00010000
00100000
00010000
00000000
00001000
00000000
00010000
00000000
,  // measure 72
00000100
00000000
00000010
00000000
00000001
00000000
00001000
00000100
00100000
00010000
00100000
00000000
00001000
00000000
00010000
00000000
,  // measure 73
00000000
00001001
00000001
00000101
00000000
00001001
00001000
00110000
,  // measure 74
00000000
00110000
10000000
10100000
00000000
01010000
01010000
00000000
,  // measure 75
00100000
00000000
00010000
00000000
00001000
00000000
00000100
00010000
00001000
00100000
00010000
00000000
00001000
00000000
00000100
00000000
,  // measure 76
00000010
00000000
00000001
00000000
00000100
00000000
00001000
00010000
01000000
10000000
00100000
00000000
00010000
00000000
00001000
00000000
,  // measure 77
00100000
00000000
00010000
00000000
00001000
00000000
00000001
00000100
00000010
00001000
00000100
00000000
00010000
00000000
00100000
00000000
,  // measure 78
10000000
00000000
01000000
00000000
00100000
00000000
00010000
00001000
00000100
00010000
00001000
00000000
00100000
00000000
00010000
00000000
,  // measure 79
01000000
00000000
00001000
00000000
00010000
00000000
00000100
00000010
00000001
00000010
00000100
00000000
00001000
00000000
00010000
00000000
,  // measure 80
10000000
00000000
00100000
00000000
00010000
00000000
00001000
00100000
00010000
00001000
00000100
00000000
00001000
00000000
00000010
00000000
,  // measure 81
00000000
00001001
00000010
00011000
00000000
00110000
10000000
00110000
,  // measure 82
00000000
00010000
00001000
00000010
00000001
00001000
00000000
00000020
,  // measure 83
00000200
00000000
00000000
00000000
,  // measure 84
00000330
00000000
00000000
00000000
;
