#TITLE:Destiny;
#SUBTITLE:;
#ARTIST:Yooh;
#TITLETRANSLIT:;
#SUBTITLETRANSLIT:;
#ARTISTTRANSLIT:;
#GENRE:;
#CREDIT:;
#BANNER:Destiny-bn.png;
#BACKGROUND:Destiny-bg.jpg;
#LYRICSPATH:;
#CDTITLE:;
#MUSIC:Destiny.mp3;
#OFFSET:-0.192000;
#SAMPLESTART:77.541969;
#SAMPLELENGTH:15.000000;
#SELECTABLE:YES;
#BPMS:0.000000=222.000000
,196.000000=111.000000
,228.000000=180.000000
,232.000000=189.000000
,236.000000=193.000000
,238.000000=195.000000
,240.000000=205.000000
,242.000000=206.000000
,244.000000=222.000000
;
#STOPS:251.000000=0.135000
;
#BGCHANGES:;
#KEYSOUNDS:;
#ATTACKS:;

//---------------dance-single - ----------------
#NOTES:
     dance-single:
     :
     Beginner:
     4:
     0.191780,0.459150,0.101318,0.143534,0.000000,159.000000,147.000000,12.000000,17.000000,0.000000,0.000000,0.191780,0.459150,0.101318,0.143534,0.000000,159.000000,147.000000,12.000000,17.000000,0.000000,0.000000:
0000
0000
0000
0000
,
0000
0000
0000
0000
,
0000
0000
0000
0000
,
0000
0000
0000
0000
,
0000
0000
0000
0000
,
0000
0000
0000
0000
,
0000
0000
0000
0000
,
0000
0000
0000
0000
,
0000
0000
0000
0000
,
1000
0000
0000
0000
0000
1000
0000
0000
,
0000
1000
0000
0000
,
0001
0000
0000
0000
0000
0001
0000
0000
,
0000
0001
0000
0000
,
0100
0000
0000
0100
,
0100
0000
0100
0000
,
0010
0000
0000
0000
0000
0000
0000
0010
,
0000
0000
0010
0000
,
1000
0000
0000
0000
,
1000
0000
1000
0001
,
0010
0000
0000
0000
,
0001
0000
0001
0000
,
0100
0100
0000
0000
,
0010
0000
0010
0000
,
0001
1000
0100
0000
,
1000
0000
0000
0001
0000
0000
1000
0000
,
0000
0001
0000
0001
,
0000
0001
0000
0000
,
0000
1000
0000
1000
,
0000
0001
0000
1000
,
0000
0010
0010
0000
,
0100
0000
0000
0001
0000
0000
1000
0000
,
0000
0001
0000
0000
0100
0000
0000
0001
,
0000
0000
0000
0000
,
0001
0000
0001
0000
,
1000
1000
0000
0000
,
0010
0000
0010
0000
,
0100
0100
0000
0000
,
0001
0000
0001
0000
,
0010
0010
0000
0000
,
0100
0000
1000
0000
,
0010
0000
0100
0000
0000
0000
0000
1000
,
0000
1000
0000
0000
,
0000
0000
0000
0000
,
0001
0000
0001
0000
0000
0000
0000
0001
,
0000
0000
0000
0000
,
0100
0000
0000
0000
,
0010
0000
0010
0000
,
0100
0000
0001
0000
,
1000
0000
0000
0000
,
2002
0000
0000
0000
,
3003
0000
0000
0000
,
0220
0000
0000
0000
,
0330
0000
0000
0000
,
0011
2200
0000
0000
,
3300
0000
0000
0000
,
1010
0000
0101
0000
,
1001
0110
1001
0000
,
0200
0000
0000
0000
,
0000
0000
0000
0000
,
0000
0000
0000
0000
,
0000
0000
0000
0000
,
0300
0000
0000
0000
,
0000
0000
0000
0000
,
0000
0000
1000
0000
0000
0001
0000
0001
,
0000
0000
1000
0000
0000
0001
0000
0001
,
0000
0000
1000
0000
0000
0001
0000
0001
,
0000
0000
0000
0001
0000
0000
0000
1000
,
0000
1000
0000
1000
0000
0000
0000
0001
,
0000
0001
0000
0001
0000
0000
0000
1000
,
0000
0000
0000
0001
0000
0000
0000
0200
,
0000
0000
0000
0310
0000
0000
0000
1000
,
0000
0000
0000
0010
0000
0000
0000
0100
,
0000
0000
0000
0001
0000
0000
0000
1001
,
0000
0000
0000
1001
0000
0000
0000
1001
,
0000
0000
0000
0000
0000
0000
0000
1000
,
0000
1000
0000
1000
0000
0000
0000
0001
,
0000
0001
0000
0001
0000
0000
0000
0100
,
0000
0000
0000
0100
0000
0000
0000
0010
,
0000
0100
0000
0010
0000
0000
0000
2000
,
0000
0000
0000
0000
0000
0000
0000
3200
,
0000
0000
0000
0000
0000
0000
0000
0320
,
0000
0000
0000
0000
0000
0000
0000
0032
,
0000
0000
0000
0000
0000
0000
0003
2000
,
0000
0000
0000
0000
0000
0000
0000
3020
,
0000
0000
0000
0000
0000
0000
0000
0230
,
0000
0000
0000
0000
0000
0000
0000
0302
,
0000
0000
0000
0000
0000
0000
0000
1003
,
0000
0000
0000
1000
0000
0000
0000
1000
,
0000
0000
0000
1000
0000
0000
0000
0001
,
0000
0000
0000
0001
0000
0000
0000
0001
,
0000
0000
0000
0001
0000
0000
0000
0100
,
0000
0000
0000
0010
0000
0000
0000
0100
,
0000
0000
0000
0010
0000
0000
0000
1000
,
0000
0000
0000
0001
0000
0000
0000
1000
,
0000
0000
0000
0001
0000
0001
0000
0200
,
0000
0000
0000
0000
,
0000
0000
0000
0000
,
0000
0000
0000
0000
,
0000
0000
0000
0000
0000
0000
0000
0310
;

//---------------dance-single - ----------------
#NOTES:
     dance-single:
     :
     Easy:
     10:
     0.420952,0.626113,0.337727,0.126647,0.000000,349.000000,309.000000,40.000000,15.000000,0.000000,0.000000,0.420952,0.626113,0.337727,0.126647,0.000000,349.000000,309.000000,40.000000,15.000000,0.000000,0.000000:
0000
0000
0000
0000
,
0000
0000
0000
0000
,
0000
0000
0000
0000
,
0000
0000
0000
0000
,
0000
0000
0000
0000
,
0000
0000
0000
0000
,
0000
0000
0000
0000
,
0000
0000
0000
0000
,
0000
0000
0000
0000
,
1000
0000
0000
1000
0000
1000
0000
1000
,
0000
1000
0001
0000
0000
0000
0000
0000
,
0001
0000
0000
0001
0000
0001
0000
0001
,
0000
0001
0100
0000
0000
0000
0000
0000
,
0100
0000
0010
0100
0000
0010
0100
0000
,
0010
0100
0000
0010
0000
0000
0000
0000
,
0010
0000
0010
0000
0100
0010
0000
0010
,
0000
0010
0100
0000
0010
0000
0000
0000
,
1001
1000
0001
1000
,
0100
1000
0100
0000
,
0010
0001
0010
0100
,
1001
1000
0001
0000
,
0100
0100
0010
0000
,
1000
0001
0010
0000
,
0001
0100
0001
1000
,
1100
0000
0000
0101
0000
0000
1100
0000
,
0000
0001
0000
0100
0000
0001
0000
0100
,
0000
0001
0000
0100
0000
0001
0000
0100
,
0000
0010
0000
1000
0000
0010
0000
1000
,
0001
0000
0000
0001
0000
0000
0001
0000
,
0000
1000
1000
0000
,
0001
0000
0000
1000
0000
0000
0110
0000
,
0000
1001
0000
0000
0110
0000
0000
1001
,
0000
0000
0000
0000
,
0010
1000
0100
1000
,
0010
0010
0010
0000
,
1000
0100
0010
0001
,
0100
0100
0100
0000
,
0001
0100
0010
1000
,
0100
0100
1000
0000
,
0001
1000
0010
0100
,
0001
0000
0001
0000
0100
0000
0010
0100
,
0000
0000
0100
0000
0010
0000
0100
0010
,
0000
0000
0000
0000
,
1000
0000
0001
0000
1000
0000
0001
1000
,
0000
0000
0000
0000
,
0001
0000
0010
0000
0100
1000
0000
0000
,
1000
0000
0010
0000
0100
0001
0000
0000
,
0001
0000
0100
0000
0010
0100
0010
0000
,
0100
0000
0000
0000
,
2002
0000
0000
3003
,
0001
0001
1000
1000
0001
0001
1000
0000
,
0220
0000
0000
0330
,
0110
0110
1010
1010
,
0102
0200
0000
0303
,
0001
0001
1000
1000
0001
0001
0100
0000
,
0120
0000
0230
0000
,
0310
1000
0100
0100
0200
0000
0000
0000
,
1300
0000
1000
0000
,
1000
0000
1000
0000
,
0001
0000
0001
0000
,
1000
1000
0001
0002
,
0000
0000
0000
0000
,
0000
0000
0000
0003
,
0000
1000
0100
0000
0000
0101
0000
1000
,
0000
1000
0100
0000
0000
0101
0000
1000
,
0000
1000
0100
0000
0000
0101
0000
0001
,
0000
0010
0000
0100
0000
1000
0000
0010
,
1000
0010
0000
0100
0000
0001
0000
0100
,
0001
0100
0000
0010
0000
1000
0000
1001
,
0000
0000
0000
1001
0000
0000
0000
0200
,
0000
0010
0000
0320
0000
0130
0000
1100
,
0000
0001
0010
0000
0000
1100
0000
0011
,
0000
0100
0000
1000
0000
0010
0000
1010
,
0000
1100
0000
0101
0000
0011
0000
1001
,
0000
0000
0000
0001
1000
0001
0000
1000
,
0100
1000
0000
0100
0000
0010
0000
0001
,
0010
0001
0000
0010
0000
0100
0000
1100
,
0000
0000
0000
1001
0000
0000
0000
0002
,
0000
1000
0000
2003
0000
3001
0000
1001
,
0000
0000
0000
0110
0000
0000
0000
0000
,
0000
0010
0000
0110
0000
0000
0000
1000
,
0000
0000
0000
1100
0000
0000
0000
0010
,
0000
0001
0000
0101
0000
1000
0000
1000
,
0000
0010
0000
0110
0000
0100
0000
0010
,
0000
0100
0000
0101
0000
0001
0000
1000
,
0000
0001
0000
0101
0000
0100
0000
0010
,
0000
1000
0000
1000
0001
0000
0000
0001
,
0000
1000
0000
0001
0000
1000
0000
0010
,
0000
1000
0000
0010
0000
1000
0000
0001
,
0000
0100
0000
0001
0000
0100
0000
0010
,
0000
0100
0000
0010
0000
0100
0000
0001
,
0000
0010
0000
0100
0000
1000
0000
1000
,
0000
0100
0000
0010
0000
0001
0000
1000
,
0000
0010
0000
0100
0000
0001
0000
1000
,
0000
0010
0000
0100
0001
1000
0000
0020
,
0000
0000
0000
0100
0000
0000
0000
0100
,
0000
0000
0000
0100
0000
0000
0000
0130
,
0000
0010
0000
0100
0000
0010
0000
0100
,
0010
0100
0010
0100
0010
0100
0010
1000
;

//---------------dance-double - ----------------
#NOTES:
     dance-double:
     :
     Easy:
     10:
     0.377530,0.542632,0.211079,0.261738,0.000000,313.000000,288.000000,25.000000,31.000000,0.000000,0.000000,0.377530,0.542632,0.211079,0.261738,0.000000,313.000000,288.000000,25.000000,31.000000,0.000000,0.000000:
// measure 0
00000000
00000000
00000000
00000000
,  // measure 1
00000000
00000000
00000000
00000000
,  // measure 2
00000000
00000000
00000000
00000000
,  // measure 3
00000000
00000000
00000000
00000000
,  // measure 4
00000000
00000000
00000000
00000000
,  // measure 5
00000000
00000000
00000000
00000000
,  // measure 6
00000000
00000000
00000000
00000000
,  // measure 7
00000000
00000000
00000000
00000000
,  // measure 8
00000000
00000000
00000000
00000000
,  // measure 9
00010000
10000000
00000000
10000000
00000000
10000000
00000000
10000000
,  // measure 10
00000000
10000000
00010000
00000000
00000000
00000000
00000000
00000000
,  // measure 11
01000000
00010000
00000000
00010000
00000000
00010000
00000000
00010000
,  // measure 12
00000000
00010000
01000000
00000000
00000000
00000000
00000000
00000000
,  // measure 13
00001000
00000000
00010000
00001000
00000000
00010000
00001000
00000000
,  // measure 14
00010000
00001000
00000000
00010000
00000000
00000000
00000000
00000000
,  // measure 15
00000010
00000000
00001000
00000000
00000010
00001000
00000000
00001000
,  // measure 16
00000000
00001000
00000010
00000000
00000100
00000000
00000000
00000000
,  // measure 17
00001001
00000000
00000001
00000000
,  // measure 18
00000001
00000000
00000001
00000100
,  // measure 19
00001000
00000000
00010000
00000000
,  // measure 20
00011000
00000000
00011000
00000000
,  // measure 21
00001000
00010000
00001000
00000000
,  // measure 22
00100000
00000000
00100000
01000000
,  // measure 23
10000000
00000000
10000000
00000000
,  // measure 24
10100000
00000000
00000000
01010000
00000000
00000000
10100000
00000000
,  // measure 25
00000000
10000000
00000000
00100000
00000000
10000000
00000000
00100000
,  // measure 26
00000000
01000000
00000000
00100000
00000000
01000000
00100000
00000000
,  // measure 27
00000000
01000000
00010000
01000000
,  // measure 28
00010000
00000000
00000000
00100000
00000000
00000000
01000000
00000000
,  // measure 29
00000000
10000000
10000000
00000000
,  // measure 30
00100000
00000000
00000000
01000000
00000000
00000000
00010000
00000000
,  // measure 31
00000000
00000010
00000000
00000000
00001000
00000000
00000000
00100000
,  // measure 32
00000000
00000000
00000000
00000000
,  // measure 33
10000000
00100000
01000000
00010000
,  // measure 34
00100000
00100000
00100000
00000000
,  // measure 35
00001000
00010000
00000010
00001000
,  // measure 36
00000100
00000100
00000100
00000000
,  // measure 37
00010000
00000010
00000100
00000001
,  // measure 38
00000010
00000010
00000100
00000000
,  // measure 39
00001000
00000001
00000100
00001000
,  // measure 40
00010000
00000000
00010000
00000000
00001000
00000000
00000000
00011000
,  // measure 41
00000000
00000000
00001000
00000000
00010000
00000000
00001000
00010000
,  // measure 42
00000000
00000000
00000000
00000000
,  // measure 43
00100000
00000000
01000000
00000000
00100000
00000000
01000000
00100000
,  // measure 44
00000000
00000000
00000000
00000000
,  // measure 45
10000000
00100000
00010000
00000000
,  // measure 46
00001000
00000100
00000001
00000000
,  // measure 47
00000001
00000000
00000010
00000000
00000100
00001000
00000100
00000000
,  // measure 48
00000010
00000000
00000000
00000000
,  // measure 49
00002002
00000000
00000000
00003003
,  // measure 50
00000001
00000001
00000010
00000010
00000100
00000100
00001000
00000000
,  // measure 51
00022000
00000000
00000000
00033000
,  // measure 52
00110000
00110000
10100000
10100000
,  // measure 53
10020000
20000000
00000000
30030000
,  // measure 54
10000000
10000000
01000000
01000000
00100000
00100000
00010000
00000000
,  // measure 55
00021000
00000000
00032000
00000000
,  // measure 56
00003001
00001001
00002000
00000000
,  // measure 57
00003010
00000000
00000010
00000000
,  // measure 58
00000010
00000000
00000010
00000000
,  // measure 59
00000100
00000000
00000100
00000000
,  // measure 60
00001000
00000000
00001000
00000000
,  // measure 61
00020000
00000000
00000000
00000000
,  // measure 62
00000000
00000000
00000000
00030000
,  // measure 63
00000000
10000000
00100000
00000000
00000000
00101000
00000000
01000000
,  // measure 64
00000000
10000000
00100000
00000000
00000000
00101000
00000000
01000000
,  // measure 65
00000000
10000000
00100000
00000000
00000000
00101000
00000000
01000000
,  // measure 66
00000000
10000000
00000000
00100000
00000000
00010000
00000000
00001000
,  // measure 67
00010000
00001000
00000000
00010000
00000000
00000010
00000000
00010000
,  // measure 68
00001000
00010000
00000000
00001000
00000000
00100000
00000000
00001000
,  // measure 69
00000000
00010000
00000000
00001000
00000000
00000000
00000000
00020000
,  // measure 70
00000000
00030010
00000000
00002000
00000000
00103000
00000000
00101000
,  // measure 71
00000000
00100000
00010000
00100000
00000000
01000000
00000000
10000000
,  // measure 72
00000000
00100000
00000000
00010000
00000000
00001000
00000000
00011000
,  // measure 73
00000000
00010000
00000000
00010010
00000000
00000010
00000000
00000110
,  // measure 74
00000000
00000000
00000000
00000010
00000100
00000010
00000000
00010000
,  // measure 75
00001000
00010000
00000000
00000100
00000000
00010000
00000000
00001000
,  // measure 76
00010000
00001000
00000000
01000000
00000000
00001000
00000000
00011000
,  // measure 77
00000000
00000000
00000000
00011000
00000000
00000000
00000000
00002000
,  // measure 78
00000000
00103000
00000000
00020000
00000000
00030010
00000000
00000020
,  // measure 79
00000000
00000000
00000000
00000230
00000000
00000000
00000000
00000302
,  // measure 80
00000000
00000000
00000000
00002003
00000000
00000000
00000000
00003200
,  // measure 81
00000000
00000000
00000000
00000320
00000000
00000000
00000000
00000230
,  // measure 82
00000000
00000000
00000000
00002300
00000000
00000000
00000000
00023000
,  // measure 83
00000000
00000000
00000000
00230000
00000000
00000000
00000000
02300000
,  // measure 84
00000000
00000000
00000000
23000000
00000000
00000000
00000000
30200000
,  // measure 85
00000000
00000000
00000000
02300000
00000000
00000000
00000000
03020000
,  // measure 86
00000000
00000000
00000000
20030000
00000000
00000000
00000000
30100000
,  // measure 87
00000000
10000000
00000000
00100000
00000000
10000000
00000000
01000000
,  // measure 88
00000000
10000000
00000000
01000000
00000000
10000000
00000000
00100000
,  // measure 89
00000000
01000000
00000000
00100000
00000000
01000000
00000000
00010000
,  // measure 90
00000000
01000000
00000000
00010000
00000000
01000000
00000000
00100000
,  // measure 91
00000000
00010000
00000000
00001000
00000000
00010000
00000000
00000100
,  // measure 92
00000000
00001000
00000000
00000010
00000000
00001000
00000000
00000001
,  // measure 93
00000000
00000010
00000000
00000100
00000000
00001000
00000000
00000010
,  // measure 94
00000000
00000100
00000000
00001000
00000000
00010000
00000000
00002000
,  // measure 95
00000000
00000000
00000000
00010000
00000000
00000000
00000000
00010000
,  // measure 96
00000000
00000000
00000000
00010000
00000000
00000000
00000000
00013000
,  // measure 97
00000000
00001000
00000000
00010000
00000000
00001000
00000000
00010000
,  // measure 98
00001000
00010000
00001000
00010000
00001000
00010000
00001000
00010000
;

//---------------dance-single - ----------------
#NOTES:
     dance-single:
     :
     Medium:
     13:
     0.595846,0.876559,0.337727,0.396829,0.113983,494.000000,454.000000,40.000000,47.000000,0.000000,0.000000,0.595846,0.876559,0.337727,0.396829,0.113983,494.000000,454.000000,40.000000,47.000000,0.000000,0.000000:
0000
0000
0000
0000
,
0000
0000
0000
0000
,
0000
0000
0000
0000
,
0000
0000
0000
0000
,
0000
0000
0000
0000
,
0000
0000
0000
0000
,
0000
0000
0000
0000
,
0000
0000
0000
0000
,
0000
0000
0000
0000
,
1000
0100
0000
1000
0000
0100
0000
1000
,
0000
0100
1000
0000
0000
0000
0000
0000
,
0100
0010
0000
0100
0000
0010
0000
0100
,
0000
0010
0100
0000
0000
0000
0000
0000
,
0010
0000
0001
0010
0000
0001
0010
0000
,
0001
0010
0000
0001
0000
0000
0000
0000
,
0001
0000
1000
0000
0001
1000
0000
0001
,
0000
1000
0001
0000
1000
0001
1000
0001
,
0100
0010
0100
0010
,
0100
0000
0010
0000
1000
0100
1000
0100
,
0010
0000
0100
0000
0010
0000
0100
0010
,
0001
0000
0100
0010
1000
0000
0100
0010
,
0100
0010
0001
0000
0100
0000
0010
0000
,
0100
0000
0010
0000
1000
0100
1000
0100
,
0010
0000
0100
0000
0010
0000
0100
0010
,
0110
0000
0000
1001
0000
0000
0110
0000
,
0100
0010
0100
0010
0000
0010
0000
0010
,
0000
0010
0000
0010
0001
0010
0100
0010
,
0100
0010
0000
0010
0000
0010
1000
0010
,
1000
0010
0100
0001
0000
1000
0001
0000
,
0010
0100
0110
0000
0110
0000
1000
0000
,
0001
1000
0010
0100
0000
0010
0100
0000
,
1000
0100
0000
0010
0001
0000
1000
0010
,
0000
0000
0000
0000
,
1001
0000
0001
0000
0010
0100
1000
0010
,
0000
0010
0000
0010
1000
0100
0010
0001
,
0100
0000
0100
0000
0010
1000
0100
1000
,
0000
1000
0000
1000
0010
0001
0010
0100
,
0001
0000
0001
0000
0010
0100
1000
0100
,
0000
0100
0000
0100
0010
0001
1000
0100
,
1000
0000
0001
0010
0000
1000
0010
0000
,
0001
0010
0000
1000
0100
0010
0001
1001
,
0000
0000
1001
0000
0001
0010
0100
1000
,
0000
0000
0000
0000
,
1001
0000
1001
0000
1000
0100
0010
0001
,
0000
0000
0000
0000
,
0101
0000
0101
0000
0001
0010
0100
0000
,
1100
0000
0000
0000
1100
0000
0000
0000
1000
0000
0000
1000
0000
0000
1000
0000
,
0001
0010
0100
1000
0010
0100
0001
0010
,
0100
0000
0000
0000
,
1001
2002
0000
0000
0000
0000
3003
0000
,
0001
0010
0001
0010
0100
0010
0100
0010
0100
1000
0100
1000
0010
0000
0000
0000
,
1000
0001
2002
0000
0000
0000
0000
0000
0000
0000
0000
0000
3003
0000
0000
0000
,
1010
0101
1010
0101
,
0001
0000
0000
0010
0000
0000
0100
0000
2200
0000
0000
0000
0000
0000
0000
0000
0000
0000
0000
0000
0000
0000
0000
0000
3300
0000
0000
0000
0000
0000
0000
0000
,
1000
0100
1000
0100
0010
0100
0010
0100
0010
0001
0010
0001
0100
0000
0000
0000
,
0010
0010
0200
0000
0000
0000
0000
0000
1300
1000
0200
0000
0000
0000
0000
0000
,
0301
0000
0000
0000
0000
0000
0000
0000
0010
0000
0000
0000
0000
0000
0000
0000
0100
0000
0000
0000
0000
0000
0000
0000
1000
0000
0000
0000
0000
0000
0000
0000
0000
0000
0000
0000
0000
0000
0000
0000
0000
0000
0000
0000
0000
0000
0000
0000
0010
0000
0000
0000
0000
0000
0000
0000
0000
0000
0000
0000
0000
0000
0000
0000
0000
0000
1000
0000
0000
0000
0000
0000
0000
0000
0000
0000
0000
0000
0000
0000
0000
0000
0000
0000
0010
0000
0000
0000
0000
0000
0000
0000
0000
0000
0000
0000
0200
0000
0000
0000
0000
0000
0000
0000
0000
0000
0000
0000
0000
0000
0000
0000
0000
0000
0000
0000
0000
0000
0000
0000
0000
0000
0000
0000
0000
0000
0000
0000
0000
0000
0000
0000
0000
0000
0000
0000
0000
0000
0000
0000
0000
0000
0000
0000
0000
0000
0000
0000
0000
0000
0000
0000
0000
0000
0000
0000
0000
0000
0000
0000
0000
0000
0000
0000
0000
0000
0000
0000
0000
0000
0000
0000
0000
0000
0000
0000
0000
0000
0000
0000
0000
0000
0000
0000
0000
0000
0000
0000
0000
0000
0000
0000
,
0310
0000
0010
0000
,
1000
0000
0100
0000
,
0010
0000
0010
0000
,
0001
0010
0100
2000
,
0000
0000
0000
0000
,
0000
0000
0000
0000
0000
0000
3000
0011
,
0000
0100
1000
0010
0000
1010
0000
0011
,
0000
0100
1000
0010
0000
1010
0000
0011
,
0000
0100
1000
0010
0000
1000
0010
0002
,
0000
0023
0000
0230
0000
2300
0000
3100
,
0001
0100
0001
0010
0100
1000
0000
0001
,
0010
0001
0010
0100
1000
0010
0000
1000
,
0100
0010
0000
0001
0100
0010
0000
1100
,
0000
0110
0000
0011
0000
0000
0000
0011
,
0000
0100
1000
0010
0000
1010
0000
0011
,
0000
0000
0000
0100
0000
0000
0000
0000
0000
1100
0000
0000
0000
0000
0000
0101
0000
0000
0000
0000
0000
0001
0000
0100
,
0000
0001
0000
0100
0000
0000
0000
0000
0000
0010
0000
1000
0000
0010
0000
1000
0000
0000
0000
0000
0000
1010
0000
0000
,
0000
1000
0000
0001
0010
0100
0000
1000
,
0100
0001
0100
1000
0100
0001
0000
1000
,
0010
0001
0010
1000
0010
0001
0000
1000
,
0010
0100
0000
0001
0100
0010
0000
1100
,
0000
0110
0000
0011
0000
0000
0000
0002
,
0000
0023
0000
0230
0000
2300
0000
3020
,
0000
0230
0000
0302
0000
0203
0000
0320
,
0000
2030
0000
3200
0000
0320
0000
0032
,
0000
0023
0000
0230
0000
2300
0000
3020
,
0000
2030
0000
3020
0000
0230
0000
0302
,
0000
0203
0000
0302
0000
0023
0000
0230
,
0000
2300
0000
3200
0000
0320
0000
0032
,
0000
0023
0000
2030
0000
3200
0000
0310
,
0100
0010
0100
0001
0100
0001
0100
0010
,
0100
0010
0100
0001
0100
0001
0000
1000
,
0010
1000
0010
0100
0010
0100
0010
1000
,
0010
1000
0010
0100
0010
0100
0000
0001
,
0010
0100
1000
0010
0100
0001
0010
0100
,
1000
0010
0100
0001
1000
0001
0000
0010
,
0100
1000
0100
0010
0001
0010
0100
1000
,
0010
1000
0001
0100
0010
0100
0010
0210
,
0000
0000
0000
0010
0000
0000
0000
0010
,
0000
0000
0000
0010
0000
0000
0000
0310
,
0000
0100
0000
0010
0000
0100
0000
0010
,
0100
0000
0010
0000
0100
0000
0010
0000
0100
0000
0010
0100
0010
0000
0100
0000
;

//---------------dance-double - ----------------
#NOTES:
     dance-double:
     :
     Medium:
     13:
     0.570517,0.876559,0.185750,0.447488,0.113983,473.000000,451.000000,22.000000,53.000000,0.000000,0.000000,0.570517,0.876559,0.185750,0.447488,0.113983,473.000000,451.000000,22.000000,53.000000,0.000000,0.000000:
// measure 0
00000000
00000000
00000000
00000000
,  // measure 1
00000000
00000000
00000000
00000000
,  // measure 2
00000000
00000000
00000000
00000000
,  // measure 3
00000000
00000000
00000000
00000000
,  // measure 4
00000000
00000000
00000000
00000000
,  // measure 5
00000000
00000000
00000000
00000000
,  // measure 6
00000000
00000000
00000000
00000000
,  // measure 7
00000000
00000000
00000000
00000000
,  // measure 8
00000000
00000000
00000000
00000000
,  // measure 9
10000000
00010000
00000000
10000000
00000000
00010000
00000000
10000000
,  // measure 10
00000000
00010000
10000000
00000000
00000000
00000000
00000000
00000000
,  // measure 11
00010000
00100000
00000000
00010000
00000000
00100000
00000000
00010000
,  // measure 12
00000000
00100000
00010000
00000000
00000000
00000000
00000000
00000000
,  // measure 13
00001000
00000000
00000100
00001000
00000000
00000100
00001000
00000000
,  // measure 14
00000100
00001000
00000000
00000100
00000000
00000000
00000000
00000000
,  // measure 15
00001000
00000000
00000001
00000000
00001000
00000001
00000000
00001000
,  // measure 16
00000000
00000001
00001000
00000000
00000001
00000010
00000100
00001000
,  // measure 17
00000001
00000100
00000001
00000100
,  // measure 18
00000001
00000000
00000100
00000000
00000001
00001000
00000001
00001000
,  // measure 19
00000010
00000000
00001000
00000000
00000010
00000000
00001000
00000100
,  // measure 20
00000010
00000000
00001000
00010000
00000000
00001000
00001000
00000000
,  // measure 21
00010000
00100000
01000000
00000000
00100000
00000000
01000000
00000000
,  // measure 22
00100000
10000000
01000000
00000000
00100000
00010000
00100000
00010000
,  // measure 23
01000000
00000000
00100000
00000000
01000000
00000000
00100000
10000000
,  // measure 24
01000000
00000000
00000000
00110000
00000000
00000000
00001100
00000000
,  // measure 25
00000010
00000001
00000100
00000010
00000000
00000010
00000000
00000010
,  // measure 26
00000000
00000010
00000000
00000010
00000001
00000010
00000100
00000010
,  // measure 27
00001000
00000100
00000000
00000100
00000000
00000100
00000010
00000100
,  // measure 28
00010000
00000000
00010000
00001000
00000000
00001000
00010000
00000000
,  // measure 29
00001000
01000000
01010000
00000000
01010000
00000000
00010000
00000000
,  // measure 30
10000000
01000000
10000000
01000000
00000000
00100000
00010000
00000000
,  // measure 31
10000000
00100000
00000000
00010000
00001000
00000000
00000010
00000100
,  // measure 32
00000000
00000000
00000000
00000000
,  // measure 33
00000001
00000000
00000001
00000000
00000100
00000010
00001000
00000100
,  // measure 34
00000000
00000100
00000000
00000100
00000010
00000100
00001000
00000000
,  // measure 35
00000010
00000000
00000010
00000000
00000100
00000010
00001000
00000100
,  // measure 36
00000000
00000100
00000000
00001000
00000100
00000010
00000100
00001000
,  // measure 37
00010000
00000000
00010000
00000000
00100000
00010000
01000000
00100000
,  // measure 38
00000000
00100000
00000000
10000000
01000000
00010000
01000000
10000000
,  // measure 39
00100000
00000000
00100000
01000000
00000000
01000000
00010000
00000000
,  // measure 40
00010000
00001000
00000000
00001000
00000010
00000100
00000010
00000110
,  // measure 41
00000000
00000000
00000110
00000000
00000001
00000010
00000100
00001000
,  // measure 42
00000000
00000000
00000000
00000000
,  // measure 43
00011000
00000000
00011000
00000000
00001000
00010000
00100000
01000000
,  // measure 44
00000000
00000000
00000000
00000000
,  // measure 45
10010000
00000000
00010000
00000000
10000000
00100000
00010000
00000000
,  // measure 46
00011000
00000000
00000000
00000000
00001000
00000000
00000000
00000000
00000100
00000000
00000000
00000010
00000000
00000000
00000100
00000000
,  // measure 47
00000010
00001000
00000100
00010000
00001000
00100000
00010000
01000000
,  // measure 48
10000000
00000000
00000000
00000000
,  // measure 49
10010000
20020000
00000000
00000000
00000000
00000000
30030000
00000000
,  // measure 50
10000000
01000000
10000000
01000000
00100000
01000000
00100000
01000000
00100000
00010000
00100000
00010000
00001000
00000000
00000000
00000000
,  // measure 51
00001000
00000200
00002000
00000000
00000000
00000000
00000000
00000000
00000000
00000000
00000000
00000000
00003300
00000000
00000000
00000000
,  // measure 52
00001100
00000011
00001100
00011000
,  // measure 53
00100000
00000000
00000000
01000000
00000000
00000000
00200000
00000000
02000000
00000000
00000000
00000000
00000000
00000000
00000000
00000000
00000000
00000000
00000000
00000000
00000000
00000000
00000000
00000000
03300000
00000000
00000000
00000000
00000000
00000000
00000000
00000000
,  // measure 54
10000000
01000000
10000000
01000000
00100000
01000000
00100000
01000000
00100000
00010000
00100000
00010000
00001000
00000000
00000000
00000000
,  // measure 55
00001000
00000010
00000200
00000000
00000000
00000000
00000000
00000000
00001300
00010000
02000000
00000000
00000000
00000000
00000000
00000000
,  // measure 56
13000000
00000000
00000000
00000000
00000000
00000000
00000000
00000000
00100000
00000000
00000000
00000000
00000000
00000000
00000000
00000000
01000000
00000000
00000000
00000000
00000000
00000000
00000000
00000000
00010000
00000000
00000000
00000000
00000000
00000000
00000000
00000000
00000000
00000000
00000000
00000000
00000000
00000000
00000000
00000000
00000000
00000000
00000000
00000000
00000000
00000000
00000000
00000000
10000000
00000000
00000000
00000000
00000000
00000000
00000000
00000000
00000000
00000000
00000000
00000000
00000000
00000000
00000000
00000000
00000000
00000000
00010000
00000000
00000000
00000000
00000000
00000000
00000000
00000000
00000000
00000000
00000000
00000000
00000000
00000000
00000000
00000000
00000000
00000000
10000000
00000000
00000000
00000000
00000000
00000000
00000000
00000000
00000000
00000000
00000000
00000000
00020000
00000000
00000000
00000000
00000000
00000000
00000000
00000000
00000000
00000000
00000000
00000000
00000000
00000000
00000000
00000000
00000000
00000000
00000000
00000000
00000000
00000000
00000000
00000000
00000000
00000000
00000000
00000000
00000000
00000000
00000000
00000000
00000000
00000000
00000000
00000000
00000000
00000000
00000000
00000000
00000000
00000000
00000000
00000000
00000000
00000000
00000000
00000000
00000000
00000000
00000000
00000000
00000000
00000000
00000000
00000000
00000000
00000000
00000000
00000000
00000000
00000000
00000000
00000000
00000000
00000000
00000000
00000000
00000000
00000000
00000000
00000000
00000000
00000000
00000000
00000000
00000000
00000000
00000000
00000000
00000000
00000000
00000000
00000000
00000000
00000000
00000000
00000000
00000000
00000000
00000000
00000000
00000000
00000000
00000000
00000000
,  // measure 57
10030000
00000000
01000000
00000000
,  // measure 58
00100000
00000000
00010000
00000000
,  // measure 59
00001000
00000000
00000100
00000000
,  // measure 60
00000010
00000001
00000010
00002000
,  // measure 61
00000000
00000000
00000000
00000000
,  // measure 62
00000000
00000000
00000000
00000000
00000000
00000000
00003000
01001000
,  // measure 63
00000000
00100000
10000000
01000000
00000000
00010000
00000000
01001000
,  // measure 64
00000000
00100000
10000000
01000000
00000000
00010000
00000000
01001000
,  // measure 65
00000000
00100000
10000000
01000000
00000000
00100000
00010000
00002000
,  // measure 66
00000000
00003200
00000000
00000320
00000000
00000032
00000000
00000013
,  // measure 67
00000001
00000010
00000001
00001000
00000100
00000010
00000000
00000001
,  // measure 68
00000100
00000001
00000100
00000010
00001000
00000100
00000000
00000001
,  // measure 69
00000100
00001000
00000000
00010000
00100000
10000000
00000000
00200000
,  // measure 70
00000000
00320000
00000000
02030000
00000000
03100000
00000000
01001000
,  // measure 71
00000000
00100000
10000000
01000000
00000000
00010000
00000000
01001000
,  // measure 72
00000000
00000000
00000000
01000000
00000000
00000000
00000000
00000000
00000000
10010000
00000000
00000000
00000000
00000000
00000000
00010000
00000000
00000000
00000000
00000000
00000000
10000000
00000000
00010000
,  // measure 73
00000000
10000000
00000000
00010000
00000000
00000000
00000000
00000000
00000000
01000000
00000000
00100000
00000000
01000000
00000000
00100000
00000000
00000000
00000000
00000000
00000000
01000000
00000000
00000000
,  // measure 74
00000000
00100000
00000000
01000000
00100000
01000000
00000000
00100000
,  // measure 75
10000000
01000000
00100000
00010000
00001000
00010000
00000000
00001000
,  // measure 76
00000100
00001000
00000001
00000010
00000100
00001000
00000000
00000001
,  // measure 77
00000100
00001000
00000000
00010000
00100000
10000000
00000000
02000000
,  // measure 78
00000000
03200000
00000000
00320000
00000000
10030000
00000000
20000000
,  // measure 79
00000000
32000000
00000000
03200000
00000000
00320000
00000000
00032000
,  // measure 80
00000000
00003200
00000000
00000320
00000000
00000032
00000000
00000203
,  // measure 81
00000000
00000320
00000000
00002030
00000000
00023000
00000000
02030000
,  // measure 82
00000000
03200000
00000000
20300000
00000000
32000000
00000000
23000000
,  // measure 83
00000000
30200000
00000000
02300000
00000000
03020000
00000000
02030000
,  // measure 84
00000000
03200000
00000000
00320000
00000000
00032000
00000000
00003200
,  // measure 85
00000000
00000320
00000000
00002030
00000000
00003200
00000000
00000320
,  // measure 86
00000000
00000032
00000000
00000203
00000000
00002300
00000000
00013000
,  // measure 87
00001000
00010000
00000000
00001000
00100000
00001000
00000000
00100000
,  // measure 88
01000000
00100000
00000000
01000000
10000000
01000000
00100000
00010000
,  // measure 89
00001000
00010000
00000000
00001000
00000100
00001000
00000000
00000100
,  // measure 90
00000010
00000100
00000000
00000010
00000001
00000010
00000100
00001000
,  // measure 91
00010000
00001000
00010000
00100000
01000000
00100000
01000000
10000000
,  // measure 92
00100000
01000000
00010000
00100000
00001000
00010000
00000100
00001000
,  // measure 93
00010000
00001000
00010000
00100000
01000000
00100000
01000000
10000000
,  // measure 94
00100000
00010000
00001000
00000100
00000001
00000010
00000100
00020000
,  // measure 95
00000000
00000000
00000000
00001000
00000000
00000000
00000000
00001000
,  // measure 96
00000000
00000000
00000000
00001000
00000000
00000000
00000000
00031000
,  // measure 97
00000000
00010000
00000000
00001000
00000000
00010000
00000000
00001000
,  // measure 98
00010000
00000000
00001000
00000000
00010000
00000000
00001000
00000000
00010000
00000000
00001000
00010000
00001000
00000000
00010000
00000000
;

//---------------dance-single - ----------------
#NOTES:
     dance-single:
     :
     Hard:
     17:
     0.845523,1.627895,0.413715,0.886532,0.620573,701.000000,652.000000,49.000000,105.000000,0.000000,0.000000,0.845523,1.627895,0.413715,0.886532,0.620573,701.000000,652.000000,49.000000,105.000000,0.000000,0.000000:
0000
0000
0000
0000
,
0000
0000
0000
0000
,
0000
0000
0000
0000
,
0000
0000
0000
0000
,
0000
0000
0000
0000
,
0000
0000
0000
0000
,
0000
0000
0000
0000
,
0000
0000
0000
0000
,
0000
0000
0000
0000
,
1000
1000
0000
1000
0000
1000
0000
1000
,
0000
1000
1000
0000
2000
0000
0000
0000
,
3001
0001
0000
0001
0000
0001
0000
0001
,
0000
0001
0001
0000
0002
0000
0000
0000
,
1003
0000
1000
1000
0000
1000
1000
0000
,
1000
1000
0000
1000
2000
0000
0000
0000
,
3001
0000
0001
0000
0001
0001
0000
0001
,
0000
0000
0001
0000
0001
0000
1000
0000
1000
0000
0001
0000
1000
0010
1000
0010
,
1000
0100
0010
0100
1000
0100
0010
0100
,
1000
0100
0010
0100
1000
1000
0001
0001
,
0010
0100
1000
0100
0010
0100
1000
0100
,
0010
0000
0010
0000
0001
0000
0100
0000
0010
0000
0000
1000
0100
0000
0010
0000
,
0001
0100
0010
0100
1000
0100
0010
0100
,
0000
0100
0010
0100
0001
0001
1000
1000
,
0010
0100
1000
0100
0010
0100
1000
0100
,
0110
0000
0000
1001
0000
0000
0110
0000
,
0010
1000
0100
0020
0030
0020
0030
0020
,
0030
0020
0030
0020
0031
0020
1030
0020
,
0130
0020
0030
0020
0030
0020
0031
0020
,
0031
0010
0100
0010
0000
1000
0100
1000
,
0000
0010
0011
0000
0011
0000
0010
0001
,
1000
0000
1000
0000
0010
0000
0100
0000
0000
0000
0010
0100
0001
0000
0000
0000
,
0010
0100
1000
0000
0000
0000
0010
0100
0001
0000
0000
0000
0010
0100
1000
0000
,
0000
0000
0000
0000
,
1100
0000
0101
0000
0001
0010
0100
1000
,
0000
1000
0000
1000
0000
0100
0000
0000
,
0011
0000
1010
0000
1000
0100
0010
0001
,
0000
0001
0000
1000
0010
0001
0010
1000
,
1100
0000
0101
0000
0001
0010
0100
1000
,
0000
1000
0000
0001
0010
0001
0010
0100
,
1000
0000
0100
0001
0000
0010
1000
0000
,
0100
0001
0000
0010
1000
0100
0010
0110
,
0000
0000
0110
0000
0010
0001
0100
2000
,
0000
0000
0000
3000
,
1001
0000
1001
0000
1000
0100
0001
0020
,
0000
0000
0000
0000
0000
0000
0000
0000
0000
0000
0000
0000
0031
1000
0001
1000
,
0001
0000
0101
0000
0001
1000
1000
0000
,
1000
0000
0010
0000
0010
0000
0000
0000
0100
0000
0000
0110
0000
0000
1001
0000
,
0001
0000
1000
0000
0001
0000
1000
0000
0010
0100
0010
0100
0010
0100
0010
0100
,
0001
0000
0000
0000
,
1100
0000
0000
0000
1100
0000
0000
0000
1000
0100
1000
0000
0100
1000
0100
0000
1000
0010
1000
0000
0010
1000
0010
0000
0100
0010
0100
0000
0010
0100
0010
0000
,
1000
1000
0100
0100
0010
0010
0001
0001
0010
0010
0100
0100
1000
1000
0010
0100
,
0001
0000
0001
0000
0001
0000
0000
0000
1000
0100
1000
0000
0100
1000
0100
0000
1000
0010
1000
0000
0010
1000
0010
0000
0100
0010
0100
0000
0010
0100
0010
0100
,
0001
0001
1010
0010
1100
1000
0011
0001
,
0002
0000
0000
0023
0000
0000
2030
0000
3100
0010
0100
0000
0010
0100
0010
0000
1000
0001
1000
0000
0001
1000
0001
0000
0100
0010
0100
0000
0010
0100
0010
0000
,
1000
1000
0001
0001
1000
1000
0001
0001
0100
1000
0100
0001
0010
1000
0010
0001
,
1000
1000
2000
0000
0000
0010
0000
0000
3001
0001
0002
0000
0000
0100
0000
0000
,
1003
0000
0000
0000
0000
0000
0000
0000
0100
0000
0000
0000
0000
0000
0000
0000
0010
0000
0000
0000
0000
0000
0000
0000
0001
0000
0000
0000
0000
0000
0000
0000
0100
0000
0000
0000
0000
0000
0000
0000
0010
0000
0000
0000
0000
0000
0000
0000
1000
0000
0000
0000
0000
0000
0000
0000
0000
0000
0000
0000
0000
0000
0000
0000
0000
0000
1010
0000
0000
0000
0000
0000
0000
0000
0000
0000
0000
0000
0000
0000
0000
0000
0000
0000
1001
0000
0000
0000
0000
0000
0000
0000
0000
0000
0000
0000
0002
0000
0000
0000
0000
0000
0000
0000
0000
0000
0000
0000
0000
0000
0000
0000
0000
0000
0000
0000
0000
0000
0000
0000
0000
0000
0000
0000
0000
0000
0000
0000
0000
0000
0000
0000
0000
0000
0000
0000
0000
0000
0000
0000
0000
0000
0000
0000
0000
0000
0000
0000
0000
0000
0000
0000
0000
0000
0000
0000
0000
0000
0000
0000
0000
0000
0000
0000
0000
0000
0000
0000
0000
0000
0000
0000
0000
0000
0000
0000
0000
0000
0000
0000
0000
0000
0000
0000
0000
0000
0000
0000
0000
0000
0000
0000
,
2003
0000
0010
0000
,
3002
0000
0023
0000
,
2030
0000
3200
0000
,
0302
2003
3020
0200
,
0000
0000
0000
0000
,
0000
0000
0000
0000
0000
0000
0330
1200
,
0300
0101
0001
0100
1000
1010
0000
1200
,
0300
0101
0001
0100
1000
1010
0000
1200
,
0300
0101
0001
0100
0000
1010
1000
0200
,
0000
0000
0001
0000
0000
0000
0320
0000
0000
0000
1000
0000
0000
0000
0031
0010
,
0001
0010
0100
0000
1000
0010
1000
0010
0100
0000
0001
0000
0100
0000
0010
1000
,
0010
0000
0000
1000
0000
0000
0100
0000
0000
0000
0000
0000
1000
0000
0000
0001
0000
0000
1000
0000
0000
0001
0000
0000
0010
0000
0000
0000
0000
0000
0001
0000
0000
0000
0010
0000
0000
0000
0100
0000
0000
0000
1000
0000
0000
0000
0000
0000
,
0000
0010
1000
0100
0000
0010
0001
0201
,
0000
1300
0000
1020
0000
0031
0000
1200
,
0300
0101
0001
0100
1000
1010
0000
1100
,
0000
0000
0000
0101
0000
0000
0000
0000
0000
0011
0000
0000
0000
0000
0000
1010
0000
0010
0000
1000
0000
0100
0000
0010
,
0000
0001
0000
0100
0000
0010
0000
1000
0000
0100
0000
0010
0000
0001
0000
0100
0000
0010
0000
1000
0000
0100
0000
0000
,
0000
0000
1000
0000
0001
0000
1000
0010
1000
0010
1000
0010
0100
0000
0001
0100
,
0001
0100
0010
0000
1000
0010
1000
0010
0100
0000
0001
0000
0010
0000
0100
1000
,
0100
1000
0001
0000
0010
0001
0010
0001
0100
0000
0010
0000
0100
0000
0110
0000
,
0000
1000
0001
1001
0000
0100
0010
1020
,
0000
0031
0000
0201
0000
1300
0000
1002
,
2003
3020
0230
0302
0023
0230
2300
3002
,
0203
0320
0230
2300
3200
0320
0230
0302
,
0023
0230
2300
3200
0320
0032
2003
3020
,
0032
0203
2300
3200
0302
0203
0320
0032
,
0023
2030
3020
0230
0320
0032
0203
0320
,
0230
2300
3200
0320
0230
0302
0023
0230
,
2300
3002
0203
0320
2030
3200
0320
0230
,
0320
0032
0203
2300
3200
0320
0031
0011
,
0010
1000
0010
0001
0010
1000
0010
0001
,
0010
1000
0010
0001
0010
1000
0010
1000
,
0100
0001
0100
1000
0100
0001
0100
1000
,
0100
0000
0000
0001
0000
0000
0100
0000
0000
1000
0000
0000
0100
0000
0000
0001
0000
0000
0100
0000
0000
0001
0000
0100
,
0000
1000
0000
0010
0000
1000
0000
0010
0000
0100
0000
0010
0000
0100
0000
0010
0000
0100
0000
0010
0000
0001
0000
0010
,
0000
1000
0000
0100
0000
1000
0000
0010
0000
0100
0000
0001
0000
0100
0000
0010
0000
1000
0000
0010
0000
0100
0000
0001
,
0000
0000
0010
0000
0000
0000
0100
0000
0000
0000
1000
0000
0000
0000
0010
0000
0000
0000
0100
0000
0000
0000
0001
0000
0000
0000
0010
0000
0000
0000
0100
0000
0000
0000
1000
0000
0000
0000
0010
0000
0000
0000
1000
0000
0000
0001
0000
0000
,
1000
0001
1000
0001
1000
0001
1000
0001
1000
0001
1000
0001
1000
0001
0200
0000
,
0000
0000
0000
0010
0000
0000
0000
0010
,
0000
0000
0000
0010
0000
0000
0000
0310
,
0000
0010
0000
0100
0000
0100
0000
0010
,
0010
0000
0100
0000
0100
0000
0010
0100
0010
0100
0010
0100
0010
0100
0001
0000
;

//---------------dance-double - ----------------
#NOTES:
     dance-double:
     :
     Hard:
     17:
     0.790039,1.419190,0.337727,0.886532,0.455931,655.000000,615.000000,40.000000,105.000000,0.000000,0.000000,0.790039,1.419190,0.337727,0.886532,0.455931,655.000000,615.000000,40.000000,105.000000,0.000000,0.000000:
// measure 0
00000000
00000000
00000000
00000000
,  // measure 1
00000000
00000000
00000000
00000000
,  // measure 2
00000000
00000000
00000000
00000000
,  // measure 3
00000000
00000000
00000000
00000000
,  // measure 4
00000000
00000000
00000000
00000000
,  // measure 5
00000000
00000000
00000000
00000000
,  // measure 6
00000000
00000000
00000000
00000000
,  // measure 7
00000000
00000000
00000000
00000000
,  // measure 8
00000000
00000000
00000000
00000000
,  // measure 9
10000000
10000000
00000000
10000000
00000000
10000000
00000000
10000000
,  // measure 10
00000000
10000000
10000000
00000000
20000000
00000000
00000000
00000000
,  // measure 11
30010000
00010000
00000000
00010000
00000000
00010000
00000000
00010000
,  // measure 12
00000000
00010000
00010000
00000000
00020000
00000000
00000000
00000000
,  // measure 13
00031000
00000000
00001000
00001000
00000000
00001000
00001000
00000000
,  // measure 14
00001000
00001000
00000000
00001000
00002000
00000000
00000000
00000000
,  // measure 15
00003001
00000000
00000001
00000000
00000001
00000001
00000000
00000001
,  // measure 16
00000000
00000000
00000001
00000000
00000001
00000000
00001000
00000000
00000001
00000000
00001000
00000000
00000001
00001000
00000001
00001000
,  // measure 17
00000010
00000100
00001000
00010000
00001000
00000100
00001000
00010000
,  // measure 18
00001000
00000100
00001000
00010000
00100000
00100000
01000000
01000000
,  // measure 19
00010000
00001000
00010000
01000000
00010000
00001000
00010000
01000000
,  // measure 20
00010000
00000000
00010000
00000000
00100000
00000000
00001000
00000000
00010000
00000000
00000000
00001000
00010000
00000000
00001000
00000000
,  // measure 21
00000100
00000100
00000100
00001000
00010000
00100000
00010000
00001000
,  // measure 22
00000000
00100000
00010000
00001000
01000000
01000000
00100000
00100000
,  // measure 23
00010000
00001000
00010000
00100000
00010000
00001000
00010000
00100000
,  // measure 24
10100000
00000000
00000000
00101000
00000000
00000000
00001010
00000000
,  // measure 25
00000010
00000020
00000130
00002000
00013000
00002000
00103000
00002000
,  // measure 26
00103000
00002000
00013000
00002000
00003100
00000200
00000310
00000200
,  // measure 27
00001300
00020000
00030010
00020000
00030010
00020000
00031000
00020000
,  // measure 28
00130000
01000000
00000000
00010000
00000000
10000000
10010000
00000000
,  // measure 29
10000000
01000000
00010000
00000000
00011000
00000000
00001000
00000010
,  // measure 30
00000001
00000000
00000001
00000000
00000000
00000000
00000100
00000000
00000000
00000000
00001000
00100000
00001000
00000000
00000000
00000000
,  // measure 31
00010000
00000010
00010000
00000000
00000000
00000000
00001000
00100000
00001000
00000000
00000000
00000000
00010000
00000010
00000100
00000000
,  // measure 32
00000000
00000000
00000000
00000000
,  // measure 33
00001001
00000000
00001001
00000000
00000001
00000010
00001000
00010000
,  // measure 34
00000000
00001010
00000000
00011000
00000000
01010000
00000000
00010000
,  // measure 35
01000000
00000000
00100000
00000000
10000000
01000000
00100000
00001000
,  // measure 36
00000000
00110000
00000000
00011000
00001000
00000100
00000001
00000010
,  // measure 37
00000100
00000000
00000110
00000000
00000010
00000001
00000100
00001000
,  // measure 38
00000000
00010000
00000000
00001000
00000100
00000001
00000010
00000100
,  // measure 39
00001000
00000000
00010000
00100000
00000000
00010000
00000100
00000000
,  // measure 40
00001000
01000000
00000000
00010000
00100000
10000000
00000000
10010000
,  // measure 41
00000000
00000000
10010000
00000000
00010000
10000000
01000000
00020000
,  // measure 42
00000000
00000000
00001000
00030000
,  // measure 43
00011000
00000000
00011000
00000000
00001000
00000100
00000001
00000020
,  // measure 44
00000000
00000000
00000000
00000000
00000100
00000000
00000000
00000000
00000100
00000000
00000000
00000000
00000130
00000010
00000100
00000010
,  // measure 45
00000100
00000000
00001010
00000000
00001000
00010000
01000000
00000000
,  // measure 46
00010000
00000000
00100000
00000000
10000000
00000000
00000000
00000000
00100000
00000000
00000000
00110000
00000000
00000000
00011000
00000000
,  // measure 47
00001000
00000000
00000100
00000000
00000001
00000000
00000010
00000000
00001000
00010000
00001000
00010000
00001000
00010000
00001000
00010000
,  // measure 48
00001000
00000000
00000000
00000000
,  // measure 49
11000000
00000000
11000000
00000000
10000000
01000000
00100000
00010000
00001000
00000100
00000010
00000100
00001000
00010000
00100000
01000000
,  // measure 50
10000000
10000000
01000000
01000000
00100000
00100000
00010000
00010000
00001000
00001000
00000100
00000100
00000010
00000001
00000100
00001000
,  // measure 51
00010000
00001000
00011000
00000000
00010000
00001000
00000100
00000010
00000100
00001000
00010000
00100000
00010000
00001000
00000100
00000010
,  // measure 52
00001000
00001000
00001010
00000010
00010000
00010000
00110000
00100000
,  // measure 53
20000000
00000000
00000000
32000000
00000000
00000000
03200000
00000000
10300000
00000000
01000000
00000000
00100000
00000000
00010000
00000000
00001000
00000000
00000100
00000000
00000010
00000000
00000100
00000000
00001000
00000000
00010000
00000000
00100000
00000000
01000000
00000000
,  // measure 54
10000000
10000000
01000000
01000000
00100000
00100000
00010000
00010000
00001000
00000100
00000001
00000100
00001000
00010000
00100000
10000000
,  // measure 55
00100000
00100000
00200000
00000000
00000000
00001000
00000000
00000000
01300000
01000000
02000000
00000000
00000000
00001000
00000000
00000000
,  // measure 56
13000000
00000000
00000000
00000000
00000000
00000000
00000000
00000000
00100000
00000000
00000000
00000000
00000000
00000000
00000000
00000000
01000000
00000000
00000000
00000000
00000000
00000000
00000000
00000000
00010000
00000000
00000000
00000000
00000000
00000000
00000000
00000000
00100000
00000000
00000000
00000000
00000000
00000000
00000000
00000000
01000000
00000000
00000000
00000000
00000000
00000000
00000000
00000000
10000000
00000000
00000000
00000000
00000000
00000000
00000000
00000000
00000000
00000000
00000000
00000000
00000000
00000000
00000000
00000000
00000000
00000000
00100000
00000000
00000000
00000000
00000000
00000000
00000000
00000000
00000000
00000000
00000000
00000000
00000000
00000000
00000000
00000000
00000000
00000000
00010000
00000000
00000000
00000000
00000000
00000000
00000000
00000000
00000000
00000000
00000000
00000000
00002000
00000000
00000000
00000000
00000000
00000000
00000000
00000000
00000000
00000000
00000000
00000000
00000000
00000000
00000000
00000000
00000000
00000000
00000000
00000000
00000000
00000000
00000000
00000000
00000000
00000000
00000000
00000000
00000000
00000000
00000000
00000000
00000000
00000000
00000000
00000000
00000000
00000000
00000000
00000000
00000000
00000000
00000000
00000000
00000000
00000000
00000000
00000000
00000000
00000000
00000000
00000000
00000000
00000000
00000000
00000000
00000000
00000000
00000000
00000000
00000000
00000000
00000000
00000000
00000000
00000000
00000000
00000000
00000000
00000000
00000000
00000000
00000000
00000000
00000000
00000000
00000000
00000000
00000000
00000000
00000000
00000000
00000000
00000000
00000000
00000000
00000000
00000000
00000000
00000000
00000000
00000000
00000000
00000000
00000000
00000000
,  // measure 57
00023000
00000000
00100000
00000000
,  // measure 58
00032000
00000000
00000010
00000000
,  // measure 59
00023000
00000000
01000000
00000000
,  // measure 60
00032000
00000100
00023000
02000000
,  // measure 61
00000000
00000000
00000000
00000000
,  // measure 62
00000000
00000000
00000000
00000000
00000000
00000000
03030000
11000000
,  // measure 63
00000000
00100000
00001000
00000020
00000000
00000031
00000000
00000101
,  // measure 64
00000000
00000100
00001000
02000000
00000000
13000000
00000000
10100000
,  // measure 65
00000000
00100000
00010000
00000020
00000000
00000031
00001000
00020000
,  // measure 66
00000000
02030000
00000000
23000000
00000000
30200000
00000000
10300000
,  // measure 67
01000000
00010000
00001000
00000010
00001000
00010000
00000000
00000001
,  // measure 68
00000100
00001000
00010000
00100000
00010000
00001000
00000000
00010000
,  // measure 69
00000100
00000010
00000000
00010000
00001000
00000010
00000000
00010020
,  // measure 70
00000000
00000031
00000000
00020010
00000000
00130000
00000000
01100000
,  // measure 71
00000000
01000000
00001000
00000200
00000000
00000301
00000000
00000101
,  // measure 72
00000000
00000000
00000000
00000100
00000000
00000000
00000000
00000000
00000000
00001100
00000000
00000000
00000000
00000000
00000000
00001000
00000000
00010000
00000000
00001000
00000000
00100000
00000000
01000000
,  // measure 73
00000000
10000000
00000000
00100000
00000000
00010000
00000000
00001000
00000000
00010000
00000000
00001000
00000000
00000100
00000000
00000001
00000000
00000010
00000000
00000100
00000000
00001000
00000000
00000000
,  // measure 74
00000000
00000000
00000001
00000000
00001000
00000000
00000010
00000100
00000010
00000100
00000010
00000000
00000000
00000000
00010000
00001000
,  // measure 75
00010000
00000000
00100000
00000000
00010000
00001000
00010000
00000000
00100000
00000000
00010000
00001000
00010000
00000000
00001000
00010000
,  // measure 76
00001000
00000000
00000010
00000000
00001000
00010000
00001000
00000000
00010000
00000000
00100000
00000000
10000000
00000000
10010000
00000000
,  // measure 77
00000000
00100000
01000000
01100000
00000000
01000000
00001000
00012000
,  // measure 78
00000000
00003010
00000000
00021000
00000000
00130000
00000000
00021000
,  // measure 79
00032000
00023000
00032000
00203000
00320000
00230000
00320000
20030000
,  // measure 80
32000000
03200000
00320000
00032000
00003200
00002300
00003200
00000320
,  // measure 81
00000032
00000203
00002300
00023000
00230000
20300000
32000000
03200000
,  // measure 82
00320000
00230000
00320000
00032000
00003020
00002030
00003200
00000320
,  // measure 83
00000032
00000203
00000302
00002003
00003020
00002030
00003200
00020300
,  // measure 84
00032000
00023000
00230000
02300000
03020000
00230000
20300000
30020000
,  // measure 85
02030000
03020000
02030000
03020000
00032000
00023000
00032000
00003200
,  // measure 86
00000320
00000032
00000023
00002030
00023000
00032000
00003100
00010100
,  // measure 87
00010000
00100000
00010000
00001000
00010000
00100000
00010000
00001000
,  // measure 88
00010000
00100000
00010000
00001000
00010000
00000100
00000010
00001010
,  // measure 89
00001000
00010000
00001000
00000010
00001000
00010000
00001000
00000010
,  // measure 90
00001000
00010000
00001000
00000010
00001000
00010000
00001000
00010000
,  // measure 91
00000000
00010000
00000000
00100000
00000000
00000000
00000000
00100000
00000000
10000000
00000000
00000000
00000000
10000000
00000000
01000000
00000000
00000000
00000000
01000000
00000000
00100000
00000000
00010000
,  // measure 92
00000000
00001000
00000000
00010000
00000000
00000000
00000000
00001000
00000000
00010000
00000000
00001000
00000000
00000010
00000000
00000100
00000000
00000000
00000000
00000100
00000000
00000010
00000000
00001000
,  // measure 93
00000000
00000000
00000010
00000000
00000000
00000000
00000100
00000000
00000000
00000000
00000001
00000000
00000000
00000000
00000100
00000000
00000000
00000000
00000010
00000000
00000000
00000000
00001000
00000000
00000000
00000000
00000010
00000000
00000000
00000000
00000100
00000000
00000000
00000000
00000001
00000000
00000000
00000000
00000100
00000000
00000000
00000000
00000010
00000000
00000000
00000100
00000000
00000000
,  // measure 94
00001000
00010000
00001000
00010000
00001000
00010000
00001000
00010000
00001000
00010000
00001000
00010000
00001000
00010000
00002000
00000000
,  // measure 95
00000000
00000000
00000000
00010000
00000000
00000000
00000000
00010000
,  // measure 96
00000000
00000000
00000000
00010000
00000000
00000000
00000000
00013000
,  // measure 97
00000000
00010000
00000000
00001000
00000000
00001000
00000000
00010000
,  // measure 98
00010000
00000000
00001000
00000000
00001000
00000000
00010000
00001000
00010000
00001000
00010000
00001000
00010000
00001000
00010000
00000000
;
