#TITLE:Decoy;
#SUBTITLE:;
#ARTIST:Yooh;
#TITLETRANSLIT:;
#SUBTITLETRANSLIT:;
#ARTISTTRANSLIT:;
#GENRE:;
#CREDIT:;
#BANNER:Decoy-bn.jpg;
#BACKGROUND:Decoy-bg.jpg;
#LYRICSPATH:;
#CDTITLE:;
#MUSIC:Decoy.mp3;
#OFFSET:0.579000;
#SAMPLESTART:44.418999;
#SAMPLELENGTH:15.000000;
#SELECTABLE:YES;
#BPMS:0.000000=180.000000
;
#STOPS:
;
#BGCHANGES:;
#KEYSOUNDS:;
#ATTACKS:;

//---------------dance-single - ----------------
#NOTES:
     dance-single:
     :
     Hard:
     12:
     0.597419,0.704915,0.251656,0.370083,0.037008,565.000000,531.000000,34.000000,50.000000,0.000000,0.000000,0.597419,0.704915,0.251656,0.370083,0.037008,565.000000,531.000000,34.000000,50.000000,0.000000,0.000000:
0000
0000
0000
0000
,
0000
0000
0000
0000
,
0010
0010
0010
0010
,
0100
0100
0010
0010
,
1000
1000
1000
1000
,
0001
0001
1000
1000
,
0010
0010
0010
0010
,
0100
0100
0010
0010
,
1000
1000
1000
1000
,
0001
0001
1000
1000
,
0001
0010
0100
1000
,
0100
0000
0010
0000
0001
0100
1000
0000
,
0100
0001
0010
0100
,
1000
0000
0010
0000
1000
0100
0001
0000
,
0100
1000
0100
1000
0100
1000
0100
1000
,
0001
1000
0001
1000
0010
1000
0010
1000
,
0001
0010
0001
1000
0100
0010
0100
0010
,
0011
0000
1001
0000
0001
1000
0001
1000
,
0100
0100
0010
0000
,
0001
0000
0001
0100
,
0010
0010
0100
0000
,
0010
0000
0010
1000
,
0100
0100
0010
0000
,
0001
0000
0001
1000
,
0100
0100
1000
0000
,
0010
0010
0100
0100
,
0101
0001
0001
0001
,
1000
1000
0001
1000
,
0110
0010
0010
0010
,
0100
0100
0010
0010
,
0101
0000
0001
0000
1000
0000
0010
0100
,
0110
0000
1000
0000
0001
0000
0010
0100
,
0110
0000
1001
0000
0001
1000
0001
1000
,
0020
0000
0001
0000
0100
0000
1030
0001
,
0200
1000
0001
0010
,
0302
0000
0013
0100
2000
0000
3010
1000
,
0200
0000
0301
0100
2000
0000
3010
0000
,
0101
0000
0001
0010
1000
0010
0001
0100
,
0020
0001
1000
0100
,
2030
0000
3100
0010
0002
0000
0103
0001
,
0020
0000
1030
0010
0001
0100
1000
0100
,
0020
0000
1030
0100
0020
0000
0130
0010
,
0002
0100
1000
0010
,
0203
0000
1300
0100
0002
0000
1003
0100
,
0020
0031
2000
3002
,
2003
0000
3001
1000
0100
1000
0001
0100
,
0101
0110
1001
1001
,
0011
0000
0100
0001
0100
1000
0100
0100
,
0001
0100
0001
0010
1000
0010
0001
0000
,
1200
0001
1300
0010
,
0010
1000
0100
0010
0200
0000
0310
0000
,
0010
0001
0100
0010
0200
0000
0310
0000
,
0010
1000
0100
0010
0200
0000
0310
0000
,
0010
0001
0100
0010
0200
0000
0301
0000
,
0001
0010
1000
0000
0001
0100
1000
0000
,
1100
0011
0001
0100
,
1000
0100
0001
0000
1000
0010
0001
0000
,
1200
0001
1300
0010
,
0010
1000
0100
0001
0200
0000
0310
0000
,
0010
0001
0100
1000
0200
0000
0310
0000
,
0010
1000
0100
0001
0200
0000
0310
0000
,
0010
0001
0100
1000
0200
0000
0301
0000
,
0001
0010
1000
0000
0001
0100
1000
0000
,
1100
0011
0001
0100
,
1000
0100
0001
1000
0010
0001
1000
0100
,
0101
0000
1010
0000
1001
0000
0001
0020
,
0100
0000
0100
0000
0130
0000
0010
0002
,
0100
0000
0100
0000
0103
1000
0001
0020
,
0100
0000
0100
0000
0130
0000
0001
0020
,
0100
0000
0001
0000
0130
0000
0010
0001
,
0100
0000
1000
0001
0010
0000
1000
0100
,
0001
0000
0100
0010
0001
0000
0100
0000
,
0110
0000
1001
0000
1000
0001
1000
0100
,
1100
0000
0011
0000
0011
0000
0001
0020
,
0100
0000
0100
0000
0130
0000
0010
0002
,
0100
0000
0100
0000
0103
1000
0001
0020
,
0100
0000
0100
0000
0130
0000
0001
0020
,
0100
0000
0001
0000
0130
0000
0010
0001
,
0100
0000
1000
0001
0010
0000
1000
0100
,
0001
0000
0100
0010
0001
0001
0100
0010
,
0110
0000
0001
1000
1001
0000
0110
0000
,
1200
0001
1300
1000
,
0020
0000
0001
0000
0100
0000
1030
0100
,
0010
0000
0001
0000
0100
0000
0010
0100
0000
0100
0010
0000
1000
0000
0100
0000
,
0020
0000
0001
0000
0100
0000
1030
0010
,
0001
0000
0100
0000
0010
0000
1000
0100
0000
0100
1000
0000
0010
0000
0100
0000
,
2000
0000
3001
0010
2000
0000
3001
0010
,
2000
0000
3001
0100
2000
0000
3020
0000
,
0130
0001
0100
1000
0100
0001
0010
0010
,
0200
0001
1000
1300
,
0020
0000
0001
0000
0100
0000
1030
0100
,
0010
0000
0001
0000
0100
0000
0010
0100
0000
0100
0010
0000
1000
0000
0100
0000
,
0020
0000
0001
0000
0100
0000
1030
0010
,
0001
0000
0100
0000
0010
0000
1000
0100
0000
0100
1000
0000
0010
0000
0100
0000
,
1000
1000
0100
0100
0010
0010
0001
0001
,
0010
0010
1000
1000
0100
0100
0010
0010
,
0001
0000
1000
0000
0001
0000
1000
0000
0001
0000
1000
0100
0010
0000
0001
0010
,
0200
0001
1300
1100
,
1000
0010
0100
0000
0110
0000
0100
0000
,
0001
0100
1000
0100
0001
0010
1000
0010
,
0001
0200
0300
0000
0000
0000
0000
0000
;

//---------------dance-single - ----------------
#NOTES:
     dance-single:
     :
     Challenge:
     16:
     0.768714,1.224326,0.525517,0.414492,0.333074,727.000000,656.000000,71.000000,56.000000,0.000000,0.000000,0.768714,1.224326,0.525517,0.414492,0.333074,727.000000,656.000000,71.000000,56.000000,0.000000,0.000000:
0000
0000
0000
0000
,
0000
0000
0000
0000
,
1000
0010
0100
0000
0100
0000
0100
0000
,
0001
0001
1000
1000
,
0001
0010
0100
0000
0100
0000
0100
0000
,
1000
0000
1000
0000
0001
1000
0001
0000
,
0100
0010
1000
0000
1000
0000
1000
0000
,
0001
0001
1000
1000
,
0100
0010
0001
0000
0001
0000
0001
0000
,
0100
0000
0100
0000
0010
0100
0010
0100
,
0110
0110
0101
0101
,
1001
1001
1100
1100
,
0110
0011
0110
1100
,
1010
1010
0110
0101
,
0001
0100
0001
0100
0001
0100
0001
0100
,
0010
0100
0010
0100
0010
0100
0010
0100
,
0001
1000
0001
1000
0001
1000
0001
1000
0001
1000
0001
1000
0001
1000
0001
1000
,
0010
0000
0110
0000
0100
0100
0010
0010
,
1000
0000
2000
0000
3001
0000
0010
0100
,
1000
0000
1000
0000
0100
0000
0010
0001
,
0100
0000
0200
0000
0310
0000
0001
1000
,
0010
0010
1000
0001
,
0001
0000
0002
0000
0103
0000
0010
1000
,
0100
0000
0100
0000
0100
0000
1000
0010
,
0100
0000
0100
0000
0010
0100
0001
0100
,
0010
0010
1000
1000
,
1100
1100
1100
1100
,
1001
1001
1100
1100
,
0011
0011
0011
0011
,
1001
1001
0011
0011
,
0001
1000
0001
1000
0001
1000
0001
1000
0001
1000
0001
1000
0001
1000
0001
1000
,
0010
1000
0001
1000
0001
1000
0001
1000
0010
1000
0001
1000
0001
1000
0001
1000
,
0010
1000
0001
1000
0010
1000
0001
1000
0010
1000
0010
1000
0010
1000
0010
1000
,
0002
0000
0010
0000
0100
0000
1003
0100
,
0021
1030
1200
0301
,
0120
0000
0031
0010
1000
0000
0001
0100
,
2000
0000
3001
0100
1000
0000
1100
0000
,
0101
0000
0001
0100
1000
0100
0001
0010
,
1020
0031
0201
1300
,
0120
0000
0031
0010
1000
0000
0001
0100
,
1000
0000
0001
0010
0100
0001
0010
0100
,
2000
0000
3001
0100
2000
0000
3100
0001
,
0021
1030
1200
0301
,
0120
0000
0031
0010
1000
0000
0001
0100
,
2000
0000
3001
0100
1000
0000
1100
0000
,
0101
0000
0001
0100
1000
0100
0001
0010
,
1020
0031
0201
1300
,
0120
0000
0031
0010
1000
0001
0100
1000
,
0100
0000
0001
0000
0010
0000
0100
0000
1000
0001
0010
0001
1000
0100
0010
0001
,
0200
0000
0000
0000
0001
0000
0000
0000
1300
0000
0100
0000
0001
1000
0001
1000
,
0010
0000
1000
0000
0100
0000
0010
0001
0000
0001
0200
0000
0010
0000
0310
0000
,
0100
0000
0001
0000
0010
0000
0100
1000
0000
1000
0020
0000
0100
0000
0130
0000
,
0010
0000
1000
0000
0100
0000
0010
0001
0000
0001
0200
0000
0010
0000
0310
0000
,
0100
0000
0001
0000
0010
0000
0100
1000
0000
0100
0002
0000
1003
0000
0010
0000
,
0001
0000
0100
0000
1000
0000
0100
0010
0000
0001
0010
0000
1000
0000
0100
0000
,
1100
0011
1001
0110
,
0100
0000
1000
0000
0100
0000
0001
0010
0000
0100
1000
0000
0001
0000
0010
0000
,
1200
0001
1300
1010
,
0010
0000
1000
0000
0100
0000
0010
1000
0000
1000
0020
0000
0001
0000
0031
0000
,
0100
0000
0010
0000
0001
0000
0100
0001
0000
0001
0200
0000
1000
0000
1300
0000
,
0010
0000
1000
0000
0100
0000
0010
1000
0000
1000
0020
0000
0001
0000
0031
0000
,
0100
0000
0010
0000
0001
0000
0100
1000
0000
0100
0002
0000
1003
0000
0010
0000
,
0001
0000
0100
0000
1000
0000
0100
0010
0000
0001
0010
0000
1000
0000
0100
0000
,
1100
0011
1001
0110
,
0010
0000
1000
0000
0100
0000
0010
0000
0100
1000
0100
1000
0001
0100
0001
0100
,
0010
0000
0000
0000
0110
0000
0000
0000
0101
0000
0000
0000
0001
1000
0001
1000
,
0200
0000
0001
0000
0001
0000
0301
1000
,
0020
0000
1000
0000
1030
0010
0001
1000
,
0020
0000
0001
0000
0001
0000
0031
1000
,
0200
0000
0001
0000
1300
0000
1000
0100
,
0001
0000
1000
0010
0001
0000
0001
0100
,
1000
0000
0001
0010
1000
0000
1010
0000
,
0021
0000
1000
0000
0031
0100
1000
0100
,
0120
0000
0001
0000
1030
0000
1000
0100
,
0021
0000
1000
0000
1000
0000
1030
0001
,
0200
0000
0001
0000
0301
0100
1000
0001
,
0200
0000
1000
0000
1000
0000
1300
0001
,
0020
0000
1000
0000
0031
0000
0001
0010
,
1000
0000
0001
0100
1000
0000
1000
0010
,
0001
0000
1000
0100
0010
0010
0001
1000
,
0010
0000
0100
0000
0010
0000
0100
0000
0010
1000
0001
1000
0010
1000
0001
1000
,
0020
0000
0001
0000
1030
0100
0010
0001
,
0200
0000
1000
0000
1000
0000
1000
1300
,
0100
0000
0010
0000
0100
0000
0001
0010
0000
0100
1000
0000
0001
0000
0010
0000
,
0200
0000
0001
0000
0001
0000
0001
0301
,
0100
0000
0010
0000
0100
0000
1000
0010
0000
0100
0001
0000
1000
0000
0010
0000
,
0002
0000
1003
0100
0002
0000
1003
0100
,
0002
0000
1003
0010
0002
0000
2003
0000
,
3001
0000
0100
0000
0010
0000
1000
0100
0000
0100
0010
0000
0001
0000
0100
0000
,
0120
0001
1000
0130
,
0200
0000
1000
0000
0001
0000
1000
1300
,
0100
0000
0010
0000
0100
0000
0001
0010
0000
0100
1000
0000
0001
0000
0010
0000
,
0200
0000
0001
0000
1000
0000
0001
0301
,
0100
0000
0010
0000
0100
0000
1000
0010
0000
0100
0001
0000
1000
0000
0100
0000
,
0012
0000
0013
0100
2010
0000
3010
0100
,
0012
0000
0013
0100
1010
1000
0001
0100
,
0001
1000
0001
1000
0001
1000
0001
1000
0001
0000
0001
0010
0100
0000
1000
0010
,
0200
0000
0000
0000
0001
0000
0000
0000
1300
0000
0100
0000
0001
1000
0001
1000
,
0010
0100
0010
0000
0110
0000
0010
0000
,
1000
0000
0100
0000
0001
0000
0100
0000
1000
0000
0010
0000
0001
0010
1000
0100
,
1000
0020
0030
0000
0000
0000
0000
0000
;

//---------------dance-single - ----------------
#NOTES:
     dance-single:
     :
     Beginner:
     2:
     0.140631,0.296806,0.059213,0.022205,0.000000,133.000000,125.000000,8.000000,3.000000,0.000000,0.000000,0.140631,0.296806,0.059213,0.022205,0.000000,133.000000,125.000000,8.000000,3.000000,0.000000,0.000000:
0000
0000
0000
0000
,
0000
0000
0000
0000
,
0000
0000
0000
0000
,
0000
0000
0000
0000
,
0000
0000
0000
0000
,
0000
0000
0000
0000
,
0200
0000
0000
0000
,
0000
0000
0300
0000
,
0020
0000
0000
0000
,
0000
0000
0030
0000
,
1000
0000
1000
0000
,
1000
0000
1000
0000
,
0001
0000
0001
0000
,
0001
0000
0001
0000
,
0100
0000
0100
0000
,
0010
0000
0010
0000
,
0100
0000
0010
0000
,
0110
0000
0000
0000
,
0100
0000
0000
0000
,
0001
0000
0000
0000
,
0010
0000
0000
0000
,
1000
0000
0000
0000
,
0100
0000
0000
0000
,
0001
0000
0000
0000
,
0010
0000
0000
0000
,
1000
0000
0000
0000
,
0001
0000
0001
0000
,
0001
0000
0000
0000
,
1000
0000
1000
0000
,
1000
0000
0000
0000
,
1001
0000
0000
0000
,
1001
0000
0000
0000
,
1001
0000
1001
0000
,
0110
0000
0000
0000
,
0010
0000
0010
0000
,
0010
0000
0000
0000
,
0100
0000
0100
0000
,
0100
0000
0000
0000
,
0001
0000
1000
0000
,
0001
0000
0000
0000
,
1000
0000
0001
0000
,
1000
0000
0000
0000
,
0010
0000
0010
0000
,
0010
0000
0000
0000
,
0100
0000
0100
0000
,
0100
0000
0000
0000
,
0001
0000
1000
0000
,
0001
0000
0000
0000
,
1000
0000
0001
0000
,
1000
0000
0000
0000
,
0001
0000
0000
0000
,
1000
0000
0000
0000
,
0010
0000
0000
0000
,
0100
0000
0000
0000
,
0001
0000
0000
0000
,
0100
0000
0000
0000
,
0010
0000
0000
0000
,
1000
0000
0000
0000
,
1000
0000
0000
0000
,
0001
0000
0000
0000
,
0100
0000
0000
0000
,
0010
0000
0000
0000
,
1000
0000
0000
0000
,
0100
0000
0000
0000
,
0010
0000
0000
0000
,
0001
0000
0001
0000
,
0100
0000
0100
0000
,
0010
0000
0010
0000
,
0100
0000
0100
0000
,
0010
0000
0010
0000
,
1000
0000
0000
0000
,
0001
0000
0000
0000
,
1000
0000
0000
0000
,
0001
0000
0000
0000
,
0100
0000
0100
0000
,
0010
0000
0010
0000
,
0100
0000
0100
0000
,
0010
0000
0010
0000
,
1000
0000
0000
0000
,
0001
0000
0000
0000
,
0100
0000
0000
0000
,
0010
0000
0000
0000
,
1000
0000
1000
0000
,
0000
0000
0000
0000
,
0001
0000
0001
0000
,
0000
0000
0000
0000
,
1000
0000
1000
0000
,
1000
0000
1000
0000
,
0000
0000
0000
0000
,
0001
0000
0000
0000
,
1000
0000
1000
0000
,
0000
0000
0000
0000
,
0001
0000
0001
0000
,
0000
0000
0000
0000
,
0100
0000
0100
0000
,
0100
0000
0100
0000
,
0010
0000
0000
0000
,
1001
0000
1001
0000
,
0100
0000
0000
0000
,
0010
0000
0010
0000
,
0200
0300
0000
0000
;

//---------------dance-single - ----------------
#NOTES:
     dance-single:
     :
     Easy:
     6:
     0.306640,0.408109,0.177640,0.007402,0.000000,290.000000,266.000000,24.000000,1.000000,0.000000,0.000000,0.306640,0.408109,0.177640,0.007402,0.000000,290.000000,266.000000,24.000000,1.000000,0.000000,0.000000:
0000
0000
0000
0000
,
0000
0000
0000
0000
,
0010
0000
0010
0000
,
0010
0000
0010
0000
,
0000
0100
0000
0100
,
0000
0100
0000
0100
,
0000
0001
0000
0001
,
0000
0001
0000
0001
,
0000
1000
0000
1000
,
0000
1000
0000
1000
,
0010
0000
0010
0000
,
1000
0000
1000
0000
,
0100
0000
0100
0000
,
0001
0000
0001
0000
,
1000
1000
1000
0000
,
0001
0001
0001
0000
,
0100
0100
0100
0000
,
0110
0000
1001
0000
,
0001
0000
0000
0000
,
0001
0000
0100
0000
,
1000
0000
0000
0000
,
1000
0000
0100
0000
,
0001
0000
0000
0000
,
0001
0000
0010
0000
,
1000
0000
0000
0000
,
1000
0000
0010
0000
,
0001
0001
0001
0000
,
0100
0000
0100
0000
,
0010
0010
0010
0000
,
0100
0000
0100
0000
,
1001
0000
0000
0000
,
0110
0000
1001
0000
,
0110
0000
0010
0000
0100
0010
0100
0000
,
0010
0000
0000
0000
,
1000
1000
0100
0100
,
0010
0001
0010
0000
,
0001
0001
0010
0010
,
0100
1000
0100
0000
,
1000
0001
1000
1000
,
0001
1000
0001
0000
,
0100
0010
0100
0100
,
0010
0100
0010
0000
,
1000
1000
0100
0100
,
0010
0001
0010
0000
,
0001
0001
0010
0010
,
0100
1000
0100
0000
,
1000
1000
0001
0001
,
1000
1000
0001
0001
,
0100
0010
0100
0010
,
1000
0001
1001
0000
,
0001
0010
0100
0000
,
1000
0010
0100
0000
,
0001
0010
0100
0000
,
1000
0010
0100
0000
,
0001
0100
0010
0000
,
0100
0100
0100
0000
,
0010
1000
0100
0000
,
0100
0100
0100
0000
,
1000
0100
0010
0000
,
0001
0010
0100
0000
,
1000
0100
0010
0000
,
0001
0010
0100
0000
,
1001
0000
1001
0000
,
0001
0001
1000
0000
,
0010
0100
0010
0100
,
0001
1000
1001
0000
,
0001
0001
0001
0000
,
1000
1000
1000
0000
,
0001
0001
0001
0000
,
1000
1000
1000
0000
,
0010
0000
0010
0000
,
0100
0000
0100
0000
,
0010
0010
0010
0000
,
1000
1000
1000
0000
,
0001
0001
0001
0000
,
1000
1000
1000
0000
,
0001
0001
0001
0000
,
1000
1000
1000
0000
,
0110
0000
0001
0000
,
0110
0000
1000
0000
,
1001
0000
0110
0000
,
0010
0100
1001
0000
,
0001
0001
0001
0010
,
0100
0000
0100
0000
,
1000
1000
1000
0010
,
0100
0000
0100
0000
,
1001
0000
1001
0000
,
0110
0000
0110
0000
,
0100
0010
0100
0000
,
0010
0010
0010
0000
,
1000
1000
1000
0100
,
0010
0000
0010
0000
,
0001
0001
0001
0100
,
0010
0000
0010
0000
,
1010
0000
1100
0000
,
0101
0000
0011
0000
,
0001
0010
0100
1000
,
0001
1000
1001
0000
,
0010
0000
0010
0000
,
0100
0100
0010
0010
,
0200
0300
0000
0000
;

//---------------dance-single - ----------------
#NOTES:
     dance-single:
     :
     Medium:
     10:
     0.502255,0.593612,0.236853,0.029607,0.000000,475.000000,443.000000,32.000000,4.000000,0.000000,0.000000,0.502255,0.593612,0.236853,0.029607,0.000000,475.000000,443.000000,32.000000,4.000000,0.000000,0.000000:
0000
0000
0000
0000
,
0000
0000
0000
0000
,
0010
0000
0010
0000
,
0010
0000
0010
0010
,
0000
0100
0000
0100
,
0000
0100
0100
0000
,
0000
0001
0000
0001
,
0000
0001
0001
0001
,
0000
1000
0000
1000
,
0000
1000
1000
1000
,
0010
0010
0010
0010
,
0010
0010
0010
0010
,
0100
0100
0100
0100
,
0010
0010
0010
0010
,
1010
0100
0010
0100
,
0101
0010
0100
0010
,
1010
0100
0101
0010
,
1001
1001
1001
0000
,
0001
0000
0001
0000
,
0010
0000
0010
0000
,
0100
0000
0100
0000
,
1000
0000
1000
0010
,
0100
0000
0100
0000
,
0010
0000
0010
0000
,
1000
0000
1000
0000
,
0001
0000
0001
0001
,
1000
1000
1000
1000
,
0100
0100
0100
0100
,
0010
0010
0010
0010
,
0001
0001
0001
0001
,
1001
0010
0100
0010
,
1001
0100
0010
0100
,
1001
0010
1001
0100
,
1001
1001
1001
0000
,
0010
0010
1000
1000
,
0100
0000
0100
0010
0001
0000
0100
0010
,
1000
0000
0100
0010
0001
0000
1001
0000
,
0110
0000
0010
0100
0001
0100
0010
0000
,
0010
0010
1000
1000
,
0100
0000
0100
0010
0001
0000
0100
0010
,
1000
0000
0100
0010
0001
1000
0001
1000
,
0010
0000
0010
0001
0010
0000
1000
0100
,
0010
0010
1000
1000
,
0100
0000
0100
0010
0001
0000
0100
0010
,
1000
0000
0100
0010
0001
0000
1001
0000
,
0110
0000
0010
0100
0001
0100
0010
0000
,
0010
0010
1000
1000
,
0100
0000
0100
0010
0001
0010
1000
0010
,
0001
0000
0001
1000
0100
0000
1000
0000
,
0020
0001
1030
1010
,
1000
0100
0010
0000
0100
0000
0010
0000
,
0001
0100
0010
0000
0100
0000
0010
0000
,
1000
0100
0010
0000
0100
0000
0010
0000
,
0001
0100
0010
0000
0100
0000
0010
0000
,
1000
0100
0010
0000
0001
0000
0010
0000
,
0100
0100
1000
1000
,
0001
0010
0100
0000
1000
0000
0100
0000
,
0010
0010
0001
0001
,
1000
0100
0001
0000
0100
0000
0010
0000
,
0001
0100
1000
0000
0100
0000
0010
0000
,
1000
0100
0001
0000
0100
0000
0010
0000
,
0001
0100
1000
0000
0100
0000
0010
0000
,
1000
1100
0001
0101
,
1000
1010
0001
0011
,
1000
0001
1000
0001
0100
0010
0100
0010
,
1000
0000
1001
0000
1001
0000
0001
0100
,
0010
0000
0010
0000
0010
0000
1000
0100
,
0010
0000
0010
0000
0010
0001
0010
0100
,
1000
0000
1000
0000
1000
0000
0001
0100
,
0010
0000
0010
0000
0010
0000
1000
0100
,
0001
0000
0001
0100
1000
0000
0001
0100
,
1000
0000
1000
0100
0001
0000
1001
0000
,
0010
0000
0010
0000
0100
0010
0100
0001
,
1000
0000
1000
0000
1000
0000
0001
0100
,
0010
0000
0010
0000
0010
0000
1000
0100
,
0010
0000
0010
0000
0010
0001
0010
0100
,
1000
0000
1000
0000
1000
0000
0001
0100
,
0010
0000
0010
0000
0010
0000
1000
0100
,
0001
0000
0001
0100
1000
0000
0001
0100
,
1000
0000
1000
0100
0001
0010
0001
0010
,
0100
0000
0100
1000
0001
0000
0100
0000
,
0020
0000
0001
0000
1030
0010
1000
0100
,
0010
0010
0001
0001
,
1000
0100
0001
0100
1000
0000
0100
0000
,
0010
0010
0100
0100
,
1000
0010
0001
0010
1000
0000
0100
0000
,
0010
0000
0001
0100
0010
0000
1000
0100
,
0010
0000
0001
1000
0100
0000
0100
0000
,
1010
0100
0011
0100
,
1001
0110
1001
0000
,
0010
0010
0001
0001
,
1000
0100
0001
0100
1000
0000
0100
0000
,
0010
0010
0100
0100
,
1000
0010
0001
0010
1000
0000
0100
0000
,
0001
0000
0001
0100
1000
0000
0001
0100
,
1000
0000
1000
0100
0001
0010
0001
0010
,
0100
0000
0100
1000
0001
0000
0100
0000
,
0020
0001
1030
1001
,
0010
0010
0100
0100
,
0001
0000
1000
0000
0010
0001
0010
1000
,
0001
0200
0300
0000
0000
0000
0000
0000
;

//---------------dance-double - ----------------
#NOTES:
     dance-double:
     :
     Challenge:
     16:
     0.721132,0.927519,0.503312,0.281263,0.214648,682.000000,614.000000,68.000000,38.000000,0.000000,0.000000,0.721132,0.927519,0.503312,0.281263,0.214648,682.000000,614.000000,68.000000,38.000000,0.000000,0.000000:
// measure 0
00000000
00000000
00000000
00000000
,  // measure 1
00000000
00000000
00000000
00000000
,  // measure 2
00001000
00100000
00001000
00000000
00001000
00000000
00001000
00000000
,  // measure 3
00010000
00010000
00001000
00001000
,  // measure 4
00010000
00000100
00010000
00000000
00010000
00000000
00010000
00000000
,  // measure 5
00001000
00001000
00010000
00010000
,  // measure 6
00100000
01000000
00100000
00000000
00100000
00000000
00100000
00000000
,  // measure 7
01000000
01000000
00100000
00100000
,  // measure 8
00010000
00001000
00010000
00000000
00010000
00000000
00010000
00000000
,  // measure 9
00001000
00001000
00010000
00010000
,  // measure 10
00011000
00011000
00010100
00010100
,  // measure 11
00001100
00001100
00000110
00000110
,  // measure 12
00000011
00000011
00000101
00000101
,  // measure 13
00000110
00000110
00001010
00001010
,  // measure 14
00001000
00000100
00001000
00000100
00001000
00000100
00001000
00000100
,  // measure 15
00010000
00001000
00010000
00001000
00010000
00001000
00010000
00001000
,  // measure 16
00100000
00010000
00100000
00010000
00100000
00010000
00100000
00010000
10000000
00100000
10000000
00100000
10000000
00100000
10000000
00100000
,  // measure 17
01000000
00000000
01100000
00000000
00100000
10000000
01000000
00010000
,  // measure 18
00001000
00000000
00001000
00000000
00010000
00000000
00001000
00010000
,  // measure 19
00000100
00000000
00000100
00000000
00010000
00000000
00001000
00100000
,  // measure 20
00010000
00000000
00010000
00000000
00001000
00000000
00000100
00001000
,  // measure 21
00000100
00000100
00000010
00000001
,  // measure 22
00000100
00000000
00000100
00000000
00000010
00000000
00000010
00001000
,  // measure 23
00000001
00000000
00000001
00000000
00000100
00000000
00000010
00000100
,  // measure 24
00001000
00000000
00010000
00000000
00001000
00010000
00000100
00010000
,  // measure 25
00001000
00001000
00100000
00100000
,  // measure 26
11000000
11000000
11000000
11000000
,  // measure 27
10100000
10100000
11000000
11000000
,  // measure 28
01010000
01010000
01010000
01010000
,  // measure 29
01100000
01100000
01010000
01010000
,  // measure 30
00001000
00010000
00001000
00010000
00001000
00010000
00001000
00010000
,  // measure 31
00000010
00010000
00001000
00010000
00001000
00010000
00001000
00010000
,  // measure 32
00100000
00010000
00001000
00010000
00000010
00010000
00001000
00010000
,  // measure 33
00200000
00000000
01000000
00000000
01300000
00000000
00100000
00010000
,  // measure 34
00020010
00031000
00102000
00013000
,  // measure 35
00020010
00000000
00030100
00001000
00010000
00000000
00010000
01000000
,  // measure 36
10000000
00000000
10000000
01000000
00010000
00000000
00011000
00000000
,  // measure 37
00011000
00000000
00001000
00000010
00000001
00000010
00001000
00000100
,  // measure 38
00020100
00031000
01002000
00013000
,  // measure 39
00020100
00000000
00030010
00001000
00010000
00000000
00010000
00100000
,  // measure 40
10000000
00000000
10000000
00100000
00010000
01000000
00100000
00010000
,  // measure 41
00001000
00000000
00001000
00000100
00000001
00000000
00000001
00000100
,  // measure 42
00020010
00031000
00102000
00013000
,  // measure 43
00020010
00000000
00030100
00001000
00010000
00000000
00010000
01000000
,  // measure 44
10000000
00000000
10000000
01000000
00010000
00000000
00011000
00000000
,  // measure 45
00011000
00000000
00001000
00000010
00000001
00000010
00001000
00000100
,  // measure 46
00020100
00031000
01002000
00013000
,  // measure 47
00020100
00000000
00030010
00001000
00010000
00001000
00000010
00001000
,  // measure 48
00010000
00000000
00100000
00000000
00010000
00000000
00100000
00000000
01000000
10000000
01000000
10000000
00010000
01000000
00010000
01000000
,  // measure 49
00200000
00000000
00000000
00000000
00001000
00000000
00000000
00000000
10300000
00000000
00010000
00000000
10000000
00010000
10000000
00010000
,  // measure 50
01000000
00000000
00100000
00000000
00010000
00000000
00001000
00000100
00000000
00000100
00000010
00000000
00001000
00000000
00000001
00000000
,  // measure 51
00000010
00000000
00000100
00000000
00001000
00000000
00010000
01000000
00000000
01000000
00100000
00000000
10000000
00000000
00010000
00000000
,  // measure 52
01000000
00000000
00100000
00000000
00010000
00000000
00001000
00000100
00000000
00000100
00000010
00000000
00001000
00000000
00000001
00000000
,  // measure 53
00000010
00000000
00000100
00000000
00001000
00000000
00010000
01000000
00000000
01000000
00100000
00000000
10000000
00000000
00000000
00000000
,  // measure 54
10000000
00100000
00010000
00000000
00001000
00000100
00000001
00000000
,  // measure 55
00000101
00001100
00000001
00001000
,  // measure 56
00000001
00000100
00001000
00000000
00010000
00100000
10000000
00000000
,  // measure 57
10100000
00110000
10100000
10000000
,  // measure 58
10000000
00000000
00100000
00000000
00010000
00000000
00001000
00000100
00000000
00000100
00000001
00000000
00001000
00000000
00000100
00000000
,  // measure 59
00000001
00000000
00000100
00000000
00001000
00000000
00010000
00100000
00000000
00100000
10000000
00000000
00010000
00000000
01000000
00000000
,  // measure 60
10000000
00000000
01000000
00000000
00010000
00000000
00001000
00000100
00000000
00000100
00000001
00000000
00001000
00000000
00000100
00000000
,  // measure 61
00000001
00000000
00000100
00000000
00001000
00000000
00010000
00100000
00000000
00100000
10000000
00000000
00010000
00000000
01000000
00000000
,  // measure 62
11000000
10100000
00101000
00011000
,  // measure 63
00010010
00011000
00101000
00011000
,  // measure 64
00010000
00000000
00001000
00000000
00010000
00000000
00001000
00000000
00010000
00001000
00010000
00001000
00010000
00001000
00010000
00001000
,  // measure 65
01000000
00000000
01010000
00000000
00010000
00000000
01000000
00100000
,  // measure 66
00020000
00000000
10000000
00000000
10000000
00000000
10030000
01000000
,  // measure 67
00020000
00000000
00001000
00000000
00031000
00010000
00001000
00000010
,  // measure 68
00000200
00000000
00001000
00000000
00001000
00000000
00001300
00000100
,  // measure 69
00000002
00000000
00000010
00000000
00000013
00000000
00000010
00001000
,  // measure 70
00010000
00000000
00100000
00010000
00001000
00000000
00000010
00000100
,  // measure 71
00010000
00000000
00100000
01000000
00001000
00000000
00011000
00000000
,  // measure 72
00001010
00000000
00001010
00000000
00001000
00000100
00000010
00000100
,  // measure 73
00010000
00000000
00011000
00000000
00001010
00000000
00000010
00000100
,  // measure 74
00002000
00000000
00000001
00000000
00000001
00000000
00003001
00000010
,  // measure 75
00002000
00000000
00010000
00000000
00013000
00001000
00010000
01000000
,  // measure 76
00200000
00000000
00010000
00000000
00010000
00000000
00310000
00100000
,  // measure 77
20000000
00000000
00100000
00000000
30100000
00000000
00100000
00010000
,  // measure 78
00001000
00000000
00000010
00001000
00010000
00000000
00100000
01000000
,  // measure 79
00001000
00000000
00000010
00000100
00010000
00001000
00010000
00001000
,  // measure 80
00100000
00000000
00010000
00000000
10000000
00000000
01000000
00000000
00100000
00010000
01000000
00010000
10000000
00010000
01000000
00010000
,  // measure 81
00200000
00000000
00001000
00000000
10300000
00100000
00010000
01000000
,  // measure 82
00020000
00000000
00001000
00000000
00001000
00000000
00001000
00031000
,  // measure 83
00010000
00000000
01000000
00000000
00100000
00000000
10000000
01000000
00000000
00100000
00010000
00000000
00001000
00000000
00000100
00000000
,  // measure 84
00002000
00000000
00010000
00000000
00010000
00000000
00010000
00013000
,  // measure 85
00001000
00000000
00000100
00000000
00000010
00000000
00000001
00000100
00000000
00000010
00001000
00000000
00010000
00000000
01000000
00000000
,  // measure 86
00020000
00000000
00031000
00010000
02000000
00000000
13000000
01000000
,  // measure 87
00020000
00000000
00031000
00010000
00200000
00000000
02300000
00000000
,  // measure 88
13000000
00000000
00100000
00000000
01000000
00000000
00001000
00010000
00000000
00010000
00001000
00000000
00010000
00000000
00000100
00000000
,  // measure 89
00002000
00000010
00000100
00013000
,  // measure 90
00020000
00000000
00001000
00000000
00001000
00000000
00001000
00031000
,  // measure 91
00010000
00000000
01000000
00000000
00100000
00000000
10000000
01000000
00000000
00100000
00010000
00000000
00001000
00000000
00000100
00000000
,  // measure 92
00002000
00000000
00010000
00000000
00010000
00000000
00010000
00013000
,  // measure 93
00001000
00000000
00000100
00000000
00000010
00000000
00000001
00000100
00000000
00000010
00001000
00000000
00010000
00000000
01000000
00000000
,  // measure 94
00020000
00000000
00031000
00010000
02000000
00000000
13000000
01000000
,  // measure 95
00020000
00000000
00031000
00010000
00100000
01000000
00100000
00010000
,  // measure 96
10000000
00010000
10000000
00010000
01000000
00100000
01000000
00100000
10000000
00000000
10000000
00100000
01000000
00000000
00010000
01000000
,  // measure 97
00200000
00000000
00000000
00000000
00001000
00000000
00000000
00000000
10300000
00000000
00100000
00000000
10000000
00010000
10000000
00010000
,  // measure 98
01000000
01000000
00100000
00100000
,  // measure 99
00010000
00000000
00001000
00000000
00010000
00000000
00100000
00000000
00010000
00000000
00001000
00000000
00000100
00001000
00010000
00001000
,  // measure 100
00010000
00002000
00003000
00000000
00000000
00000000
00000000
00000000
;
