#VERSION:0.83;
#TITLE:Deceive Your Insight;
#SUBTITLE:;
#ARTIST:Project B-;
#TITLETRANSLIT:;
#SUBTITLETRANSLIT:;
#ARTISTTRANSLIT:;
#GENRE:;
#ORIGIN:;
#CREDIT:;
#BANNER:Deceive Your Insight-bn.png;
#BACKGROUND:Deceive Your Insight-bg.png;
#PREVIEWVID:;
#JACKET:Deceive Your Insight-jacket.png;
#CDIMAGE:;
#DISCIMAGE:;
#LYRICSPATH:;
#CDTITLE:cdtitle.png;
#MUSIC:1-25 Deceive Your Insight.mp3;
#OFFSET:-0.126000;
#SAMPLESTART:21.564003;
#SAMPLELENGTH:15.000000;
#SELECTABLE:YES;
#DISPLAYBPM:190.000000;
#BPMS:0.000=190.000;
#STOPS:47.500=0.157,
48.000=0.157,
48.500=0.157,
49.000=0.157,
156.500=0.157,
184.000=0.079,
184.250=0.078,
184.500=0.079,
184.750=0.078,
185.000=0.079,
185.250=0.078,
185.500=0.079,
185.750=0.078,
186.000=0.079,
186.250=0.078,
321.500=0.157;
#DELAYS:;
#WARPS:;
#TIMESIGNATURES:0.000=4=4;
#TICKCOUNTS:0.000=4;
#COMBOS:0.000=1;
#SPEEDS:0.000=1.000=0.000=0;
#SCROLLS:0.000=1.000;
#FAKES:;
#LABELS:0.000=Song Start;
#BGCHANGES:;
#KEYSOUNDS:;
#ATTACKS:
;

//---------------dance-single - ----------------
#NOTEDATA:;
#CHARTNAME:;
#STEPSTYPE:dance-single;
#DESCRIPTION:;
#CHARTSTYLE:;
#DIFFICULTY:Beginner;
#METER:3;
#RADARVALUES:0.177803,0.258248,0.064062,0.109820,0.000000,136.000000,129.000000,7.000000,12.000000,0.000000,0.000000,0.000000,0.000000,0.000000,0.177803,0.258248,0.064062,0.109820,0.000000,136.000000,129.000000,7.000000,12.000000,0.000000,0.000000,0.000000,0.000000,0.000000;
#CREDIT:;
#DISPLAYBPM:190.000000;
#NOTES:
0000
0000
0000
0000
,
0000
0000
0000
0000
,
0000
0000
0000
0000
,
0000
0000
0000
0000
,
1000
0000
0000
0000
,
1000
0000
0001
0000
,
0001
0000
0000
0000
,
0001
0000
0010
0000
,
0010
0000
0000
0000
,
0010
0000
0001
0000
,
0001
0000
0000
0000
,
0001
0000
0100
0000
,
0000
0000
0000
2002
0000
0000
0000
0000
,
0000
0000
0000
0000
,
0000
0000
0000
0000
,
0000
0000
0000
0000
,
0000
3003
1000
0000
,
1000
0000
1000
0000
,
0010
0000
0100
0000
,
0100
0000
0100
0000
,
0001
0000
1000
0000
,
0001
0000
1000
0000
,
0001
0000
0100
0000
,
0010
0000
0100
0000
,
1001
0000
1000
0000
,
1000
0000
1000
0000
,
0001
0000
0010
0000
,
0010
0000
0010
0000
,
0100
0000
1000
0000
,
0001
0000
0010
0000
,
0001
0000
0010
0000
,
0001
0000
1000
0000
,
1001
0000
0001
0000
,
1000
0000
1000
0000
,
0000
0000
0010
0000
,
0100
0000
0100
0000
,
0000
0000
0001
0000
,
2000
0002
0000
0000
,
0000
0000
0000
0000
,
3003
0000
0000
1000
0000
0000
0000
1000
,
0000
0000
0000
1000
0000
0000
0000
0000
,
0000
0000
0000
0001
0000
0000
0000
0001
,
0000
0000
0000
0001
0000
0000
0000
0000
,
0000
0000
0000
0100
0000
0000
0000
0010
,
0000
0000
0000
0100
0000
0000
0000
0000
,
0000
0000
0000
0001
0000
0000
0000
0000
,
0200
0000
0000
0000
0000
0000
0000
0000
0000
0300
0000
0000
0000
0000
0000
0000
,
0000
0001
0000
0001
,
0000
1000
0000
0100
,
0000
1000
0000
0000
,
0000
1001
0000
1000
,
0000
1000
0000
0010
,
0000
0100
0000
0001
,
0000
0000
2000
0000
,
0000
0000
3000
0001
,
0000
0100
0000
0001
,
0000
1000
0000
0100
,
0000
1000
0000
0001
,
0000
1000
0000
0010
,
0000
0200
0020
0000
,
0000
0000
0330
1000
,
1000
1000
0000
0010
,
0000
0010
0000
0100
,
0100
0100
0000
0001
,
0000
1000
0000
0001
,
0001
0001
0000
0100
,
0000
0010
0000
0100
,
0100
0100
0000
2002
,
0000
0000
3003
1000
,
0000
1000
0000
0010
,
0010
0010
0000
0100
,
0000
0100
0000
0001
,
0001
0001
0000
0010
,
0000
0100
0000
1000
,
1000
1000
0000
0001
,
0000
0000
1000
0000
,
0000
0001
0000
0000
,
1000
0000
0000
0001
,
0000
0000
2002
0000
,
0000
0000
0000
0000
,
0000
3003
0000
0000
0000
0110
0000
0000
;

//---------------dance-single - ----------------
#NOTEDATA:;
#CHARTNAME:;
#STEPSTYPE:dance-single;
#DESCRIPTION:;
#CHARTSTYLE:;
#DIFFICULTY:Easy;
#METER:8;
#RADARVALUES:0.305926,0.368926,0.228791,0.164730,0.000000,234.000000,209.000000,25.000000,18.000000,0.000000,0.000000,0.000000,0.000000,0.000000,0.305926,0.368926,0.228791,0.164730,0.000000,234.000000,209.000000,25.000000,18.000000,0.000000,0.000000,0.000000,0.000000,0.000000;
#CREDIT:;
#DISPLAYBPM:190.000000;
#NOTES:
0000
0000
0000
0000
,
0000
0000
0000
0000
,
0000
0000
0000
0000
,
0000
0000
0000
0000
,
1000
0001
1000
0000
,
0010
0100
0010
0000
,
1000
0001
0010
0000
,
0001
1000
0010
0000
,
1000
0100
1000
0000
,
0010
0100
0010
0000
,
0100
0001
0100
0000
,
0010
0000
1000
0000
0001
0000
0000
1001
,
0000
0000
0000
0220
0000
0000
0000
0000
,
0000
0000
0000
0000
,
0000
0000
0000
0000
,
0000
0000
0000
0000
,
0000
0330
1000
0100
,
1000
0010
0100
0001
,
0010
0100
0010
0001
,
0200
0000
0010
0000
,
0310
0000
1000
0010
,
0100
0001
0100
0010
,
1000
0100
0010
0001
,
0200
0000
0010
0000
,
0310
1001
1000
0010
,
0100
0001
0010
0001
,
1000
0100
0010
0001
,
2000
0000
0010
0000
,
3010
0000
1000
0100
,
0001
0100
1000
0010
,
0100
0001
0010
0001
,
0200
0000
0010
0000
,
0310
0110
1000
0100
,
0001
0100
1000
0010
,
0001
0010
0100
0001
,
0010
0100
1000
0100
,
0001
0100
1000
0010
,
0200
0002
0000
0000
,
0000
0000
0000
0000
0000
0000
0000
0303
,
0000
1001
0000
1000
0000
0000
0000
0010
,
0000
0000
0000
1000
0000
0010
0000
1000
,
0000
0000
0000
0100
0000
0000
0000
0010
,
0000
0000
0000
0001
0000
0010
0000
0001
,
0000
0000
0000
1000
0000
0010
0000
0100
,
0000
0001
0000
0100
0000
0010
0000
0000
,
0000
1000
0000
0010
0000
0100
0002
0000
,
2000
0000
0000
0000
0000
0000
0000
0000
0000
3003
0000
0000
1000
0000
0000
0000
,
0100
1000
0010
0000
,
0100
0000
0100
0001
,
2000
0000
0000
0010
,
0000
3001
0000
1000
,
0100
0001
0100
1000
,
0010
0000
1000
0001
,
0200
0000
0320
0000
,
0000
0030
1001
1000
,
0010
0100
0010
0001
,
0010
1000
0100
0010
,
0001
0010
0001
0010
,
1000
0010
0001
1000
,
0010
0200
0002
0000
,
0000
0000
0303
1010
,
0000
1001
0000
0001
,
0010
0100
0000
1010
,
0000
1100
0000
0010
,
0001
0100
0000
1010
,
0000
0011
0000
0010
,
0100
1000
0000
1010
,
0000
1001
0000
0220
,
0000
0000
0330
1001
,
0000
0011
0000
0010
,
0100
0001
0000
0110
,
0000
1010
0000
1000
,
0001
0010
0000
0101
,
0000
1100
0000
0100
,
0001
0010
0000
0011
,
0000
1000
0000
0000
0010
0000
0000
0100
,
0000
0000
1001
0000
0000
0010
0000
0000
,
0100
0000
0000
0010
0000
0000
1001
0000
,
0000
0100
0000
0000
0020
0000
0000
0000
,
0000
0000
0000
0000
,
0000
0030
0000
1000
0000
1001
0000
0000
;

//---------------dance-single - ----------------
#NOTEDATA:;
#CHARTNAME:;
#STEPSTYPE:dance-single;
#DESCRIPTION:;
#CHARTSTYLE:;
#DIFFICULTY:Medium;
#METER:12;
#RADARVALUES:0.526873,0.737851,0.054910,0.091516,0.155578,403.000000,397.000000,6.000000,10.000000,0.000000,0.000000,0.000000,0.000000,0.000000,0.526873,0.737851,0.054910,0.091516,0.155578,403.000000,397.000000,6.000000,10.000000,0.000000,0.000000,0.000000,0.000000,0.000000;
#CREDIT:;
#DISPLAYBPM:190.000000;
#NOTES:
0000
0000
0000
0000
,
0000
0000
0000
0000
,
0000
0000
0000
0000
,
0000
0000
0000
0000
,
1000
0100
0010
0000
0001
0000
1000
0000
,
0010
0100
0001
1000
0010
0100
0000
0100
,
0001
1000
0010
0000
0100
0000
0001
0000
,
0010
0001
1000
0100
0010
0100
0000
0100
,
1000
0010
0100
0000
0001
0000
1000
0000
,
0100
0010
0100
1000
0001
0100
0000
0100
,
0010
0100
0010
0000
1000
0000
0001
0000
,
0010
0001
1000
0100
1000
0010
0100
0001
,
1000
0001
1000
0220
0000
0000
0000
0000
,
0000
0000
0000
0000
,
0000
0000
0000
0000
,
0000
0000
0000
0000
,
0000
0000
0330
0000
1000
0100
1000
0010
,
0100
0001
0100
0010
0000
1000
0001
1000
,
0000
0010
0000
0100
0001
0010
0100
2000
,
0000
0000
0010
0010
,
3010
0000
1001
0000
1000
0100
1000
0010
,
0100
0010
0100
0001
0010
0001
1000
0100
,
0000
0010
0000
0001
0100
0010
1000
0002
,
0000
0000
0100
0100
,
0103
0000
1010
0000
1000
0100
1000
0010
,
0100
0001
0010
0100
0000
1000
0100
1000
,
0000
0010
0000
0100
0010
1000
0001
0020
,
0000
0000
0001
0001
,
0031
0000
1001
0000
0100
0001
0010
0100
,
1000
0010
1000
0010
0100
0001
0100
0010
,
0000
1000
0000
0010
0001
0010
0100
0010
,
0000
0100
0001
0010
0100
1000
0001
1000
,
0000
0010
0010
0000
1000
0100
1000
0000
,
0010
0000
0100
1000
0000
0001
0010
0000
,
0100
0001
0010
0000
0001
0000
1000
0000
,
0100
0010
0000
0001
0100
0000
0010
1000
,
0000
0100
0010
0100
1000
0001
0100
0001
,
0100
0010
2000
0000
0000
0000
0000
0000
,
0000
0000
0000
0000
0000
0000
0000
3000
,
0000
0001
1000
0001
0000
0010
0000
0001
,
0100
0010
0000
1000
0000
0010
0000
0100
,
0010
0100
0000
0001
0000
0010
0000
0001
,
1000
0100
0000
1000
0000
0010
0000
1000
,
0100
0010
0000
0100
0000
0010
0000
0001
,
0100
0001
0000
1000
0000
0100
0000
1000
,
0010
0100
0000
0001
0000
1000
0010
0000
,
1000
0001
1000
0001
1000
0001
1000
0001
1000
0001
0000
0000
1000
0000
0001
0000
,
0100
0010
1000
0010
0100
0001
0000
0100
,
0001
0100
0000
1000
0000
0100
0010
1000
,
0001
2000
0000
0000
0000
0000
0010
0000
,
0001
0000
3100
0000
1100
0000
0010
0100
,
0010
0001
0010
0100
1000
0100
1000
0010
,
0100
0010
0000
0100
0000
0001
0100
0001
,
0010
0000
0000
0100
0000
0000
0000
0000
0000
0000
0000
0000
1000
0000
0100
0000
1000
0000
0100
0000
0000
0000
0000
0000
,
0010
0001
0010
0001
0000
0000
1001
0000
0000
1000
0000
0000
,
0010
0000
0100
1000
0001
0000
0010
0100
,
0001
0000
0010
1000
0010
0000
0100
0000
,
1000
0000
0010
0100
1000
0000
0100
0001
,
0010
0000
1000
0010
0100
0000
1000
0010
,
0100
0010
0100
0001
0020
0000
0000
0000
,
0000
0000
0000
0000
0000
0000
0000
0000
0030
0000
0000
0000
0001
0000
0000
1000
,
0000
0000
0001
0000
0100
0000
0000
0010
0000
0000
0100
0000
0000
0000
0001
0000
,
0000
0000
1000
0000
0100
0000
0000
0100
0000
0000
0100
0000
1000
0000
0000
0010
,
0000
0000
0100
0000
0010
0000
0000
0100
0000
0000
0001
0000
0000
0000
0000
0010
,
0000
0000
0100
0000
1000
0000
0000
1000
0000
0000
1000
0000
0010
0000
0000
0100
,
0000
0000
0010
0000
0100
0000
0000
0001
0000
0000
0010
0000
0000
0000
0001
0000
,
0000
1000
0000
0000
0010
0000
0000
0010
0000
0000
0010
0000
1000
0000
0000
0010
,
0000
0000
0000
0100
0000
0000
0002
0000
0000
0000
0000
0000
0000
0000
0000
0000
0000
0000
1003
0000
0100
0000
1000
0000
,
0100
0000
0000
0000
0000
0000
0000
0000
0000
0000
0000
0000
0010
0000
0000
0000
0001
0000
0000
0000
0010
0000
0000
0000
0001
0000
0000
0000
0000
0000
0000
0000
0000
0000
0000
0000
1000
0000
0000
0000
0000
0000
0000
0000
0000
0010
0000
0000
,
0000
0000
0100
0000
0001
0000
0000
0100
0000
0000
1000
0000
0000
0000
0100
0000
,
0000
0000
0010
0000
1000
0000
0000
1000
0000
0000
1000
0000
0100
0000
0000
0010
,
0000
0000
0001
0000
0100
0000
0000
1000
0000
0000
0100
0000
0000
0000
0001
0000
,
0000
0000
0010
0000
0100
0000
0000
0100
0000
0000
0100
0000
1000
0000
0000
0001
,
0000
0000
0100
0000
1000
0000
0000
0100
0000
0000
0001
0000
0000
0000
0010
0000
,
0000
0000
0100
0000
1000
0000
0000
1000
0000
0000
1000
0000
0010
0000
0000
0000
,
0010
0100
0000
0100
0001
0000
0001
0010
,
0000
0010
1000
0000
1000
0010
0000
0010
,
0100
0000
0100
1000
0000
1000
0010
0000
,
0010
0001
0000
0001
0200
0000
0000
0000
,
0000
0000
0000
0000
,
0000
0300
0000
1000
0001
1000
0000
0000
;

//---------------dance-double - ----------------
#NOTEDATA:;
#CHARTNAME:;
#STEPSTYPE:dance-double;
#DESCRIPTION:;
#CHARTSTYLE:;
#DIFFICULTY:Easy;
#METER:8;
#RADARVALUES:0.309848,0.368926,0.247094,0.137275,0.000000,237.000000,210.000000,27.000000,15.000000,0.000000,0.000000,0.000000,0.000000,0.000000,0.309848,0.368926,0.247094,0.137275,0.000000,237.000000,210.000000,27.000000,15.000000,0.000000,0.000000,0.000000,0.000000,0.000000;
#CREDIT:;
#DISPLAYBPM:190.000000;
#NOTES:
// measure 0
00000000
00000000
00000000
00000000
,  // measure 1
00000000
00000000
00000000
00000000
,  // measure 2
00000000
00000000
00000000
00000000
,  // measure 3
00000000
00000000
00000000
00000000
,  // measure 4
00000001
00001000
00000100
00000000
,  // measure 5
00001000
00000100
00000010
00000000
,  // measure 6
00000100
00001000
00010000
00000000
,  // measure 7
00100000
00001000
00010000
00000000
,  // measure 8
00001000
00100000
01000000
00000000
,  // measure 9
00100000
00010000
10000000
00000000
,  // measure 10
00100000
01000000
00010000
00000000
,  // measure 11
00100000
00000000
00010000
00000000
00001000
00000000
00000000
00001001
,  // measure 12
00000000
00000000
00000000
00000220
00000000
00000000
00000000
00000000
,  // measure 13
00000000
00000000
00000000
00000000
,  // measure 14
00000000
00000000
00000000
00000000
,  // measure 15
00000000
00000000
00000000
00000000
,  // measure 16
00000000
00000330
00000001
00001000
,  // measure 17
00000001
00000010
00000100
00001000
,  // measure 18
00000010
00001000
00000100
00010000
,  // measure 19
00002000
00000000
00100000
00000000
,  // measure 20
00103000
00000000
01000000
00100000
,  // measure 21
01000000
00010000
00100000
01000000
,  // measure 22
00100000
00010000
00100000
00001000
,  // measure 23
00010000
00000000
00000100
00000000
00001000
00000000
00000000
00001001
,  // measure 24
00000000
00000110
00001000
00000100
,  // measure 25
00000010
00000100
00001000
00010000
,  // measure 26
00001000
00000100
00000010
00000001
,  // measure 27
00000200
00000000
00000010
00000000
,  // measure 28
00000301
00000000
00000001
00001000
,  // measure 29
00000100
00001000
00010000
00100000
,  // measure 30
00010000
00001000
00000100
00001000
,  // measure 31
00000020
00000000
00000100
00000000
,  // measure 32
00001030
00000110
00000001
00000010
,  // measure 33
00000100
00001000
00010000
00100000
,  // measure 34
00001000
00010000
00100000
10000000
,  // measure 35
01000000
00100000
00010000
00001000
,  // measure 36
00000100
00010000
00001000
00000100
,  // measure 37
00000001
00000020
00000000
00000000
,  // measure 38
00000000
00000000
00000000
00000000
00000000
00000000
00000000
00000030
,  // measure 39
00000000
00001001
00000000
00001000
00000000
00000000
00000000
00000001
,  // measure 40
00000000
00000000
00000000
00001000
00000000
00000010
00000000
00000100
,  // measure 41
00000000
00000000
00000000
00000010
00000000
00000000
00000000
00001000
,  // measure 42
00000000
00000000
00000000
00010000
00000000
01000000
00000000
00100000
,  // measure 43
00000000
00000000
00000000
10000000
00000000
01000000
00000000
10000000
,  // measure 44
00000000
00100000
00000000
01000000
00000000
00010000
00000000
00000000
,  // measure 45
00000000
00100000
00000000
00001000
00000000
00010000
00000000
00000000
,  // measure 46
00022000
00000000
00000000
00000000
00000000
00000000
00000000
00000000
00000000
00033000
00000000
00000000
00001000
00000000
00000000
00000000
,  // measure 47
00000100
00000001
00000010
00000000
,  // measure 48
00000010
00000000
00000010
00000001
,  // measure 49
00002000
00000000
00000000
00000010
,  // measure 50
00000000
00003010
00001010
00001000
,  // measure 51
00000100
00000010
00000100
00001000
,  // measure 52
00010000
00001000
01000000
10000000
,  // measure 53
00100000
00000000
00022000
00000000
,  // measure 54
00000000
00000000
00033000
00100000
,  // measure 55
00001000
00010000
00000100
00001000
,  // measure 56
00000010
00000100
00000001
00000010
,  // measure 57
00000100
00001000
00010000
01000000
,  // measure 58
00100000
00010000
00001000
01000000
,  // measure 59
00100000
10000000
00020000
00000000
,  // measure 60
00000000
00000000
00030000
00110000
,  // measure 61
00000000
00011000
00000000
00001000
,  // measure 62
00000100
00000010
00000000
00001001
,  // measure 63
00000000
00000110
00000000
00001000
,  // measure 64
00010000
00100000
00000000
00101000
,  // measure 65
00000000
01100000
00000000
10000000
,  // measure 66
00100000
01000000
00000000
00110000
,  // measure 67
00000000
00001100
00000000
00002002
,  // measure 68
00000000
00000000
00003003
00001001
,  // measure 69
00000000
00000110
00000000
00001000
,  // measure 70
00010000
00100000
00000000
00110000
,  // measure 71
00000000
00101000
00000000
00010000
,  // measure 72
01000000
10000000
00000000
11000000
,  // measure 73
00000000
01010000
00000000
00010000
,  // measure 74
00001000
00000100
00000000
00000101
,  // measure 75
00000000
00001000
00000000
00000000
00000100
00000000
00000000
00001000
,  // measure 76
00000000
00000000
00010000
00000000
00000000
10000000
00000000
00000000
,  // measure 77
00100000
00000000
00000000
00010000
00000000
00000000
00000100
00000000
,  // measure 78
00000000
00000010
00000000
00000000
00000002
00000000
00000000
00000000
,  // measure 79
00000000
00000000
00000000
00000000
,  // measure 80
00000003
00000000
00000000
00001001
00000000
00001001
00000000
00000000
;

//---------------dance-double - ----------------
#NOTEDATA:;
#CHARTNAME:;
#STEPSTYPE:dance-double;
#DESCRIPTION:;
#CHARTSTYLE:;
#DIFFICULTY:Medium;
#METER:12;
#RADARVALUES:0.526873,0.737851,0.064062,0.146426,0.114396,403.000000,396.000000,7.000000,16.000000,0.000000,0.000000,0.000000,0.000000,0.000000,0.526873,0.737851,0.064062,0.146426,0.114396,403.000000,396.000000,7.000000,16.000000,0.000000,0.000000,0.000000,0.000000,0.000000;
#CREDIT:;
#DISPLAYBPM:190.000000;
#NOTES:
// measure 0
00000000
00000000
00000000
00000000
,  // measure 1
00000000
00000000
00000000
00000000
,  // measure 2
00000000
00000000
00000000
00000000
,  // measure 3
00000000
00000000
00000000
00000000
,  // measure 4
00000001
00001000
00000010
00000000
00001000
00000000
00000100
00000000
,  // measure 5
00000010
00000100
00001000
00000000
00010000
00000000
00100000
00000000
,  // measure 6
00001000
00010000
01000000
00000000
10000000
00000000
00010000
00000000
,  // measure 7
00100000
00010000
00001000
00000000
00010000
00100000
00000000
00100000
,  // measure 8
01000000
10000000
00100000
00000000
00010000
00000000
00100000
00000000
,  // measure 9
10000000
01000000
00100000
00000000
00010000
00000000
00001000
00000000
,  // measure 10
00000100
00000010
00000001
00000000
00000100
00000000
00001000
00000000
,  // measure 11
01000000
00010000
00100000
00000000
00001000
00000000
00010000
00000100
,  // measure 12
00000010
00000001
00001000
00000220
00000000
00000000
00000000
00000000
,  // measure 13
00000000
00000000
00000000
00000000
,  // measure 14
00000000
00000000
00000000
00000000
,  // measure 15
00000000
00000000
00000000
00000000
,  // measure 16
00000000
00000000
00000330
00000000
00000001
00000010
00000001
00000100
,  // measure 17
00000010
00001000
00000100
00000010
00000000
00000100
00001000
00000010
,  // measure 18
00000000
00000100
00000000
00001000
00010000
01000000
10000000
00020000
,  // measure 19
00000000
00130000
00010000
00100000
,  // measure 20
11000000
00000000
00110000
00000000
10000000
00100000
01000000
00010000
,  // measure 21
00100000
01000000
10000000
00100000
00010000
00001000
00100000
00010000
,  // measure 22
00000000
00001000
00000000
00000100
00000010
00000001
00000100
00000010
,  // measure 23
00000000
00001000
00000100
00001000
00000100
00000000
00010000
00001000
,  // measure 24
00000000
00100000
00001000
00000000
00100000
00010000
10000000
01000000
,  // measure 25
00100000
00010000
00001000
00000100
00000000
00010000
00001000
00010000
,  // measure 26
00000000
01000000
00000000
00010000
00001000
00010000
00000100
00000020
,  // measure 27
00000000
00000031
00001000
00000100
,  // measure 28
00001100
00000000
00000011
00000000
00001000
00000100
00000010
00000100
,  // measure 29
00001000
00000010
00000100
00001000
00010000
00001000
00100000
00010000
,  // measure 30
00000000
00001000
00000000
00000100
00001000
00000010
00000100
00000001
,  // measure 31
00000000
00001000
00000010
00000100
00000010
00010000
00001000
00000100
,  // measure 32
00000000
00010000
00010000
00000000
10000000
00100000
00010000
00100000
,  // measure 33
01000000
00100000
01000000
00010000
00100000
00010000
00100000
00001000
,  // measure 34
00010000
00000100
00000010
00000001
00000000
00000100
00000010
00000100
,  // measure 35
00000010
00001000
00000100
00000010
00000100
00001000
01000000
00100000
,  // measure 36
00010000
10000000
00100000
00010000
00100000
00010000
00001000
00100000
,  // measure 37
00010000
00001000
00000200
00000000
00000000
00000000
00000000
00000000
,  // measure 38
00000000
00000000
00000000
00000000
00000000
00000000
00000000
00000300
,  // measure 39
00000000
00001000
00000001
00000100
00000000
00000010
00000000
00001000
,  // measure 40
00000000
00000100
00000010
00000000
00000001
00000100
00000000
00000010
,  // measure 41
00000000
00001000
00000000
00010000
00000000
00000100
00000000
00010000
,  // measure 42
00000000
00100000
00000000
01000000
00000000
10000000
00100000
00000000
,  // measure 43
00010000
00001000
00000000
00010000
00000100
00000010
00000000
00000001
,  // measure 44
00000000
00000100
00000000
00010000
00001000
00000010
00000000
00000100
,  // measure 45
00000000
00000001
00000000
00001000
00010000
00100000
00010000
00000000
,  // measure 46
00100000
00001000
00100000
00001000
00100000
00001000
00100000
00001000
00100000
00001000
00000000
00000000
10000000
00000000
00100000
00000000
,  // measure 47
00010000
00100000
01000000
00100000
01000000
00100000
00000000
01000000
,  // measure 48
00010000
00100000
00000000
00010000
00000000
00001000
00000100
00000010
,  // measure 49
00000001
00000200
00000000
00000000
00000000
00000000
00000010
00000000
,  // measure 50
00000301
00000000
00001001
00000000
00000110
00000000
00001000
00000100
,  // measure 51
00000010
00000100
00001000
00000010
00000100
00000010
00001000
00010000
,  // measure 52
00100000
00010000
00000000
00100000
00000000
00001000
00010000
00100000
,  // measure 53
00010000
00100000
00000000
00000000
20000000
00000000
32000000
00000000
,  // measure 54
03200000
00320000
00031000
00000100
,  // measure 55
00001000
00000000
00000010
00000001
00000010
00000000
00001000
00000100
,  // measure 56
00000001
00000000
00000100
00001000
00000010
00000000
00000100
00000000
,  // measure 57
00001000
00000000
01000000
00010000
00001000
00000000
00000100
00010000
,  // measure 58
00100000
00000000
01000000
00001000
00100000
00000000
00010000
00001000
,  // measure 59
00000100
00000010
00000001
00001000
00000020
00000000
00000000
00000000
,  // measure 60
00000000
00000000
00000000
00000000
00000000
00000000
00000000
00000000
00000030
00000000
00000000
00000000
00010000
00000000
00000000
00010000
,  // measure 61
00000000
00000000
00010000
00000000
00001000
00000000
00000000
00001000
00000000
00000000
00001000
00000000
00000000
00000000
00100000
00000000
,  // measure 62
00000000
00000000
00100000
00000000
00010000
00000000
00000000
00010000
00000000
00000000
00010000
00000000
00001000
00000000
00000000
00001000
,  // measure 63
00000000
00000000
00001000
00000000
00000010
00000000
00000000
00000010
00000000
00000000
00000010
00000000
00000000
00000000
00001000
00000000
,  // measure 64
00000000
00000000
00001000
00000000
00000001
00000000
00000000
00000001
00000000
00000000
00000001
00000000
00000010
00000000
00000000
00000010
,  // measure 65
00000000
00000000
00000010
00000000
00000100
00000000
00000000
00000100
00000000
00000000
00000100
00000000
00000000
00000000
00001000
00000000
,  // measure 66
00000000
00001000
00000000
00000000
00010000
00000000
00000000
00010000
00000000
00000000
00010000
00000000
10000000
00000000
00000000
10000000
,  // measure 67
00000000
00100000
00020000
00000000
00000000
00000000
00032000
00000000
,  // measure 68
00003200
00000000
00000000
00000000
00000320
00000000
00000000
00000000
00000031
00000000
00000000
00000000
00001000
00000000
00000000
00000100
,  // measure 69
00000000
00000000
00001000
00000000
00000010
00000000
00000000
00000100
00000000
00000000
00000010
00000000
00000000
00000000
00001000
00000000
,  // measure 70
00000000
00000000
00000100
00000000
00010000
00000000
00000000
00010000
00000000
00000000
00010000
00000000
00001000
00000000
00000000
00100000
,  // measure 71
00000000
00000000
00010000
00000000
00001000
00000000
00000000
00000100
00000000
00000000
00010000
00000000
00000000
00000000
01000000
00000000
,  // measure 72
00000000
00000000
10000000
00000000
00100000
00000000
00000000
00100000
00000000
00000000
00100000
00000000
01000000
00000000
00000000
00010000
,  // measure 73
00000000
00000000
00100000
00000000
00001000
00000000
00000000
00010000
00000000
00000000
00000100
00000000
00000000
00000000
00000010
00000000
,  // measure 74
00000000
00000000
00000001
00000000
00000100
00000000
00000000
00000100
00000000
00000000
00000100
00000000
00001000
00000000
00000000
00000000
,  // measure 75
00001000
00010000
00000000
00010000
00100000
00000000
00100000
10000000
,  // measure 76
00000000
10000000
01000000
00000000
01000000
00010000
00000000
00010000
,  // measure 77
00001000
00000000
00001000
00000100
00000000
00000100
00000001
00000000
,  // measure 78
00000001
00001000
00000000
00001000
00020000
00000000
00000000
00000000
,  // measure 79
00000000
00000000
00000000
00000000
,  // measure 80
00000000
00030000
00000000
01000000
00001000
00010000
00000000
00000000
;

//---------------dance-single - ----------------
#NOTEDATA:;
#CHARTNAME:;
#STEPSTYPE:dance-single;
#DESCRIPTION:;
#CHARTSTYLE:;
#DIFFICULTY:Hard;
#METER:16;
#RADARVALUES:0.834107,1.032992,0.649767,0.183033,0.544523,638.000000,567.000000,71.000000,20.000000,0.000000,0.000000,0.000000,0.000000,0.000000,0.834107,1.032992,0.649767,0.183033,0.544523,638.000000,567.000000,71.000000,20.000000,0.000000,0.000000,0.000000,0.000000,0.000000;
#CREDIT:;
#DISPLAYBPM:190.000000;
#NOTES:
0000
0000
0000
0000
,
0000
0000
0000
0000
,
0000
0000
0000
0000
,
0000
0000
0000
0000
,
1000
0100
0010
0001
0100
0010
0001
0010
,
1000
0100
0010
0001
0010
1000
0010
0100
,
1000
0001
0100
0010
0001
0010
1000
0100
,
0010
0001
1000
0010
0100
0110
0000
0101
,
0010
1000
0100
0001
0100
0010
0001
0010
,
0100
1000
0010
0001
0010
0100
1000
0100
,
0001
0010
0001
0010
0100
0010
0001
1000
,
0010
0100
0010
0100
0001
1000
0001
1000
0010
0100
0010
1000
0001
0010
0100
0000
,
1010
0110
0101
2002
0000
0000
0000
0000
,
0000
0000
0000
0000
0000
0000
0000
0000
0000
3003
0000
0000
0001
0000
1000
0000
0010
0000
0100
0000
0001
0000
0100
0000
,
0010
1000
0001
1000
0100
0010
0001
0010
0100
0010
0100
0010
,
0001
1000
0010
0100
0010
0100
0001
0100
0010
1000
0100
0010
,
0001
0000
0000
0000
0010
0000
0000
0000
0100
0000
0000
0000
1000
0000
0000
0000
0010
0000
0000
0000
0100
0000
0000
0000
0001
0000
0000
0000
0000
0000
0100
0000
0000
0010
0000
0000
0100
0000
0000
0000
0000
0000
0001
0000
0000
0000
0000
0000
,
1000
0000
0100
0000
0001
0000
0100
0000
0000
0000
1000
0010
0001
0000
0010
0000
,
0000
0110
0000
0001
0010
0100
1000
0020
,
0000
0000
0130
0000
0001
0100
0001
0000
0100
0000
0010
0000
1000
0000
0100
0000
,
0000
0000
0011
0000
0000
0000
1100
0000
0010
0000
0100
0001
0100
0000
1000
0000
,
0100
0010
0100
0001
0010
0100
0010
0001
,
0000
1010
0000
0010
1000
0010
0100
0002
,
0000
0023
0230
0320
0230
0320
0032
1003
,
0000
0000
1001
0000
1001
0000
0000
0000
1000
0000
0010
0001
0010
0000
0100
0000
,
0001
0000
0010
0000
0100
0000
0010
0000
0000
0000
0001
0100
1000
0000
0100
0000
,
0000
1010
0000
0100
0001
0010
0100
2000
,
0000
0000
3010
0000
0100
0001
0100
0000
0010
0000
1000
0000
0001
0000
0010
0000
,
0000
0000
0011
0000
0000
0000
1100
0000
0010
0000
0100
0001
0100
0000
1000
0000
,
0001
0010
1000
0100
0010
0100
0010
0001
,
0000
1010
0000
0001
0100
0010
0100
0002
,
0000
0000
1003
0000
0010
0100
0010
0000
1000
0000
0001
0000
0100
0000
0010
0000
,
0000
0000
1001
0000
1001
0000
0000
0000
1000
0010
0100
0000
0001
0000
0010
0001
,
1000
0000
0010
0000
0100
0001
1000
0000
0001
1000
0010
0000
0001
0000
1000
0100
,
0001
0000
1000
0000
0100
1000
0010
0000
0100
0001
0010
0000
1000
0000
0100
0001
,
0010
0000
0001
0000
1000
0100
0010
0000
1000
0100
0010
0000
0001
0000
0010
0100
,
0001
0000
0010
0000
0001
0100
0010
0000
1000
0000
0001
0000
0100
0000
0010
0000
,
1000
0100
0020
0000
0000
0000
0000
0000
,
0000
0000
0000
0000
0000
0000
0000
0030
,
0000
1001
0110
1001
0100
0010
0100
0001
,
0010
0100
0010
0000
0001
1000
0010
0000
,
0101
0000
0010
1000
0100
0010
0002
0000
,
1003
0010
0100
0001
0010
0100
0010
0000
,
1001
0000
0110
1000
0001
0010
0100
0010
,
0001
0010
0100
1000
0010
0100
0010
0000
,
1001
0000
0010
1000
0100
0010
0001
0000
,
1000
1000
1000
1000
1000
0001
0001
0001
0001
0001
0000
0000
1000
0000
0010
0100
,
0010
0000
0100
0000
0001
0000
0010
0000
0100
0000
0010
0000
0000
0000
0001
0100
,
0010
0100
0000
1001
0000
1000
0100
0010
,
0001
0000
2000
0000
0000
0000
3010
0000
0100
0001
0100
0000
1000
0000
0100
0000
,
0001
0000
0010
0000
0000
0000
0110
0000
0000
0000
1001
0000
0010
0000
0100
1000
,
0100
0010
0001
0010
1000
0100
0010
0001
,
0010
0100
0000
1010
0000
0010
0100
0001
,
1000
0000
0000
0020
0000
0000
0000
0000
0000
1030
0000
0000
0001
0000
1000
0000
0010
0000
0100
0000
1000
0000
0001
0000
,
0010
0000
0000
0000
1000
0000
0000
0000
0100
0000
0000
0000
0010
0000
0000
0000
0001
0000
0000
0000
0100
0000
0000
0000
1100
0000
0000
0000
0000
0000
0000
0000
0000
0000
0000
0000
0100
0000
0000
0001
0000
0000
1000
0000
0000
0000
0000
0000
,
0010
0000
0001
0010
0100
0000
0001
0000
1000
0100
0001
0000
1000
0100
0010
0000
,
0001
0000
0010
0100
1000
0000
0001
0000
0010
1000
0100
0000
0010
0100
1000
0000
,
0001
0000
0100
0010
1000
0000
0001
0000
0010
0100
1000
0000
0001
1000
0010
0000
,
0100
0000
0010
1000
0100
0000
0001
0000
0100
1000
0001
0000
0100
0000
0001
0000
,
0010
1000
0010
0001
0200
0000
0000
0000
,
0000
0000
0000
0000
0000
0000
0000
0000
0300
0000
0000
0000
1001
0000
0000
1000
,
0000
0000
0010
0000
0110
0000
0000
0001
0000
0000
0010
0000
0000
0000
0100
0000
,
0000
0000
1000
0000
1010
0000
0000
1010
0000
0000
1010
0000
0101
0000
0000
0010
,
0000
0000
0100
0000
1010
0000
0000
0010
0000
0000
0100
0000
0000
0000
0001
0000
,
0000
0000
0010
0000
0011
0000
0000
0011
0000
0000
1100
0000
1001
0000
0000
0010
,
0000
0000
1000
0000
1001
0000
0000
0100
0000
0000
0010
0000
0000
0000
1000
0000
,
0000
0001
0000
0000
1001
0000
0000
1010
0000
0000
0101
0000
0010
0000
0000
1000
,
0000
0000
0000
0100
0000
0000
0020
0000
0000
0000
0000
0000
0000
0000
0000
0000
0000
0000
0031
0000
0010
0000
1000
0000
,
0010
0000
0000
0000
0001
0000
0000
0000
0100
0000
0000
0000
1000
0000
0000
0000
0100
0000
0000
0000
0001
0000
0000
0000
1000
0000
0000
0000
0000
0000
0000
0000
0000
0000
0000
0000
0010
0000
0000
1000
0000
0000
0000
0000
0000
0010
0000
0000
,
1000
0000
0001
0010
0001
1000
0000
0001
0010
0000
0001
1000
0000
0000
0010
0000
,
0000
0000
1000
0000
1001
0000
0000
1001
0000
0000
1001
0000
1000
0010
0000
0100
,
0001
0000
0100
0010
0100
0001
0000
1000
0100
0000
1000
0010
0000
0000
1000
0000
,
0000
0000
0001
0000
1001
0000
0000
0110
0000
0000
1001
0000
1000
0100
0000
0010
,
0100
0000
1000
0100
0010
0001
0000
0010
0100
0000
0010
0001
0000
0000
1000
0000
,
0000
0000
0010
0000
0110
0000
0000
0011
0000
0000
1010
0000
0101
0000
0000
0000
,
0100
0101
0000
0010
1010
0000
0100
0110
,
0000
0001
1100
0000
0010
0101
0000
1000
,
0110
0000
0001
1010
0000
0101
1100
0000
,
1010
1001
0000
0101
2002
0000
0000
0000
,
0000
0000
0000
0000
,
0000
3003
0000
1001
0110
1001
0000
0000
;

//---------------dance-double - ----------------
#NOTEDATA:;
#CHARTNAME:;
#STEPSTYPE:dance-double;
#DESCRIPTION:;
#CHARTSTYLE:;
#DIFFICULTY:Hard;
#METER:15;
#RADARVALUES:0.707291,0.811636,0.512492,0.210488,0.237943,541.000000,485.000000,56.000000,23.000000,0.000000,0.000000,0.000000,0.000000,0.000000,0.707291,0.811636,0.512492,0.210488,0.237943,541.000000,485.000000,56.000000,23.000000,0.000000,0.000000,0.000000,0.000000,0.000000;
#CREDIT:;
#DISPLAYBPM:190.000000;
#NOTES:
// measure 0
00000000
00000000
00000000
00000000
,  // measure 1
00000000
00000000
00000000
00000000
,  // measure 2
00000000
00000000
00000000
00000000
,  // measure 3
00000000
00000000
00000000
00000000
,  // measure 4
00000001
00001000
00000100
00000010
00000100
00001000
00000010
00000100
,  // measure 5
00001000
00010000
01000000
10000000
00100000
00010000
00100000
01000000
,  // measure 6
00010000
00100000
00001000
01000000
00000100
00001000
00000010
00001000
,  // measure 7
00000001
00000010
00000100
00001000
00010000
00110000
00000000
00110000
,  // measure 8
00100000
01000000
10000000
00010000
00100000
00001000
00010000
00000100
,  // measure 9
00000010
00000100
00010000
00001000
00010000
01000000
00010000
00100000
,  // measure 10
00010000
00001000
00010000
00000100
00000010
00000001
00001000
00000010
,  // measure 11
00000100
00000010
00010000
00001000
00100000
00010000
10000000
10010000
,  // measure 12
00101000
00010100
00001001
00000220
00000000
00000000
00000000
00000000
,  // measure 13
00000000
00000000
00000000
00000000
,  // measure 14
00000000
00000000
00000000
00000000
,  // measure 15
00000000
00000000
00000330
00000000
,  // measure 16
00000001
00000000
00000000
00000000
00000010
00000000
00000000
00000000
00000100
00000000
00000000
00000000
00001000
00000000
00000000
00000000
00000000
00000000
00000000
00000000
00000000
00000000
00000000
00000000
00000001
00000000
00000000
00000000
00000000
00000000
00001000
00000000
00000000
00000100
00000000
00000000
00001000
00000000
00000000
00000000
00000000
00000000
00000010
00000000
00000000
00000000
00000000
00000000
,  // measure 17
00000100
00000000
00001000
00000000
00100000
00000000
00001000
00000000
00000000
00000000
00100000
00010000
10000000
00000000
00100000
00000000
,  // measure 18
00000000
10100000
00000000
01000000
00100000
01000000
00010000
00200000
,  // measure 19
00000000
00000000
00301000
00000000
00010000
00001000
00010000
00000000
00000010
00000000
00001000
00000000
00000100
00000000
00001100
00000000
,  // measure 20
00000000
00000000
00001001
00000000
00000000
00000000
00000110
00000000
00000100
00000000
00000001
00000010
00000001
00000000
00000010
00000000
,  // measure 21
00000100
00001000
00010000
10000000
00100000
00010000
00100000
01000000
,  // measure 22
00000000
00010000
00000000
01000000
00001000
00010000
00000100
00000010
,  // measure 23
00000000
00000002
00002003
00003002
00002003
00003002
00002003
00003001
,  // measure 24
00000000
00000000
00000110
00000000
00000110
00000000
00000000
00000000
00001000
00000000
00000100
00000010
00000100
00000000
00010000
00000000
,  // measure 25
00000001
00000000
00001000
00000000
00000010
00000000
00000100
00000000
00000000
00000000
00001000
00010000
01000000
00000000
10000000
00000000
,  // measure 26
00000000
10010000
00000000
10000000
00100000
00010000
00000100
00002000
,  // measure 27
00000000
00000000
00003010
00000000
01000000
00010000
01000000
00000000
00010000
00000000
00100000
00000000
00000100
00000000
00001100
00000000
,  // measure 28
00000000
00000000
00000101
00000000
00000000
00000000
00001010
00000000
00001000
00000000
00000100
00000010
00000100
00000000
00001000
00000000
,  // measure 29
00000001
00000100
00000010
00001000
00000100
00010000
01000000
10000000
,  // measure 30
00000000
01100000
00000000
01000000
00010000
00100000
00000100
00001000
,  // measure 31
00000000
00000200
00000320
00000230
00000320
00000230
00000320
00000130
,  // measure 32
00000000
00001001
00001001
00000000
00001000
00000001
00000010
00000100
,  // measure 33
00001000
01000000
10000000
00100000
00010000
00001000
00010000
00000100
,  // measure 34
00010000
00000010
00001000
00000001
00000010
00000100
00001000
01000000
,  // measure 35
00100000
00010000
10000000
00100000
00010000
00001000
00010000
00000100
,  // measure 36
00000010
00000001
00001000
00000010
00000100
00001000
00010000
00100000
,  // measure 37
01000000
10000000
02000000
00000000
00000000
00000000
00000000
00000000
,  // measure 38
00000000
00000000
00000000
00000000
00000000
00000000
00000000
03000000
,  // measure 39
00000000
10010000
01100000
10010000
10000000
01000000
00100000
00010000
,  // measure 40
00100000
00001000
01000000
00000000
00000100
00010000
00000010
00000000
,  // measure 41
00001001
00000000
00000010
00000100
00001000
00010000
00200000
00000000
,  // measure 42
00000000
00000000
00000000
00310000
01000000
10000000
01000000
00000000
,  // measure 43
01100000
00000000
10010000
10000000
01000000
00100000
00010000
00001000
,  // measure 44
00000100
00001000
00000010
00000100
00001000
00010000
01000000
00000000
,  // measure 45
10000000
00000000
00100000
01000000
00010000
00100000
00001000
00000000
,  // measure 46
00010000
00010000
00001000
00001000
00000100
00000100
00000010
00000010
00001000
00001000
00000000
00000000
00000010
00000000
00001000
00000010
,  // measure 47
00001000
00000000
00000001
00000000
00001000
00000000
00000100
00000000
00000010
00000000
00000001
00000000
00000000
00000000
00001000
00000100
,  // measure 48
00010000
01000000
00000000
01100000
00000000
01000000
10000000
00100000
,  // measure 49
00010000
00000000
00002000
00000000
00000000
00000000
00103000
00000000
00010000
01000000
00100000
00000000
10000000
00000000
01000000
00000000
,  // measure 50
10000000
00000000
10010000
00000000
00000000
00000000
01100000
00000000
00000000
00000000
10010000
00000000
10000000
00000000
00010000
00100000
,  // measure 51
00010000
00001000
00000100
00000010
00000001
00001000
00000010
00000100
,  // measure 52
00001000
00010000
00000000
01000000
00000000
10000000
00100000
01000000
,  // measure 53
00010000
00000000
00000000
00100000
00000000
00000000
00000000
00000000
00000000
00010000
00000000
00000000
10000000
00000000
01000000
00000000
00100000
00000000
00010000
00000000
00001000
00000000
00000100
00000000
,  // measure 54
00000010
00000000
00000001
00000000
00000010
00000000
00000100
00000000
00001000
00000000
00000100
00000000
00001000
00000000
00000000
00000000
00000000
00000000
00000001
00000000
00000000
00001000
00000000
00000000
,  // measure 55
00000010
00000001
00000010
00001000
00010000
10000000
00100000
00010000
,  // measure 56
00001000
00010000
00000100
00000010
00000001
00001000
00010000
10000000
,  // measure 57
00100000
00010000
00001000
00000010
00000001
00001000
00000001
00000100
,  // measure 58
00000010
00010000
00001000
00100000
00010000
00001000
00000100
00000010
,  // measure 59
00000001
00001000
00010000
01000000
00200000
00000000
00000000
00000000
,  // measure 60
00000000
00000000
00000000
00000000
00000000
00000000
00000000
00000000
00300000
00000000
00000000
00000000
10000000
00000000
00000000
00010000
,  // measure 61
00000000
00000000
10000000
00000000
01000000
00000000
00000000
00010000
00000000
00000000
01000000
00000000
00000000
00000000
11000000
00000000
,  // measure 62
00000000
00000000
01000000
00000000
01100000
00000000
00000000
00101000
00000000
00000000
00010100
00000000
00001000
00000000
00000000
00010000
,  // measure 63
00000000
00000000
00000100
00000000
00001000
00000000
00000000
00000010
00000000
00000000
00000100
00000000
00000000
00000000
00000101
00000000
,  // measure 64
00000000
00000000
00000001
00000000
00000110
00000000
00000000
00011000
00000000
00000000
01001000
00000000
01000000
00000000
00000000
00001000
,  // measure 65
00000000
00000000
00100000
00000000
00010000
00000000
00000000
00001000
00000000
00000000
00000100
00000000
00000000
00000000
00011000
00000000
,  // measure 66
00000000
00000000
00001000
00000000
10100000
00000000
00000000
01010000
00000000
00000000
00011000
00000000
00010000
00000000
00000000
00001000
,  // measure 67
00000000
00000000
00000000
00000100
00000000
00000000
00000002
00000000
00000000
00000000
00000000
00000000
00000000
00000000
00000000
00000000
00000000
00000000
00001003
00000000
00000100
00000000
00000010
00000000
,  // measure 68
00000100
00000000
00000000
00000000
00001000
00000000
00000000
00000000
00010000
00000000
00000000
00000000
00001000
00000000
00000000
00000000
00100000
00000000
00000000
00000000
01000000
00000000
00000000
00000000
00010000
00000000
00000000
00000000
00000000
00000000
00000000
00000000
00000000
00000000
00000000
00000000
10000000
00000000
00000000
00000000
00000000
00000000
00000000
00000000
00000000
01000000
00000000
00000000
,  // measure 69
00000000
00000000
00010000
00000000
10000000
00000000
00000000
01000000
00000000
00000000
00010000
00000000
00000000
00000000
01000000
00000000
,  // measure 70
00100000
00000000
01000000
00000000
00101000
00000000
00000000
00010100
00000000
00000000
00001001
00000000
00000001
00000000
00000000
00000010
,  // measure 71
00000000
00000000
00000100
00000000
00001000
00000000
00000000
00010000
00000000
00000000
10000000
00000000
00000000
00000000
00100000
00000000
,  // measure 72
10000000
00000000
00010000
00000000
00011000
00000000
00000000
00001100
00000000
00000000
00000011
00000000
00000100
00000000
00000000
00001000
,  // measure 73
00000000
00000000
00010000
00000000
00100000
00000000
00000000
01000000
00000000
00000000
10000000
00000000
00000000
00000000
00100000
00000000
,  // measure 74
10000000
00000000
00010000
00000000
00110000
00000000
00000000
00101000
00000000
00000000
00010100
00000000
00001001
00000000
00000000
00000000
,  // measure 75
00001000
00000100
00000000
00010000
01000000
00000000
10000000
00100000
,  // measure 76
00000000
00010000
00000100
00000000
00001000
00000001
00000000
00100000
,  // measure 77
00000100
00000000
00010000
00100000
00000000
10000000
01000000
00000000
,  // measure 78
00010000
00000001
00000000
00000100
00000220
00000000
00000000
00000000
,  // measure 79
00000000
00000000
00000000
00000000
,  // measure 80
00000000
00000330
00000000
00001001
00000110
00001001
00000000
00000000
;
