#TITLE:DAWN OF FALCON;
#SUBTITLE:;
#ARTIST:L.E.D.-G;
#TITLETRANSLIT:;
#SUBTITLETRANSLIT:;
#ARTISTTRANSLIT:;
#GENRE:;
#CREDIT:;
#BANNER:;
#BACKGROUND:;
#LYRICSPATH:;
#CDTITLE:cdtitle.png;
#MUSIC:DAWN OF FALCON.mp3;
#OFFSET:-0.689000;
#SAMPLESTART:30.070005;
#SAMPLELENGTH:15.000000;
#SELECTABLE:YES;
#BPMS:0.000000=155.000000
;
#STOPS:
;
#BGCHANGES:;
#KEYSOUNDS:;
#ATTACKS:;

//---------------dance-single - ----------------
#NOTES:
     dance-single:
     :
     Beginner:
     1:
     0.086382,0.151169,0.017785,0.017785,0.000000,68.000000,66.000000,2.000000,2.000000,0.000000,0.000000,0.086382,0.151169,0.017785,0.017785,0.000000,68.000000,66.000000,2.000000,2.000000,0.000000,0.000000:
0000
0000
0000
0000
,
0000
0000
0000
0000
,
0000
0000
0000
0000
,
0000
0000
0000
0000
,
0000
0000
0000
0000
,
1000
0000
0000
0000
,
1000
0000
0000
0000
,
0001
0000
0000
0000
,
0001
0000
0000
0000
,
0100
0000
0000
0000
,
0100
0000
0000
0000
,
0010
0000
0000
0000
,
0010
0000
0000
0000
,
1000
0000
0000
0000
,
1000
0000
0000
0000
,
0001
0000
0000
0000
,
0001
0000
0000
0000
,
0001
0000
0000
0000
,
0000
0000
0000
0000
,
1000
0000
0000
0000
,
1000
0000
0000
0000
,
1000
0000
0000
0000
,
1000
0000
0000
0000
,
0010
0000
0000
0000
,
0010
0000
0000
0000
,
0010
0000
0010
0000
,
0010
0000
0000
0000
,
0100
0000
0000
0000
,
0100
0000
0000
0000
,
0001
0000
0000
0000
,
0001
0000
0000
0000
,
1000
0000
0000
0000
,
1000
0000
0000
0000
,
0010
0000
0000
0000
,
0010
0000
0010
0000
,
0010
0000
0000
0000
,
1000
0000
0000
0000
,
1000
0000
0000
0000
,
1000
0000
0000
0000
,
0001
0000
0001
0000
,
0100
0000
0100
0000
,
0001
0000
0000
0000
,
1000
0000
0000
0000
,
1001
0000
0000
0000
,
0000
0000
0001
0000
,
0001
0000
0000
0000
,
0000
0000
1000
0000
,
1000
0000
0000
0000
,
0000
0000
0010
0000
,
0010
0000
0000
0000
,
0000
0000
1000
0000
,
1000
0000
0000
0000
,
0001
0000
0000
0000
,
0100
0000
0000
0000
,
0001
0000
0000
0000
,
1000
0000
0000
0000
,
1000
0000
0000
0000
,
0010
0000
0000
0000
,
0010
0000
0000
0000
,
1000
0000
0000
0000
,
1000
0000
0000
0000
,
0001
0000
0000
0000
,
0001
0000
0000
0000
,
0100
0000
0000
0000
,
0100
0000
0000
0000
,
0010
0000
0000
0000
,
0100
0000
0000
0000
,
2002
0000
0000
0000
,
3003
0000
0000
0000
;

//---------------dance-single - ----------------
#NOTES:
     dance-single:
     :
     Easy:
     6:
     0.261687,0.302338,0.080031,0.062246,0.000000,206.000000,197.000000,9.000000,7.000000,0.000000,0.000000,0.261687,0.302338,0.080031,0.062246,0.000000,206.000000,197.000000,9.000000,7.000000,0.000000,0.000000:
0000
0000
0000
0000
,
0000
0000
0000
0000
,
0000
0000
0000
0000
,
0000
0000
0000
0000
,
0000
0000
0000
0000
,
1000
0000
1000
0000
,
1000
0000
1000
0100
,
0001
0000
0001
0000
,
0001
0000
0001
0010
,
1000
0000
0001
0000
,
1000
0000
0010
0100
,
0001
0000
0100
0000
,
0010
0000
1000
0001
,
0010
0010
0000
0001
,
1000
1000
0000
0100
,
0110
0000
1001
0000
,
0001
1000
0001
1000
,
0010
0000
0000
0000
,
0000
0000
0000
0100
,
0001
0001
0001
0001
,
1000
1000
1000
1000
,
0100
0100
0100
0100
,
0010
0010
0011
0000
,
0001
0001
0001
0001
,
0100
0100
0100
0100
,
0010
1000
0001
0100
,
0020
0000
0130
0000
,
0001
1000
0001
1000
,
0010
1000
0010
1000
,
0001
0100
0001
0100
,
0010
0100
0010
0100
,
0001
0010
0001
0010
,
0100
1000
0100
1000
,
0001
1000
0001
1000
,
0010
0000
0020
0230
,
0301
0100
0001
0100
,
0010
0100
0010
0100
,
1000
0100
1000
0100
,
0001
0100
0002
0000
,
1003
0010
0100
0010
,
1000
0100
0010
0100
,
1000
0001
0100
0010
,
1000
0000
1000
0000
,
1001
0000
0000
0000
,
0001
0000
1000
1000
,
1010
0000
0010
0000
,
0100
0000
0001
0010
,
1000
0100
0001
0000
,
0001
0000
0001
0000
,
1000
0010
1000
0000
,
0001
0010
1000
0100
,
0001
0001
1000
0000
,
1000
1000
0100
0010
,
0100
0100
1000
0000
,
0010
0100
1001
0000
,
0001
1000
0001
1000
,
0010
0100
0010
0100
,
1000
0100
0001
0010
,
2000
0000
3000
0000
,
1000
0001
1000
1000
,
0010
0000
0010
1000
,
0001
0001
0100
0100
,
0001
0010
0100
0000
,
1000
0010
1000
0100
,
0010
0000
0010
0000
,
1001
0001
0100
0000
,
0101
0000
1000
0010
,
2002
0000
0000
0000
,
3003
0000
0000
0000
;

//---------------dance-single - ----------------
#NOTES:
     dance-single:
     :
     Medium:
     10:
     0.449696,0.544208,0.604676,0.106707,0.195630,354.000000,286.000000,68.000000,12.000000,0.000000,0.000000,0.449696,0.544208,0.604676,0.106707,0.195630,354.000000,286.000000,68.000000,12.000000,0.000000,0.000000:
0000
0000
0000
0000
,
0000
0000
0000
0000
,
0000
0000
0000
0000
,
0000
0000
0000
0000
,
0000
0000
0000
0000
,
1000
0000
1000
0001
,
1000
0000
0010
0100
,
0001
0000
0010
0100
,
1000
0000
0010
0100
,
1001
0001
1000
0100
,
1000
0000
0010
0000
0100
0001
0010
0000
,
0001
0010
0100
0010
,
0001
1001
1001
0010
,
1000
0010
1000
0000
0100
0000
1000
0000
,
0010
0100
0001
0000
1000
0000
0100
0000
,
0010
0100
0010
0000
0001
1000
0001
0000
,
0010
0100
1000
0000
0001
0000
0100
0000
,
1001
0000
0000
0000
,
1000
0010
0100
0001
,
1001
1001
1100
1100
,
1010
1010
1001
0101
,
0011
0011
0110
0110
,
1100
1100
0002
1003
,
1001
1001
1010
1010
,
1100
1100
0110
0011
,
0001
0000
1000
0000
0010
0100
0001
1000
,
0020
0000
0130
1000
,
0101
0101
1001
1001
,
1010
0000
1010
0000
0101
0000
0001
1000
,
0010
0011
0110
0110
,
1100
0000
1100
0000
1010
0000
0100
0001
,
0010
0011
1001
1001
,
1010
0000
1010
0000
0110
0000
0100
0001
,
1000
1001
0011
0011
,
0010
0001
1000
0000
0001
1000
0100
0000
,
1100
1010
1001
1100
,
1010
0000
0101
0000
1001
0000
0010
0001
,
1000
0110
0101
1001
,
0011
0000
0110
0000
1100
0000
1000
0001
,
0100
0010
0000
1000
0001
0100
0000
0001
,
1000
0001
0000
1000
0100
0010
0000
0001
,
1000
1001
1000
1001
,
0001
0000
0000
0100
0000
0000
1000
0000
0010
0000
0000
0001
0000
0000
1000
0000
,
0200
0000
0000
0300
,
0100
0100
0010
0001
,
0200
0000
0000
0000
,
0302
0000
0000
0000
0000
0000
1003
0000
1000
0010
0000
0010
,
0200
0000
0302
0000
,
2003
0000
0010
0010
,
3002
0000
0100
0000
,
0023
0000
0000
0000
0000
0000
0130
0000
1000
0100
0000
0000
,
1000
0000
1000
0001
0000
0000
0001
0000
0001
0100
0000
0000
,
0100
0000
0100
0010
0000
0000
1001
0000
0000
0110
0000
0000
,
0001
0000
0001
1000
0000
0000
0100
0000
0100
0010
0000
0000
,
0001
0000
0001
0100
0000
0000
1100
0000
0000
0011
0000
0000
,
0100
0000
1000
0100
0000
0000
0010
0000
0001
0010
0000
0000
,
0100
0000
1000
0010
0000
0000
0100
0000
0001
0010
0000
0000
,
0100
0000
0100
0010
0000
0010
0100
0000
0001
0000
1000
0000
,
0200
0000
0010
0310
,
1000
0000
0001
1000
0000
0100
1000
0000
0010
1000
0000
0000
,
0001
0000
0010
0001
0000
1000
0001
0000
0010
0001
0000
0000
,
0010
0000
0100
1000
0000
0100
0010
0000
1000
0010
0000
0000
,
0001
0000
0100
0010
0000
1000
0001
0000
0010
0000
0001
1000
,
0100
0000
1000
0100
0000
0000
0010
0000
0001
0100
0000
0010
,
1000
0000
0100
1000
0000
0000
0010
0000
0100
0001
0000
1000
,
0100
0000
0000
1100
0000
0100
0000
0000
1000
0010
0000
0100
,
0001
0000
0000
0000
0000
0000
0010
0000
0100
1000
0000
0001
,
2000
0000
0000
0000
,
3000
0000
0000
0000
;

//---------------dance-single - ----------------
#NOTES:
     dance-single:
     :
     Hard:
     14:
     0.621190,0.695377,0.168953,0.124492,0.631352,489.000000,470.000000,19.000000,14.000000,0.000000,0.000000,0.621190,0.695377,0.168953,0.124492,0.631352,489.000000,470.000000,19.000000,14.000000,0.000000,0.000000:
// measure 0
0000
0000
0000
0000
,  // measure 1
0000
0000
0000
0000
,  // measure 2
0000
0000
0000
0000
,  // measure 3
0000
0000
0000
0000
,  // measure 4
0000
0000
0000
0000
,  // measure 5
1000
0000
0010
1000
0100
0000
0010
0100
,  // measure 6
1000
0000
0010
0100
1000
0000
0001
0010
,  // measure 7
0100
0000
0001
0010
0100
0000
1000
0000
,  // measure 8
1100
0000
0101
0000
0001
0010
0100
1000
,  // measure 9
1100
0000
0000
0001
0100
0000
0000
0000
1000
0000
0010
0000
0100
0000
0001
0000
,  // measure 10
0101
0000
0000
1000
0010
0000
0000
0000
1000
0000
0001
0000
0100
0000
0000
0000
,  // measure 11
1100
0000
0000
0001
0100
0000
0000
0000
0010
0000
0100
0000
0001
1000
0010
0100
,  // measure 12
0010
0000
0000
1000
0010
0000
0010
0000
0000
0000
0010
0000
0100
0000
0000
0000
,  // measure 13
1000
0001
0100
0010
0100
0001
0100
0010
,  // measure 14
1000
0100
0010
0001
0010
0100
1000
0010
,  // measure 15
0100
0100
0001
0001
0010
0010
0100
0100
,  // measure 16
1000
0010
1000
0000
0001
0100
0001
0000
1000
0100
0010
0001
0010
0100
1000
0010
,  // measure 17
0100
0000
0000
0000
,  // measure 18
0001
1000
0110
1001
,  // measure 19
0100
0000
0000
0001
1000
0000
0100
0000
0001
0000
0000
0100
1000
0000
0001
0000
,  // measure 20
0010
0000
0000
0100
1000
0000
0001
0000
0010
0000
0000
0001
1000
0000
0010
0000
,  // measure 21
0100
0000
0000
0001
0010
0000
1000
0000
0010
0000
0000
0001
1000
0000
0100
0000
,  // measure 22
0010
0001
0100
0010
2000
0100
3002
0010
,  // measure 23
1003
0000
0000
0001
0010
0000
0100
0000
1000
0000
0000
0001
0010
0000
0100
0000
,  // measure 24
1000
0000
0000
0010
0100
0000
0001
0000
0010
0000
0000
0100
1000
0000
0010
0000
,  // measure 25
1000
0000
1000
0000
0001
0000
0001
0000
0010
0000
1000
0000
0010
0000
0001
1000
,  // measure 26
0001
0000
0000
0000
0000
0000
0000
0000
1000
0001
0000
0001
0000
0001
1000
0100
,  // measure 27
1000
0000
0100
0000
0010
0000
0100
1000
0100
0000
1000
0000
0001
0000
0100
0000
,  // measure 28
0010
0000
0001
0000
0010
0000
0100
0000
1000
0000
0100
0000
0001
0100
0010
1000
,  // measure 29
0001
0000
0100
0000
0010
0000
0100
0001
1000
0000
0010
0000
0001
0000
0010
0000
,  // measure 30
0100
0000
0010
0000
1000
0000
0010
0000
0100
0000
0001
0000
0010
0100
1000
0001
,  // measure 31
1000
0000
0001
0000
0100
0000
1000
0100
0010
0000
0100
0000
0001
0000
0010
0100
,  // measure 32
1000
0000
0010
0000
0100
0000
0001
0100
0010
0000
0000
0000
1001
0000
0000
0000
,  // measure 33
1100
0000
0001
0000
0010
0000
0100
1000
0001
0000
0010
0000
0100
0000
1000
0001
,  // measure 34
1000
0000
0100
0000
0001
0000
0100
0000
2000
0010
0000
0000
3002
0100
0000
0000
,  // measure 35
1003
0000
0100
0000
0010
0000
0001
1000
0100
0000
0010
0000
0001
0000
0100
0010
,  // measure 36
0100
0000
0001
0000
0010
0000
0100
1000
0100
0000
0010
0000
0001
1000
0010
0100
,  // measure 37
0010
0000
0100
0000
0001
0000
1000
0010
1000
0000
0100
0000
0010
0000
0001
0010
,  // measure 38
0100
0000
1000
0000
0001
0000
1000
0000
0010
0000
0100
0000
1001
0000
0100
1000
,  // measure 39
0010
0000
0100
0000
0001
0000
0010
1000
0010
0000
0001
0000
0100
0000
1000
0001
,  // measure 40
1000
0000
0100
0000
0001
0000
0010
1000
0010
0000
0001
0000
0010
0000
0100
1000
,  // measure 41
0001
0000
0010
0000
0100
0000
1000
0010
1000
0000
0000
0001
0000
0000
0100
0010
,  // measure 42
0100
0000
0000
1000
0000
0000
1000
0100
0001
0000
0000
1000
0000
0000
0100
0010
,  // measure 43
0002
0000
0000
0000
,  // measure 44
2003
0000
0000
0000
0000
0000
3010
0000
0010
0100
0000
0100
,  // measure 45
0020
0000
0000
0000
,  // measure 46
2030
0000
0000
0000
0000
0000
3001
0010
0100
1000
0001
0100
,  // measure 47
0020
0000
0100
0000
,  // measure 48
2030
0000
0000
0000
0000
0000
3001
0000
0001
0100
0000
0100
,  // measure 49
0020
0000
0001
0000
,  // measure 50
1030
0100
0010
0001
0010
0100
1000
0010
0100
0001
0100
0010
,  // measure 51
1010
0000
1000
0001
0000
0001
0100
0000
0100
0010
0100
1000
,  // measure 52
0100
0000
0001
0010
0000
0100
1000
0000
0100
0010
0100
1000
,  // measure 53
0010
0000
0100
0001
0000
0100
0010
0000
1000
0100
0010
0001
,  // measure 54
0010
0000
0001
1000
0000
0100
0010
0000
1001
0000
1100
0000
,  // measure 55
0101
0000
0100
0010
0000
0100
0001
0000
0100
1000
0000
0100
,  // measure 56
0001
0000
0010
1000
0000
0010
0001
0000
0010
1000
0000
0010
,  // measure 57
0100
0000
0001
1000
0000
0010
0001
0000
0110
0000
0101
0000
,  // measure 58
1001
0000
0000
0000
0000
0000
0002
0010
0000
2003
0100
0000
,  // measure 59
3010
0000
0010
0100
0000
0100
0001
0000
0001
1000
0000
1000
,  // measure 60
0010
0000
0010
0100
0000
0100
1000
0000
1000
0010
0100
0010
,  // measure 61
0001
0000
0001
0100
0000
0100
0010
0000
0010
0001
0000
0001
,  // measure 62
0100
0000
0100
1000
0000
1000
0001
0000
1100
0000
0010
1000
,  // measure 63
0001
0000
0001
0010
0000
0010
0100
0000
0100
1000
0000
1000
,  // measure 64
0010
0000
0010
0001
0000
0001
0100
0000
0100
1000
0000
1000
,  // measure 65
0001
0000
0001
0010
0000
0101
0000
0000
0001
0100
0000
0001
,  // measure 66
1000
0000
0000
0100
0000
0000
1000
0010
0100
0001
0010
0100
,  // measure 67
2000
0000
0000
0000
,  // measure 68
3000
0000
0000
0000
;

//---------------dance-double - ----------------
#NOTES:
     dance-double:
     :
     Easy:
     6:
     0.265498,0.332572,0.080031,0.088923,0.000000,209.000000,200.000000,9.000000,10.000000,0.000000,0.000000,0.265498,0.332572,0.080031,0.088923,0.000000,209.000000,200.000000,9.000000,10.000000,0.000000,0.000000:
00000000
00000000
00000000
00000000
,
00000000
00000000
00000000
00000000
,
00000000
00000000
00000000
00000000
,
00000000
00000000
00000000
00000000
,
00000000
00000000
00000000
00000000
,
00001000
00000000
00000001
00000100
,
00001000
00000000
00010000
00000100
,
00010000
00000000
00000100
00010000
,
00001000
00000000
00010000
00100000
,
10000000
10000000
00000000
00010000
,
10000000
10000000
00000000
01000000
,
00010000
00010000
00000000
00001000
,
00010000
00010000
00000000
00001000
,
00011000
00010000
00000100
00010000
,
00001000
00010000
00000100
00001000
,
00000010
00000100
00000001
00001000
,
00000100
00000000
00001000
00001001
,
00000001
00000000
00000000
00000000
,
00000000
00000000
00000000
00000000
,
00000001
00000001
00000010
00000010
,
00000100
00000100
00001000
00001000
,
00010000
00010000
00100000
00100000
,
01000000
01000000
10000000
10000000
,
00100000
00100000
01000000
01000000
,
00001000
00001000
00010000
00010000
,
00000100
00001000
00000010
00000100
,
00000001
00000000
00001001
00000000
,
00001000
00000100
00001000
00000100
,
00000010
00000001
00000010
00000001
,
00000100
00000010
00000100
00000010
,
00001000
00000100
00001000
00000100
,
00010000
00001000
00010000
00001000
,
00100000
00010000
00100000
00010000
,
01000000
00100000
01000000
00010000
,
10000000
00000000
10010000
10010000
,
00010000
01000000
00010000
01000000
,
00100000
01000000
00010000
00100000
,
00001000
00010000
00001000
00010000
,
00000100
00001000
00000200
00000000
,
00000310
00000001
00000100
00001000
,
00010000
00000100
00001000
00000100
,
00001000
00010000
00100000
00000000
,
00110000
00000000
10010000
00000000
,
20000000
00000000
00000000
00000000
,
30020000
00000000
00100000
00000000
,
00230000
00000000
00000000
00000000
,
02300000
00000000
13000000
00010000
,
02000000
00000000
00000000
00000000
,
03200000
00000000
00010000
00000000
,
02300000
00000000
00000000
00000000
,
03100000
00010000
00001000
00000100
,
00000010
00000010
00000100
00000000
,
00000001
00000100
00000010
00000000
,
00001000
00001000
00010000
00000000
,
00001000
00000010
00000100
00000000
,
00000001
00000001
00001000
00001000
,
00000100
00000100
00010000
00010000
,
00001000
00100000
00010000
01000000
,
00200000
00000000
01300000
00000000
,
10010000
10000000
00010000
10000000
,
00100000
10000000
01000000
01000000
,
00100000
00001000
00100000
00010000
,
00001000
00000000
00000100
00000100
,
00010000
00001000
00010000
00000010
,
00000100
00000010
00001000
00000001
,
00000010
00000000
00000010
00000110
,
00000100
00000000
00001000
00000100
,
00020000
00000000
00000000
00000000
,
00030000
00000000
00000000
00000000
;

//---------------dance-double - ----------------
#NOTES:
     dance-double:
     :
     Medium:
     11:
     0.449696,0.544208,0.684706,0.115600,0.155615,354.000000,277.000000,77.000000,13.000000,0.000000,0.000000,0.449696,0.544208,0.684706,0.115600,0.155615,354.000000,277.000000,77.000000,13.000000,0.000000,0.000000:
00000000
00000000
00000000
00000000
,
00000000
00000000
00000000
00000000
,
00000000
00000000
00000000
00000000
,
00000000
00000000
00000000
00000000
,
00000000
00000000
00000000
00000000
,
00001000
00000001
00000010
00000100
,
00010000
00000000
00001000
00000000
00000100
00000000
00001000
00010000
,
00000100
00010000
00001000
00010000
,
00100000
00010000
00100000
10000000
,
10100000
10100000
00000000
01000000
,
01010000
00100000
00000000
01000000
,
00110000
00110000
00000000
00100000
,
00001000
00000100
00000010
00000100
,
00000001
00001000
00000001
00000000
00001000
00000000
00000100
00000000
,
00001000
00000010
00000100
00000000
00001000
00000000
00010000
00000000
,
00001000
00100000
00010000
00000000
00100000
01000000
00100000
00000000
,
00001000
00100000
01000000
10000000
,
10010000
00000000
00000000
00000000
,
00001000
00010000
00100000
10000000
,
10100000
10100000
10010000
10010000
,
00110000
00110000
00101000
00101000
,
00011000
00011000
00010100
00010100
,
00001100
00000000
00001100
00000000
00000010
00000001
00000010
00000000
,
00000011
00000011
00001001
00001001
,
00001100
00001100
00010100
00010100
,
00000100
00010000
00001000
00000000
00010000
00001000
00100000
01000000
,
20000000
00000000
30100000
10000000
,
10010000
10010000
01010000
01010000
,
01001000
01001000
00101000
00010100
,
00011000
00011000
00001100
00001100
,
00000110
00000110
00000101
00001010
,
00000101
00000101
00001001
00001001
,
00001100
00001100
00010100
00101000
,
00110000
00110000
01100000
01100000
,
10000000
00010000
01000000
00100000
20000000
00000000
30010000
00000000
,
01010000
01010000
00110000
00110000
,
00101000
00101000
00011000
00010100
,
00001100
00001100
00000110
00000110
,
00000011
00000000
00000011
00000000
00000001
00001000
00000100
00000000
,
00001000
00000010
00001000
00000010
00000100
00000000
00000010
00000000
,
00010000
00001000
00010000
00000100
00010000
00000000
00001000
00000000
,
00010000
00000000
00100000
00000000
01000000
00000000
00000000
00000000
00010000
00000000
00000000
10000000
00000000
00000000
01000000
00000000
,
00100000
00000000
00000000
00010000
00000000
00000000
00001000
00000000
00000010
00000000
00000000
00010000
00000000
00000000
00001000
00000000
,
00200000
00000000
00000000
00000000
,
02300000
00000000
00000000
00000000
00000000
00000000
13000000
00000000
10000000
00010000
00000000
00010000
,
00200000
00000000
00000000
00000000
,
00302000
00000000
00000000
00000000
00000000
00000000
00013000
00000000
00100000
01000000
00000000
00010000
,
00200000
00000000
00302000
00000000
,
00003200
00000000
00000000
00000000
00000000
00000000
00000301
00000000
00001000
00000100
00000000
00010000
,
00002000
00000000
00023000
00000000
,
00030100
00001000
00100000
00010000
,
00011000
00000000
00000000
00010100
00000000
00000000
00001000
00000000
00000001
00000010
00000000
00000000
,
00001100
00000000
00000000
00010000
00000000
00000000
00001000
00010000
00001000
00010000
00000000
00000000
,
00000100
00000010
00000001
00000101
,
00000100
00000000
00000000
00001000
00000000
00000000
00010000
00001000
00010000
00001000
00000000
00000000
,
00011000
00100000
01000000
10000000
,
10100000
00010000
00001000
00000100
,
00000001
00000000
00001000
00000010
00000000
00000100
00000001
00000000
00000010
00000000
00001000
00000000
,
00020000
00000000
00030100
00010000
,
00011000
00000000
00100000
01000000
00000000
00000000
10000000
00000000
00000000
00100000
00000000
00000000
,
01000000
00000000
00010000
01000000
00000000
00000000
00100000
00000000
00010000
00001000
00000000
00010000
,
00000100
00000000
00000000
00000010
00000000
00000000
00001000
00000000
00000000
00010000
00000000
00001000
,
00010000
00000000
00000000
00000100
00000000
00000000
00000010
00000000
00001000
00000000
00010000
00000000
,
00001000
00000000
00000000
00010000
00000000
00001000
00100000
00000000
00000000
01000000
00000000
00100000
,
00001000
00000000
00000000
00100000
00000000
01000000
10000000
00000000
00000000
00100000
00000000
10000000
,
00010000
00000000
01000000
00100000
00000000
00010000
00000000
00000000
00001000
00010000
00000000
00100000
,
00010000
00000000
00000000
00001000
00000000
00000000
00000100
00000000
00000010
00001000
00000000
00000100
,
00020000
00000000
00000000
00000000
,
00030000
00000000
00000000
00000000
;

//---------------dance-double - ----------------
#NOTES:
     dance-double:
     :
     Hard:
     14:
     0.585621,0.695377,0.160061,0.124492,0.573553,461.000000,443.000000,18.000000,14.000000,0.000000,0.000000,0.585621,0.695377,0.160061,0.124492,0.573553,461.000000,443.000000,18.000000,14.000000,0.000000,0.000000:
00000000
00000000
00000000
00000000
,
00000000
00000000
00000000
00000000
,
00000000
00000000
00000000
00000000
,
00000000
00000000
00000000
00000000
,
00000000
00000000
00000000
00000000
,
00001000
00000001
00000100
00000010
00001000
00000000
00000100
00000010
,
00000000
00000100
00000000
00001000
00000000
00000100
00000010
00001000
,
00010000
00000000
00000100
00010000
00001000
00000000
00100000
01000000
,
00100000
00000000
00010000
10000000
00100000
00000000
10000000
00000000
,
10010000
00000000
00000000
10000000
00100000
00000000
00000000
00000000
00010000
00000000
00001000
00000000
00010000
00000000
00000000
00000000
,
10100000
00000000
00000000
01000000
00010000
00000000
00000000
00000000
00001000
00000000
00000100
00000000
00010000
00000000
00000000
00000000
,
00110000
00000000
00000000
00001000
00010000
00000000
00000000
00000000
00000100
00000000
00001000
00000000
00000010
00000000
00000000
00000000
,
00000011
00000000
00000000
00000100
00001000
00000000
00000000
00000000
00010000
00000000
00100000
00000000
00001000
00000000
00000000
00000000
,
00100000
01000000
00100000
01000000
10000000
00100000
10000000
00100000
,
01000000
00010000
00100000
00001000
00010000
00100000
01000000
00010000
,
00001000
00000100
00001000
00000100
00000010
00000001
00000010
00000001
,
00001000
00000100
00001000
00000000
00000010
00000100
00000010
00000000
00001000
00000100
00010000
00001000
00100000
00010000
01000000
00100000
,
01000000
00000000
00000000
00000000
,
10000000
00010000
01100000
10010000
,
10000000
00000000
00000000
01000000
00000000
00000000
00010000
00000000
10000000
00000000
00000000
00100000
00000000
00000000
00001000
00000000
,
10000000
00000000
00000000
01000000
00000000
00000000
00010000
00000000
10000000
00000000
00000000
00100000
00000000
00000000
00001000
00000000
,
00010000
00000000
00000000
00000100
00000000
00000000
00000010
00000000
00010000
00000000
00000000
00001000
00000000
00000000
00000001
00000000
,
00010000
00000000
00000000
00000100
00000000
00000000
00000010
00000000
00000002
00000000
00000100
00000000
00002003
00000000
00000010
00000000
,
00003001
00000000
00000000
00000100
00000000
00000000
00001000
00000000
00000001
00000000
00000000
00000010
00000000
00000000
00010000
00000000
,
00000001
00000000
00000000
00000100
00000000
00000000
00001000
00000000
00000001
00000000
00000000
00000010
00000000
00000000
00010000
00000000
,
00000010
00000000
00000100
00000000
00000010
00000000
00010000
00000000
00001000
00000000
00100000
00000000
01000000
00000000
10000000
00010000
,
00100000
00000000
00000000
00000000
00000000
00000000
00000000
00000000
00010000
01000000
00000000
01000000
00000000
01000000
00100000
01000000
,
00010000
00000000
10000000
00000000
00100000
00000000
01000000
00000000
00001000
00000000
00010000
00100000
10000000
00000000
01000000
00000000
,
00100000
00000000
00010000
00000000
00001000
00000000
00000100
00000000
00010000
00000000
00001000
00100000
00010000
00000000
00001000
00000000
,
00000100
00000000
00010000
00000000
00001000
00000000
00100000
00000000
01000000
00000000
00100000
00010000
00100000
00000000
00001000
00000000
,
00010000
00000000
00000100
00000000
00000010
00000000
00000001
00000000
00000100
00000010
00001000
00000001
00000100
00000000
00000010
00000000
,
00000100
00000000
00000001
00000000
00000010
00000000
00001000
00010000
00000100
00000000
00001000
00000000
00000010
00000000
00000100
00001000
,
00010000
00000000
00000100
00000000
00001000
00000000
00000010
00001000
00000100
00000000
00010000
00000000
00001000
00000000
00100000
00010000
,
00100000
00000000
01000000
00000000
10000000
00000000
00100000
00010000
00001000
00000000
00010000
00000000
00001000
00000000
00100000
00010000
,
00100000
00000000
00010000
00000000
00100000
00000000
01000000
00000000
20000000
00010000
00000000
00000000
30020000
00001000
00000000
00000000
,
00031000
00000000
00000100
00000000
00000010
00000000
00000001
00000100
00000010
00000000
00001000
00000000
00000100
00000000
00000010
00000001
,
00000100
00000000
00000010
00000000
00010000
00000000
00001000
00010000
00000010
00000000
00010000
00000000
00001000
00000000
01000000
00010000
,
00100000
00000000
00001000
00000000
00010000
00000000
00000010
00010000
00001000
00000000
00100000
00000000
00010000
00000000
00100000
01000000
,
00100000
00010000
10000000
00100000
01000000
00010000
10010000
00000000
,
10000000
01000000
00100000
00010000
00001000
00000100
00000010
00000001
,
00000010
00000100
00001000
00010000
00100000
01000000
10000000
00100000
,
01000000
00010000
01000000
00001000
00010000
00000000
00100000
00000000
01000000
00010000
00000000
00100000
00000000
00000000
00001000
00010000
,
00000010
00000000
00000000
00000100
00000000
00000000
00000001
00001000
00000100
00000000
00000000
00010000
00000000
00000000
10000000
01000000
,
00020000
00000000
00000000
00000000
,
00032000
00000000
00000000
00000000
00000000
00000000
00003010
00000000
00000010
00010000
00000000
00010000
,
00200000
00000000
00000000
00000000
,
20300000
00000000
00000000
00000000
00000000
00000000
31000000
00100000
00010000
00100000
00001000
00010000
,
00002000
00000000
00000000
00000000
,
00003020
00000000
00000000
00000000
00000000
00000000
00000130
00000000
00000100
00001000
00000000
00001000
,
00020000
00000000
00000000
00000000
,
10030000
00100000
01000000
00010000
00000000
00000000
01000000
00001000
00010000
00000100
00000000
00000000
,
00001100
00000000
00010000
00000100
00000000
00010000
00001000
00000000
00000000
00110000
00000000
00000000
,
00011000
00000000
00000100
00010000
00000000
00001000
00010000
00000000
00000000
01100000
00000000
00000000
,
10010000
00000000
00100000
00001000
00000000
00010000
00000100
00000000
00000000
00110000
00000000
00000000
,
00011000
00000000
00000100
00001000
00000000
00000000
00000001
00000010
00000100
00001000
00000000
00000000
,
00000101
00000000
00001000
00000100
00000000
00010000
00001000
00000000
00100000
01000000
00000000
10000000
,
00100000
00000000
01000000
00010000
00000000
00001000
00000100
00000000
00000010
00000001
00000000
00000100
,
00000010
00000000
00000010
00000100
00000000
00000100
00001000
00000000
00010000
00000000
01000000
00000000
,
20020000
00000000
00000000
30030000
00000000
00000000
00100000
01000000
00010000
10000000
00000000
00100000
,
01000000
00000000
01000000
00010000
00000000
00010000
00001000
00000000
00001000
00000100
00001000
00000100
,
00000010
00000000
00000010
00001000
00000000
00001000
00010000
00000100
00001000
00000100
00001000
00000010
,
00000100
00000000
00000100
00010000
00000000
00010000
01000000
00000000
01000000
00010000
10000000
00010000
,
00100000
00000000
00100000
00010000
00000000
00010000
00001000
00000000
00010010
00000000
00001000
00000100
,
00000010
00000000
00000010
00000001
00000000
00000001
00000100
00000000
00000100
00001000
01000000
00001000
,
00010000
00000000
00010000
00000100
00000000
00000100
00000010
00000000
00000010
00001000
00000100
00001000
,
00010000
00000000
00100000
01000000
00000000
10010000
00000000
00000000
00001000
00010000
00000000
01000000
,
00010000
00000000
00000000
00000100
00000000
00000000
00001000
00000001
00000010
00000100
00001000
00000100
,
00020000
00000000
00000000
00000000
,
00030000
00000000
00000000
00000000
;
