#TITLE:Cyber Inductance;
#SUBTITLE:;
#ARTIST:Dj Sharpnel;
#TITLETRANSLIT:;
#SUBTITLETRANSLIT:;
#ARTISTTRANSLIT:;
#GENRE:;
#CREDIT:;
#BANNER:Cyber Inductance-bn.png;
#BACKGROUND:Cyber Inductance-bg.png;
#LYRICSPATH:;
#CDTITLE:;
#MUSIC:Cyber Inductance.mp3;
#OFFSET:0.746000;
#SAMPLESTART:153.742920;
#SAMPLELENGTH:15.000000;
#SELECTABLE:YES;
#BPMS:0.000000=191.000000
;
#STOPS:
;
#BGCHANGES:;
#KEYSOUNDS:;
#ATTACKS:;

//---------------dance-single - ----------------
#NOTES:
     dance-single:
     :
     Beginner:
     9:
     0.394146,0.396567,0.010168,0.013558,0.000000,814.000000,811.000000,3.000000,4.000000,0.000000,0.000000,0.394146,0.396567,0.010168,0.013558,0.000000,814.000000,811.000000,3.000000,4.000000,0.000000,0.000000:
0000
0000
0000
0000
,
0000
0000
0000
0000
,
1000
0001
1000
0010
,
0100
0001
1000
0001
,
0010
0100
1000
0100
,
0010
0001
0100
0100
,
0010
1000
0001
1000
,
0100
0010
0001
0010
,
0100
1000
0100
0010
,
0001
0100
0010
0100
,
0001
1000
0100
0010
,
0001
1000
0010
0100
,
0001
1000
0100
0010
,
0001
1000
0010
0100
,
0001
0010
0001
1000
,
0100
1000
0010
0100
,
0001
1000
0001
1000
,
0010
1000
0001
0000
,
0100
0001
0010
0010
,
0001
1000
0100
0100
,
1000
0001
0010
0010
,
0001
1000
0010
0100
,
0001
0010
0100
0100
,
1000
0010
0100
0100
,
0001
0010
0100
0100
,
1000
0010
1001
0000
,
0100
0001
0010
0010
,
0001
1000
0100
0100
,
1000
0001
0010
0010
,
0001
1000
0010
0100
,
0001
0010
0100
0100
,
1000
0001
0010
0010
,
0001
1000
0001
1000
,
0010
0100
0001
1000
,
0100
0010
0001
0010
,
0100
1000
0010
1000
,
0001
0100
0001
1000
,
0100
1000
0001
0010
,
0100
1000
0001
1000
,
0010
0100
0001
1000
,
0001
0010
0100
1000
,
0001
0100
0010
1000
,
0001
0010
0001
1000
,
0001
0100
0010
1000
,
0001
1000
0100
0010
,
0001
0100
0001
1000
,
0100
0010
0001
0100
,
0010
1000
0010
0100
,
0001
1000
0001
1000
,
0001
0100
0001
0100
,
0010
1000
0010
0100
,
0001
0100
0001
0100
,
0010
1000
0100
1000
,
0100
0010
0001
1000
,
0010
0100
0010
1000
,
0001
0010
0001
0010
,
0100
1000
0001
1000
,
0010
0100
0010
1000
,
0001
0010
0001
1000
,
0100
1000
0100
0010
,
0001
0100
0001
1000
,
0010
0100
0001
1000
,
0100
0010
0100
0010
,
0001
1000
0001
0100
,
0010
1000
0010
1000
,
0001
1000
0001
1000
,
0100
0010
0001
1000
,
0010
0100
0001
0100
,
0010
1000
0100
0010
,
0001
0010
0001
1000
,
0100
0010
0001
0100
,
0010
1000
0001
1000
,
0100
0010
0100
1000
,
0001
0100
0010
0100
,
0001
1000
0001
0010
,
0100
1000
0001
0100
,
0010
1000
0010
0100
,
0001
0010
0001
1000
,
0100
1000
0010
0100
,
0010
1000
0100
0010
,
0001
1000
0001
1000
,
0001
0100
0001
1000
,
0200
0000
0000
0000
,
0000
0000
0000
0000
,
0300
0000
0000
0000
,
0000
0000
0000
0000
,
0000
0000
0000
0000
,
0000
0000
0000
0000
,
0000
0000
0000
0000
,
0000
0000
0000
0000
,
1000
0000
0000
0000
,
0001
0000
0000
0000
,
1000
0000
0000
0000
,
0001
0000
0000
0000
,
0100
0000
0000
0000
,
0001
0000
0000
0000
,
1000
0000
0000
0000
,
0010
0000
0000
0000
,
0100
0000
0000
0000
,
0010
0000
0000
0000
,
1000
0000
0000
0000
,
0001
0000
0000
2002
,
0000
0000
0000
0000
,
0000
0000
0000
0000
,
3003
0000
0000
0000
,
0000
0000
0000
0000
,
0001
0000
0100
0000
,
0001
0100
0001
0000
,
1000
0000
0100
0000
,
1000
0100
1000
0000
,
0010
0000
0100
0000
,
0010
0100
0010
0000
,
1000
0000
0001
0000
,
1000
0001
1000
0000
,
0010
0010
1000
1000
,
0001
0001
0100
0100
,
0010
0010
1000
1000
,
0001
0001
0100
0100
,
0001
0010
0100
1000
,
0001
0100
0010
1000
,
0001
1000
0001
1000
,
0010
0100
0010
0100
,
0001
0000
0000
0000
,
0000
0000
0000
0000
,
1000
0010
0100
0001
,
1000
0001
0010
0100
,
1000
0010
0100
0001
,
1000
0010
0100
0100
,
0001
0010
0100
1000
,
0100
0010
0001
1000
,
0010
1000
0100
0010
,
0001
1000
0010
0010
,
0100
0001
1000
0001
,
0010
0100
1000
0010
,
0100
0001
1000
0001
,
0010
0100
1000
1000
,
0001
0100
0010
0100
,
0001
1000
0100
0010
,
0100
1000
0010
0100
,
0001
1000
0001
1000
,
0001
0010
0100
1000
,
0001
0100
0010
1000
,
0100
0010
0001
0100
,
0010
1000
0001
0001
,
1000
0001
0010
0100
,
0010
0001
1000
0001
,
0100
0010
1000
0100
,
0010
0001
0100
0100
,
0010
1000
0001
1000
,
0100
0010
0100
1000
,
0100
0010
0001
0100
,
0001
1000
0100
0100
,
1000
0001
0010
0001
,
0100
0010
1000
0100
,
0010
0100
1000
0001
,
0100
0010
1000
1000
,
0001
0100
0010
1000
,
0001
0010
0100
1000
,
0001
0100
0010
1000
,
0001
0010
0100
1000
,
0000
0001
0000
1000
,
0000
0001
0000
1000
,
0010
0010
0100
0100
,
0001
1000
1001
0000
,
0010
0010
0100
0100
,
0010
0010
1000
0001
,
0010
0010
0100
0100
,
0010
0010
0001
1000
,
0100
0100
0010
0010
,
0001
0001
1000
0010
,
0100
0100
0001
0001
,
0010
0100
1000
0000
,
0001
0001
0100
0100
,
0001
0001
0010
0100
,
1000
1000
0010
0010
,
1000
1000
0100
0010
,
0001
0001
0100
0100
,
0001
0001
0010
0100
,
1000
1000
0001
0001
,
1000
0010
0100
0000
,
0001
0010
0100
1000
,
0001
0100
0010
1000
,
0001
0010
0001
1000
,
0100
1000
0010
0100
,
0001
1000
0001
0010
,
0100
1000
0100
0010
,
0001
1000
0010
1000
,
0001
0010
0100
0100
,
1000
0001
0100
0001
,
1000
0010
0100
0001
,
1000
0001
0010
0100
,
1000
0001
0100
0100
,
0001
1000
0010
1000
,
0001
0100
0010
1000
,
0100
0010
0001
1000
,
0001
0100
0010
1000
,
0100
0010
0001
1000
,
0010
0100
0001
1000
,
0001
0010
0100
1000
,
0001
0100
0010
0010
,
0100
0001
1000
0001
,
0100
0010
1000
0100
,
0010
0001
1000
0010
,
1000
0001
0100
0100
,
0010
1000
0100
0010
,
0001
1000
0001
0100
,
0010
1000
0010
0100
,
0001
1000
0100
0100
,
0010
0100
1000
0001
,
1000
0010
0100
0001
,
0010
0100
1000
0001
,
1000
0001
1000
0001
,
0100
0010
1000
0001
,
0100
0010
1000
0100
,
0010
0001
0100
0010
,
1000
0001
0010
0010
,
0100
1000
0001
0010
,
0100
1000
0010
0100
,
0001
1000
0100
0010
,
0001
1000
0010
0010
,
0100
0001
1000
0100
,
0010
0001
1000
0001
,
0100
0010
1000
0001
,
0010
0100
1000
1000
,
0001
0100
0010
1000
,
0100
1000
0001
0100
,
0010
1000
0001
0010
,
0001
1000
0010
0010
,
0100
0001
0010
0100
,
1000
0010
0100
0001
,
1000
0010
0100
0001
,
0010
0100
1000
0020
,
0000
0000
0000
0000
,
0000
0000
0000
0000
,
0130
0000
0000
0000
;

//---------------dance-single - ----------------
#NOTES:
     dance-single:
     :
     Medium:
     13:
     0.762629,0.674164,0.003389,0.091515,0.000000,1575.000000,1574.000000,1.000000,27.000000,0.000000,0.000000,0.762629,0.674164,0.003389,0.091515,0.000000,1575.000000,1574.000000,1.000000,27.000000,0.000000,0.000000:
0000
0000
0000
0000
,
0000
0000
0000
0000
,
1000
0001
0100
0010
1000
0001
1000
0001
,
0010
0100
1000
0001
0100
0010
1000
0010
,
0100
0001
0010
0100
1000
0100
0010
0100
,
1000
0001
0100
0010
1000
1000
0001
0000
,
0010
0100
0010
0001
0100
0010
1000
0010
,
0100
0001
1000
0100
0010
0001
0010
0001
,
1000
0010
0100
0001
1000
0010
0100
0010
,
1000
0001
0010
0100
1000
1000
0001
0000
,
0100
0001
0010
0001
0100
0010
1000
0010
,
0100
0001
1000
0100
0010
0100
1000
0001
,
0100
0010
1000
0010
0100
0001
1000
0100
,
0010
0001
0100
0001
1000
1000
0010
0000
,
0100
0001
0100
0010
1000
0100
0010
0001
,
0100
0001
1000
0100
0010
0001
0100
0010
,
1000
0001
1000
0001
1000
0001
1000
0001
,
0100
0010
1000
0001
0100
0010
1000
0000
,
0001
0100
0010
1000
0001
0010
0001
1000
,
0001
0100
0010
1000
0100
1000
0010
1000
,
0001
0010
0001
0100
0001
1000
0001
0010
,
0100
1000
0100
0010
0001
0001
0010
0000
,
0001
0010
0100
0010
0001
0010
0100
1000
,
0100
1000
0001
0100
0010
0100
0001
1000
,
0100
0010
0001
0010
0100
1000
0001
1000
,
0010
0100
0001
0010
0100
1000
0010
0000
,
1000
0001
1000
0010
0100
0001
0100
0010
,
1000
0100
1000
0001
0010
0001
0010
0100
,
1000
0010
1000
0001
0100
0010
0100
0001
,
0010
0100
1000
0010
0100
0100
0010
0000
,
1000
0100
0010
0001
0100
0001
1000
0001
,
0010
0100
1000
0010
0100
0010
1000
0100
,
0010
0100
0010
0100
0010
0001
0010
0001
,
1000
0010
0100
0001
1000
0100
0010
0000
,
0001
0100
0010
1000
0010
1000
0100
1000
,
0001
0100
0001
0010
0001
0010
0100
1000
,
0100
1000
0010
0100
0001
1000
0001
1000
,
0100
0010
0100
1000
0001
0001
0010
0000
,
0100
1000
0001
1000
0100
1000
0100
0010
,
0001
1000
0001
0100
0010
0100
0001
0010
,
0001
0100
0010
1000
0100
1000
0010
0100
,
0001
0010
0100
1000
0010
0010
0100
0000
,
0001
1000
0001
1000
0100
0010
0001
1000
,
0001
0100
0010
0100
0001
0100
0010
1000
,
0001
1000
0100
0010
0001
0010
0100
0010
,
0001
1000
0010
1000
0001
0001
0100
0000
,
0010
1000
0001
1000
0100
0010
0001
0010
,
0001
0100
0010
1000
0010
1000
0001
0100
,
0010
1000
0001
0100
0010
1000
0001
0100
,
0010
1000
0001
0010
0100
1000
0010
0000
,
1000
0100
0010
0001
0100
0010
1000
0001
,
0010
0100
1000
0010
1000
0001
0100
0010
,
1000
0001
0010
0001
0100
0010
0100
0001
,
0000
0010
0100
1000
0010
1000
0001
0000
,
0100
0010
0100
0001
0010
0001
0100
0010
,
1000
0001
1000
0100
0010
0001
1000
0001
,
0010
0100
0010
0100
1000
0010
0100
0001
,
1000
0010
0100
0001
0010
0010
0100
0000
,
0010
0001
1000
0001
1000
0010
0100
0001
,
1000
0100
1000
0100
0010
0001
0100
0010
,
1000
0001
1000
0001
0100
0010
1000
0001
,
0010
0100
0010
0100
1000
1000
0100
0000
,
1000
0100
1000
0010
1000
0001
0100
0010
,
1000
0001
1000
0001
0010
0100
1000
0010
,
0100
0001
0100
0001
0010
0001
0010
0001
,
0100
0010
1000
0001
0100
0010
1000
0000
,
0001
0010
0100
1000
0010
1000
0001
0100
,
0010
0100
0001
0010
0001
0100
0010
1000
,
0100
1000
0001
0010
0001
0100
0001
0100
,
0010
1000
0100
0010
0001
0001
1000
0000
,
0010
1000
0001
1000
0100
1000
0100
0010
,
0001
0100
0001
0100
0010
1000
0001
0010
,
0001
0010
0100
1000
0100
1000
0010
0100
,
0001
1000
0010
0100
0001
0001
0010
0000
,
0100
0010
0001
1000
0001
0100
0001
0100
,
0010
1000
0001
0010
0100
1000
0100
1000
,
0010
1000
0001
0100
0001
0100
0010
0100
,
0010
1000
0001
0010
0001
0001
0100
0000
,
0010
1000
0100
1000
0010
1000
0001
0100
,
0001
1000
0100
1000
0100
0010
0001
0100
,
0010
1000
0001
1000
0001
1000
0001
1000
,
0010
0100
0001
1000
0100
0010
0001
1000
,
0020
0000
0000
2030
,
0000
0000
0000
3200
,
0000
0000
0000
0320
,
0000
0000
0032
0000
,
2003
0000
0000
3002
,
0000
0000
0000
0203
,
0000
0000
0000
0000
,
0320
0000
2030
0000
,
3200
0000
0000
0320
,
0000
0000
0000
0032
,
0000
0000
0000
2003
,
0000
0000
3002
0000
,
0203
0000
0000
0320
,
0000
0000
0000
2030
,
0000
0000
0000
0000
,
3200
0000
0320
0000
,
0032
0000
0000
0000
,
2003
0000
0000
0000
,
3020
0000
0000
0000
,
2030
3200
0310
1002
,
0000
0000
0000
0000
,
0000
0000
0000
0000
,
1003
1000
1000
1000
,
1000
0000
1000
0000
1000
0000
0001
1000
,
0100
0010
0001
0100
,
1000
0100
0001
1000
,
0100
0001
0100
1000
,
0001
0100
0010
1000
,
0001
0010
1000
0001
,
0100
1000
0001
0100
,
0010
1000
0010
0001
,
0010
1000
0001
1000
,
0100
0100
0010
0010
,
0001
0001
1000
1000
,
0010
0010
0100
0100
,
0001
0001
0010
0010
,
0100
1000
0010
0100
,
0001
0010
0100
1000
,
0001
0100
0010
1000
,
0001
0010
0100
1000
0001
0010
0100
1000
,
0001
0000
0000
0000
,
1000
0001
0100
0010
,
1000
0100
1000
0010
0100
0001
1000
0010
,
0100
0001
0010
0001
0100
0001
1000
0100
,
1000
0010
0100
0010
1000
0100
0010
0001
,
0100
0010
1000
0001
0010
0010
0100
1000
,
0001
0100
0010
1000
0010
0100
0001
0010
,
0100
0010
0001
1000
0001
0100
0001
1000
,
0100
1000
0010
0100
0001
0010
0100
1000
,
0001
1000
0010
0100
0001
0001
0100
0010
,
1000
0100
1000
0010
0100
0001
1000
0001
,
0010
0100
0010
0100
1000
0010
1000
0001
,
0100
0010
1000
0001
0010
0100
0010
0001
,
1000
0010
0100
0001
1000
1000
0100
1000
,
0010
0100
0001
0010
0001
0100
0010
1000
,
0010
0100
0001
1000
0001
1000
0100
0010
,
0100
0010
0001
0100
0001
1000
0010
1000
,
0001
1000
0001
1000
0001
1000
0001
1000
,
0010
0100
0001
1000
0100
0010
0001
0100
,
0010
1000
0001
0100
0010
1000
0010
0100
,
0001
0010
0100
1000
0100
0010
0001
0010
,
0100
1000
0001
0100
0010
0010
1000
0001
,
1000
0100
0010
0001
0100
0001
1000
0010
,
0100
0010
1000
0100
1000
0010
0100
0001
,
1000
0001
0010
0100
1000
0001
0100
0010
,
1000
0100
1000
0010
0100
0100
0001
0100
,
0010
1000
0001
0100
0010
1000
0001
0010
,
0001
1000
0100
1000
0010
0100
0010
1000
,
0100
0010
0001
0100
0001
1000
0010
1000
,
0100
1000
0001
0010
0100
0100
0010
0001
,
1000
0010
0100
0010
1000
0001
1000
0001
,
0100
0010
1000
0001
0010
0100
1000
0100
,
0010
0001
0100
0001
1000
0010
0100
0001
,
1000
0100
0010
0001
0100
0100
0001
0100
,
0010
1000
0010
0100
0001
0010
0100
0010
,
0001
0100
0001
1000
0010
0100
0010
1000
,
0100
1000
0010
0100
0001
0010
0100
1000
,
0001
1000
0001
0100
0010
1000
0001
0000
,
0010
0001
0100
0001
,
1000
0100
1000
0010
,
1000
0001
1000
0001
1000
0001
1000
0001
,
0100
0010
1000
0001
0010
0100
1000
0000
,
0001
0001
0100
0100
0010
0010
1000
1000
,
0100
0100
0010
0010
0001
1000
0010
0100
,
0001
0001
0100
0100
0010
0010
1000
1000
,
0100
0100
0010
0010
0100
1000
0001
0100
,
0010
0010
0100
0100
0001
0001
1000
1000
,
0100
0100
0010
0010
0001
0100
0010
1000
,
0001
0001
0010
0010
0100
0100
1000
1000
,
0001
0100
0010
1000
0001
0001
0100
0000
,
0001
0001
1000
1000
0010
0010
0100
0100
,
0001
0001
0010
0010
0100
1000
0001
0100
,
0010
0010
1000
1000
0100
0100
1000
1000
,
0001
0001
0100
0100
0010
1000
0100
0010
,
0001
0001
0100
0100
0001
0001
1000
1000
,
0100
0100
0010
0010
0001
1000
0010
0100
,
0001
0010
0100
1000
0001
0010
0100
1000
,
0001
0100
0010
1000
0100
0100
0010
0000
,
0001
0100
0010
1000
0010
1000
0001
0010
,
0100
1000
0100
1000
0010
0100
0001
0010
,
0001
1000
0010
0100
0001
0100
0001
1000
,
0100
0010
0001
0100
0010
0010
0100
0000
,
0001
1000
0100
1000
0010
0100
0001
1000
,
0001
0010
0100
1000
0001
1000
0001
0100
,
0010
1000
0100
1000
0010
0100
0010
0100
,
0001
1000
0010
0100
0001
0001
0010
0000
,
0100
1000
0100
0010
0001
0100
0001
1000
,
0010
0100
0001
1000
0001
0010
0100
1000
,
0001
0100
0001
1000
0010
0100
0010
1000
,
0001
0010
0001
1000
0100
0100
0010
0000
,
0001
1000
0001
0100
0010
1000
0010
0100
,
0001
1000
0001
0010
0100
1000
0001
0100
,
0010
0100
0010
0100
0010
0100
0010
0100
,
0001
0010
0100
1000
,
1000
0100
1000
0010
0100
0001
1000
0010
,
0100
0001
0010
0001
0100
0001
1000
0100
,
1000
0010
0100
0010
1000
0100
0010
0001
,
0100
0010
1000
0001
0010
0010
0100
1000
,
0001
0100
0010
1000
0010
0100
0001
0010
,
0100
0010
0001
1000
0001
0100
0001
1000
,
0100
1000
0010
0100
0001
0010
0100
1000
,
0001
1000
0010
0100
0001
0001
0100
0010
,
1000
0100
1000
0010
0100
0001
1000
0001
,
0010
0100
0010
0100
1000
0010
1000
0001
,
0100
0010
1000
0001
0010
0100
0010
0001
,
1000
0010
0100
0001
1000
1000
0100
1000
,
0010
0100
0001
0010
0001
0100
0010
1000
,
0010
0100
0001
1000
0001
1000
0100
0010
,
0100
0010
0001
0100
0001
1000
0010
1000
,
0001
1000
0001
1000
0001
1000
0001
1000
,
0010
0100
0001
1000
0100
0010
0001
0100
,
0010
1000
0001
0100
0010
1000
0010
0100
,
0001
0010
0100
1000
0100
0010
0001
0010
,
0100
1000
0001
0100
0010
0010
1000
0001
,
1000
0100
0010
0001
0100
0001
1000
0010
,
0100
0010
1000
0100
1000
0010
0100
0001
,
1000
0001
0010
0100
1000
0001
0100
0010
,
1000
0100
1000
0010
0100
0100
0001
0100
,
0010
1000
0001
0100
0010
1000
0001
0010
,
0001
1000
0100
1000
0010
0100
0010
1000
,
0100
0010
0001
0100
0001
1000
0010
1000
,
0100
1000
0001
0010
0100
0100
0010
0001
,
1000
0010
0100
0010
1000
0001
1000
0001
,
0100
0010
1000
0001
0010
0100
1000
0100
,
0010
0001
0100
0001
1000
0010
0100
0001
,
1000
0100
0010
0001
0100
0100
0001
0100
,
0010
0010
1000
1000
0010
0010
0100
0100
,
0001
0001
0100
0100
0010
0010
1000
1000
,
0100
0010
0001
1000
0100
0010
0001
0100
,
0010
1000
0001
0100
0010
1000
0200
0000
,
0000
0000
0000
0000
,
0000
0000
0000
0000
,
0310
0000
0000
0000
;

//---------------dance-single - ----------------
#NOTES:
     dance-single:
     :
     Challenge:
     18:
     1.466669,1.475920,0.298273,0.311831,2.162477,3029.000000,2941.000000,88.000000,92.000000,0.000000,0.000000,1.466669,1.475920,0.298273,0.311831,2.162477,3029.000000,2941.000000,88.000000,92.000000,0.000000,0.000000:
// measure 0
0000
0000
0000
0000
,  // measure 1
0000
0000
0000
0000
,  // measure 2
0001
0100
0010
1000
0001
0010
0100
1000
0001
0100
0010
1000
0100
1000
0100
0010
,  // measure 3
0001
0100
0010
0100
0001
0010
0100
1000
0001
0100
0001
1000
0010
1000
0010
0100
,  // measure 4
0001
1000
0100
1000
0001
0100
0010
1000
0100
1000
0100
0010
0100
0010
0001
0010
,  // measure 5
0001
0100
0010
1000
0100
1000
0001
0100
0010
1000
0010
0000
1001
0000
0100
0000
,  // measure 6
0001
0010
0001
0100
0001
1000
0100
1000
0010
0100
0010
0100
0001
0100
0001
1000
,  // measure 7
0010
1000
0100
1000
0001
0100
0010
1000
0100
0010
0100
0010
0001
0100
0001
0100
,  // measure 8
0010
1000
0001
0100
0001
1000
0100
0010
0001
0010
0001
1000
0001
0100
0010
0100
,  // measure 9
0001
1000
0001
1000
0100
1000
0010
0100
0001
1000
0001
0000
0101
0000
0000
0000
,  // measure 10
0010
1000
0100
1000
0001
0100
0001
1000
0010
1000
0010
0100
0001
1000
0001
0010
,  // measure 11
0100
0010
0001
1000
0010
0100
0001
1000
0100
1000
0100
1000
0010
0100
0010
0100
,  // measure 12
0001
0100
0010
1000
0100
1000
0001
0100
0010
1000
0010
1000
0001
1000
0001
1000
,  // measure 13
0001
0010
0100
0010
0001
1000
0001
0100
0010
0100
0001
0000
1001
0000
0100
0000
,  // measure 14
0001
1000
0010
1000
0100
0010
0001
0100
0001
1000
0010
0100
0001
1000
0001
0010
,  // measure 15
0100
0010
0001
1000
0001
0100
0010
1000
0100
1000
0100
0010
0001
0010
0001
0100
,  // measure 16
0010
1000
0010
0100
0010
0100
0001
0100
0001
0010
0001
0010
0100
0010
0100
1000
,  // measure 17
0001
0000
0000
0000
0000
0000
0000
0000
0000
0000
0010
0000
0000
0000
0000
0000
0000
0000
0000
0100
0000
0000
0000
0000
0000
0000
0000
0000
0000
1000
0000
0000
0000
0000
0000
0000
0000
0000
0001
0000
0000
0000
0000
0000
0000
0000
0000
0000
0010
0000
0000
0000
0000
0000
0000
0000
0000
0000
0100
0000
0000
0000
0000
0000
0000
0000
0000
1000
0000
0000
0000
0000
0000
0000
0000
0000
0000
0001
0000
0000
0000
0000
0000
0000
0000
0000
0010
0000
0000
0000
0000
0000
0000
0000
0000
0000
0100
0000
0000
0000
0000
0000
0000
0000
0000
0000
0000
0000
1000
0000
0000
0000
0000
0000
0000
0000
0000
0000
0000
0000
0200
0000
0000
0000
0000
0000
0000
0000
0000
0000
0000
0000
0000
0000
0000
0000
0000
0000
0000
0000
0000
0000
0000
0000
0320
0000
0000
0000
0000
0000
0000
0000
0000
0000
0000
0000
0000
0000
0000
0000
0000
0000
0000
0000
0000
0000
0000
0000
0032
0000
0000
0000
0000
0000
0000
0000
0000
0000
0000
0000
0000
0000
0000
0000
0000
0000
0000
0000
0000
0000
0000
0000
,  // measure 18
1003
0010
0100
0001
0010
0100
1000
0010
0100
0010
0100
0001
0010
0100
0010
0100
,  // measure 19
1000
0010
0100
0001
0010
0100
1000
0010
0100
0001
0100
0001
1000
0010
1000
0010
,  // measure 20
0100
0001
0010
0100
0010
0001
0100
0010
1000
0100
1000
0100
0010
0001
0010
0001
,  // measure 21
1000
0010
0100
0001
0010
0100
1000
0010
0100
0010
0100
0000
0101
0000
1000
0000
,  // measure 22
0001
0010
0100
1000
0010
0100
0001
1000
0100
0010
0100
0010
0001
0100
0001
0100
,  // measure 23
0010
1000
0001
0010
0100
1000
0010
1000
0001
0100
0001
0100
0010
1000
0010
1000
,  // measure 24
0001
0010
0100
1000
0100
0010
0001
1000
0010
0100
0010
0100
0001
0100
0001
0010
,  // measure 25
0001
0100
0010
1000
0100
0010
0100
1000
0010
0100
0010
0000
1001
0000
0000
0000
,  // measure 26
0001
0100
0001
0010
0001
0100
0010
1000
0100
1000
0010
0100
0001
0010
0001
0100
,  // measure 27
0010
1000
0100
0010
0100
1000
0010
0100
0001
0010
0001
0100
0010
1000
0100
1000
,  // measure 28
0010
0100
0001
0010
0100
1000
0010
0100
0010
1000
0100
1000
0010
0100
0001
1000
,  // measure 29
0001
0010
0100
1000
0010
0100
0001
0010
0100
1000
0001
0000
1001
0000
0100
0000
,  // measure 30
0001
0010
0001
1000
0010
0100
0001
0010
0100
1000
0100
0010
0001
0100
0001
0100
,  // measure 31
0010
1000
0100
0010
0001
1000
0010
0100
0001
1000
0001
1000
0100
1000
0100
0010
,  // measure 32
0001
1000
0010
0100
0001
0100
0010
1000
0100
1000
0010
0100
0001
0100
0010
1000
,  // measure 33
0001
0000
0000
0000
0000
0000
0000
0000
0000
0000
0010
0000
0000
0000
0000
0000
0000
0000
0000
0100
0000
0000
0000
0000
0000
0000
0000
0000
0000
1000
0000
0000
0000
0000
0000
0000
0000
0001
0000
0000
0000
0000
0000
0000
0000
0000
0000
0000
0010
0000
0000
0000
0000
0000
0000
0000
0000
0000
0100
0000
0000
0000
0000
0000
0000
0000
0000
1000
0000
0000
0000
0000
0000
0000
0000
0000
0000
0001
0000
0000
0000
0000
0000
0000
0000
0000
0010
0000
0000
0000
0000
0000
0000
0000
0000
0000
0100
0000
0000
0000
0000
0000
0000
0000
0000
0000
0000
0000
1000
0000
0000
0000
0000
0000
0000
0000
0000
0000
0000
0000
0001
0000
0000
0000
0000
0000
0000
0000
0000
0000
0000
0000
0000
0000
0000
0000
0000
0000
0000
0000
0000
0000
0000
0000
1001
0000
0000
0000
0000
0000
0000
0000
0000
0000
0000
0000
0000
0000
0000
0000
0000
0000
0000
0000
0000
0000
0000
0000
0000
0000
0000
0000
0000
0000
0000
0000
0000
0000
0000
0000
0000
0000
0000
0000
0000
0000
0000
0000
0000
0000
0000
0000
,  // measure 34
0001
0100
0001
0010
0001
0100
0010
1000
0100
1000
0010
0100
0001
0010
0001
0010
,  // measure 35
0100
1000
0010
0100
0010
1000
0001
0100
0010
1000
0010
1000
0001
0010
0001
0100
,  // measure 36
0001
1000
0010
1000
0100
1000
0010
1000
0001
0100
0001
0010
0001
0100
0010
1000
,  // measure 37
0100
1000
0010
0100
0001
0010
0100
1000
0010
0100
0001
0000
1001
0000
0001
0000
,  // measure 38
0010
0100
1000
0100
1000
0010
0100
0001
0010
0001
0100
0010
0100
0010
1000
0100
,  // measure 39
1000
0010
1000
0001
0010
0001
1000
0001
0100
0010
0100
0010
1000
0100
1000
0010
,  // measure 40
1000
0001
0010
0001
1000
0010
1000
0001
0100
0001
0100
0010
1000
0010
1000
0100
,  // measure 41
1000
0100
0010
0001
1000
0010
0100
0001
0010
0001
1000
0000
1001
0000
0000
0000
,  // measure 42
0100
0001
0010
0001
0100
0001
1000
0010
1000
0100
1000
0010
1000
0001
0010
0001
,  // measure 43
0100
0010
0100
0001
0010
0001
0100
0010
1000
0010
1000
0100
1000
0010
1000
0001
,  // measure 44
0100
0001
0010
0001
0100
0010
0100
0001
0010
0100
1000
0100
1000
0010
1000
0001
,  // measure 45
0100
0001
0100
0010
1000
0010
1000
0100
0010
0001
1000
0000
1010
0000
0001
0000
,  // measure 46
0100
0000
0000
0000
0000
0000
0000
0000
0000
0000
0000
0000
0001
0000
0000
0000
0000
0000
0000
0000
0000
0000
0000
0000
0010
0000
0000
0000
0000
0000
0000
0000
0000
0000
0000
0000
0001
0000
0000
0000
0000
0000
0000
0000
0000
0000
0000
0000
1000
0000
0000
0000
0000
0000
0000
0000
0000
0000
0100
0000
0000
0000
0000
0000
0000
0000
0000
0010
0000
0000
0000
0000
0000
0000
0000
0000
0000
0001
0000
0000
0000
0000
0000
0000
0000
0000
1000
0000
0000
0000
0000
0000
0000
0000
0000
0000
0100
0000
0000
0000
0000
0000
0000
0000
0000
0000
0010
0000
0000
0000
0000
0000
0000
0000
0000
0001
0000
0000
0000
0000
0000
0000
0000
0000
0000
0100
0000
0000
0000
0000
0000
0000
0000
0000
0010
0000
0000
0000
0000
0000
0000
0000
0000
0000
1000
0000
0000
0000
0000
0000
0000
0000
0000
0000
0000
0000
0010
0000
0000
0000
0000
0000
0000
0000
0000
0000
0000
0000
1000
0000
0000
0000
0000
0000
0000
0000
0000
0000
0000
0000
0001
0000
0000
0000
0000
0000
0000
0000
0000
0000
0000
0000
,  // measure 47
0100
0000
0000
0000
0000
0000
0000
0000
0000
0000
0001
0000
0000
0000
0000
0000
0000
0000
0000
0010
0000
0000
0000
0000
0000
0000
0000
0000
0000
0100
0000
0000
0000
0000
0000
0000
0000
0000
1000
0000
0000
0000
0000
0000
0000
0000
0000
0000
0001
0000
0000
0000
0000
0000
0000
0000
0000
0000
0000
0000
0100
0000
0000
0000
0000
0000
0000
0000
0000
0000
0000
0000
0001
0000
0000
0000
0000
0000
0000
0000
0000
0000
0000
0000
0010
0000
0000
0000
0000
0000
0000
0000
0000
0000
0000
0000
0100
0000
0000
0000
0000
0000
0000
0000
0000
0000
0000
0000
0010
0000
0000
0000
0000
0000
0000
0000
0000
0000
0000
0000
0100
0000
0000
0000
0000
0000
0000
0000
0000
0000
0000
0000
1000
0000
0000
0000
0000
0000
0000
0000
0000
0000
0000
0000
0001
0000
0000
0000
0000
0000
0000
0000
0000
0000
0000
0000
1000
0000
0000
0000
0000
0000
0000
0000
0000
0000
0000
0000
0001
0000
0000
0000
0000
0000
0000
0000
0000
0000
0000
0000
0100
0000
0000
0000
0000
0000
0000
0000
0000
0000
0000
0000
,  // measure 48
0010
1000
0001
0010
0100
1000
0001
0100
0010
1000
0100
0010
0001
0100
0010
1000
,  // measure 49
0001
0000
0000
0000
0000
0000
0000
0000
0000
0000
0010
0000
0000
0000
0000
0000
0000
0000
0000
0100
0000
0000
0000
0000
0000
0000
0000
0000
0000
1000
0000
0000
0000
0000
0000
0000
0000
0000
0001
0000
0000
0000
0000
0000
0000
0000
0000
0000
0010
0000
0000
0000
0000
0000
0000
0000
0000
0000
0100
0000
0000
0000
0000
0000
0000
0000
0000
1000
0000
0000
0000
0000
0000
0000
0000
0000
0000
0001
0000
0000
0000
0000
0000
0000
0000
0000
0010
0000
0000
0000
0000
0000
0000
0000
0000
0000
0100
0000
0000
0000
0000
0000
0000
0000
0000
0000
0000
0000
1000
0000
0000
0000
0000
0000
0000
0000
0000
0000
0000
0000
0001
0000
0000
0000
0000
0000
0000
0000
0000
0000
0000
0000
0000
0000
0000
0000
0000
0000
0000
0000
0000
0000
0000
0000
1001
0000
0000
0000
0000
0000
0000
0000
0000
0000
0000
0000
0000
0000
0000
0000
0000
0000
0000
0000
0000
0000
0000
0000
0001
0000
0000
0000
0000
0000
0000
0000
0000
0000
0000
0000
0000
0000
0000
0000
0000
0000
0000
0000
0000
0000
0000
0000
,  // measure 50
0200
0300
0000
0000
0010
0000
0000
0000
1000
0000
0000
0000
0100
0000
0000
0000
0010
0000
0000
0000
0001
0000
0000
0000
0100
0000
0000
0000
0001
0000
0000
0000
,  // measure 51
0010
0100
1000
0010
1000
0100
1000
0010
,  // measure 52
0200
0300
0000
0000
0001
0000
0000
0000
1000
0000
0000
0000
0100
0000
0000
0000
0010
0000
0000
0000
0100
0000
0000
0000
0010
0000
0000
0000
0001
0000
0000
0000
,  // measure 53
0100
0000
0010
0000
1000
0000
0010
0000
0100
0001
0100
0000
1010
0000
0010
0000
,  // measure 54
2000
3000
0000
0000
0100
0000
0000
0000
1000
0000
0000
0000
0001
0000
0000
0000
0100
0000
0000
0000
0010
0000
0000
0000
0100
0000
0000
0000
0001
0000
0000
0000
,  // measure 55
1000
0010
1000
0010
0100
0001
0100
0001
,  // measure 56
0020
0030
0000
0000
0100
0000
0000
0000
1000
0000
0000
0000
0001
0000
0000
0000
1000
0000
0000
0000
0100
0000
0000
0000
0010
0000
0000
0000
0001
0000
0000
0000
,  // measure 57
0100
0000
0010
0000
1000
0000
0100
0000
1000
0001
1000
0000
0110
0000
0001
0000
,  // measure 58
0200
0300
0000
0000
0001
0000
0000
0000
0010
0000
0000
0000
0100
0000
0000
0000
1000
0000
0000
0000
0001
0000
0000
0000
0100
0000
0000
0000
0010
0000
0000
0000
,  // measure 59
1000
0100
0010
0001
0100
0001
1000
0100
,  // measure 60
2000
3000
0000
0000
0001
0000
0000
0000
0100
0000
0000
0000
0010
0000
0000
0000
1000
0000
0000
0000
0010
0000
0000
0000
0100
0000
0000
0000
0001
0000
0000
0000
,  // measure 61
1000
0000
0100
0000
0010
0000
0001
0000
0100
0010
0100
0000
1001
0000
0010
0000
,  // measure 62
2000
3000
0000
0000
0001
0000
0000
0000
0010
0000
0000
0000
0100
0000
0000
0000
1000
0000
0000
0000
0001
0000
0000
0000
0100
0000
0000
0000
0001
0000
0000
0000
,  // measure 63
1000
0100
1000
0010
0100
0001
0100
0001
,  // measure 64
0010
0100
1000
0001
0100
0010
1000
0100
1000
0001
0100
0010
0100
0001
0010
0100
,  // measure 65
1000
0000
0000
0000
0000
0000
0000
0000
0000
0000
0000
0000
0100
0000
0000
0000
0000
0000
0000
0000
0000
0000
0000
0000
1000
0000
0000
0000
0000
0000
0000
0000
0000
0000
0000
0000
0001
0000
0000
0000
0000
0000
0000
0000
0000
0000
0000
0000
0100
0000
0000
0000
0000
0000
0000
0000
0000
0000
0000
0000
0010
0000
0000
0000
0000
0000
0000
0000
0000
0000
0000
0000
1000
0000
0000
0000
0000
0000
0000
0000
0000
0000
0000
0000
0100
0000
0000
0000
0000
0000
0000
0000
0000
0000
0000
0000
1000
0000
0000
0000
0000
0000
0000
0000
0000
0000
0100
0000
0000
0000
0000
0000
0000
0000
0000
0010
0000
0000
0000
0000
0000
0000
0000
0000
0000
0001
0000
0000
0000
0000
0000
0000
0000
0000
1000
0000
0000
0000
0000
0000
0000
0000
0000
0000
0100
0000
0000
0000
0000
0000
0000
0000
0000
0000
0010
0000
0000
0000
0000
0000
0000
0000
0000
0001
0000
0000
0000
0000
0000
0000
0000
0000
0000
1000
0000
0000
0000
0000
0000
0000
0000
0000
0100
0000
0000
0000
0000
0000
0000
0000
0000
0000
,  // measure 66
0010
0001
0100
0010
1000
0001
0100
0010
1000
0100
1000
0010
0100
0001
0100
0001
,  // measure 67
0010
0100
1000
0001
1000
0010
0100
0001
1000
0010
1000
0010
0100
0001
0100
0001
,  // measure 68
1000
0100
0010
0001
0100
0010
0100
0001
0010
0100
1000
0001
1000
0010
1000
0001
,  // measure 69
0100
0001
1000
0100
0010
0001
0100
0010
0100
0001
1000
0000
1001
0000
0001
0000
,  // measure 70
1000
0010
0100
0001
1000
0100
1000
0001
0100
0001
0010
0001
0010
0100
1000
0010
,  // measure 71
1000
0100
1000
0001
0100
0010
1000
0100
1000
0001
0100
0001
0010
0001
0100
0001
,  // measure 72
1000
0100
1000
0010
0100
0001
1000
0100
1000
0010
0100
0010
1000
0001
1000
0100
,  // measure 73
0010
0001
0010
0100
1000
0001
0100
0010
1000
0001
0100
0000
0110
0000
0010
0000
,  // measure 74
1000
0100
1000
0001
0100
0010
0100
0001
0010
0001
1000
0100
1000
0001
0100
0001
,  // measure 75
1000
0100
0010
0001
0100
0010
1000
0001
0010
0100
1000
0100
0010
0001
0100
0001
,  // measure 76
1000
0010
0100
0001
0100
0010
1000
0100
1000
0010
0100
0010
1000
0100
0010
0100
,  // measure 77
1000
0001
0100
0010
1000
0100
0010
0001
0100
0010
1000
0000
1001
0000
1000
0000
,  // measure 78
0100
0010
0001
0100
0001
0010
0100
1000
0001
0100
0001
1000
0100
1000
0001
0100
,  // measure 79
0010
1000
0100
1000
0001
0010
0100
1000
0001
0100
0001
0010
0001
1000
0100
1000
,  // measure 80
0010
0100
0001
0100
0010
1000
0100
0010
0001
0100
0010
1000
0100
0010
0001
0100
,  // measure 81
0001
0000
0000
0000
0000
0000
0000
0000
0000
0000
0010
0000
0000
0000
0000
0000
0000
0000
0000
0100
0000
0000
0000
0000
0000
0000
0000
0000
0000
1000
0000
0000
0000
0000
0000
0000
0000
0000
0001
0000
0000
0000
0000
0000
0000
0000
0000
0000
0010
0000
0000
0000
0000
0000
0000
0000
0000
0000
0100
0000
0000
0000
0000
0000
0000
0000
0000
1000
0000
0000
0000
0000
0000
0000
0000
0000
0000
0001
0000
0000
0000
0000
0000
0000
0000
0000
0010
0000
0000
0000
0000
0000
0000
0000
0000
0000
0100
0000
0000
0000
0000
0000
0000
0000
0000
0000
1000
0000
0000
0000
0000
0000
0000
0000
0000
0001
0000
0000
0000
0000
0000
0000
0000
0000
0000
0010
0000
0000
0000
0000
0000
0000
0000
0000
0100
0000
0000
0000
0000
0000
0000
0000
0000
0000
1000
0000
0000
0000
0000
0000
0000
0000
0000
0000
0001
0000
0000
0000
0000
0000
0000
0000
0000
0010
0000
0000
0000
0000
0000
0000
0000
0000
0000
0100
0000
0000
0000
0000
0000
0000
0000
0000
1000
0000
0000
0000
0000
0000
0000
0000
0000
0000
,  // measure 82
0020
0000
0000
2030
,  // measure 83
0000
3200
0320
0032
,  // measure 84
0000
0203
0320
2030
,  // measure 85
0000
3002
0023
0230
,  // measure 86
2300
0000
3020
0230
,  // measure 87
0000
0320
0000
2030
,  // measure 88
0000
0000
3000
0001
,  // measure 89
0200
0000
0000
0000
0320
0000
0000
0000
2030
0000
0000
0000
3200
0000
0000
0300
,  // measure 90
0120
0000
0032
0203
,  // measure 91
0000
0320
2030
3020
,  // measure 92
0000
0230
0302
0023
,  // measure 93
0000
0230
2300
3200
,  // measure 94
0320
0000
0032
2003
,  // measure 95
0000
3020
0000
0230
,  // measure 96
0000
0320
0000
2030
,  // measure 97
0000
0000
0000
0000
3200
0000
0000
0000
0000
0000
0000
0000
0320
0000
0000
0030
,  // measure 98
2001
0000
0000
3002
,  // measure 99
0000
0203
0000
0320
,  // measure 100
0000
0000
0000
1030
,  // measure 101
0100
0010
0001
2002
,  // measure 102
0000
0000
0000
0000
,  // measure 103
0000
0000
0000
0000
0000
0000
0000
3003
,  // measure 104
2000
3000
0000
0000
0000
0000
0000
0000
0002
0003
0000
0000
0000
0000
0000
0000
2000
0000
3000
0000
0000
0000
0000
0000
0002
0000
0003
0000
0000
0000
0000
0000
,  // measure 105
0200
0000
0300
0000
0002
0000
0003
0000
0200
0000
0300
0000
0010
0100
0010
0100
,  // measure 106
0010
1000
0100
1000
0001
0100
0001
0010
,  // measure 107
0100
1000
0001
0100
0010
1000
0010
0100
,  // measure 108
0001
1000
0100
0010
0001
0100
0001
0010
,  // measure 109
0100
1000
0001
0100
0010
1000
0010
0100
,  // measure 110
0001
1000
0001
0010
0001
1000
0100
1000
,  // measure 111
0010
0100
0001
0100
0001
0010
0100
1000
,  // measure 112
0001
0100
0001
0010
0100
1000
0100
0010
,  // measure 113
0001
1000
0001
0100
0010
1000
0010
0100
,  // measure 114
0002
0003
1000
0000
0200
0300
0010
0000
0002
0003
0100
0000
2000
3000
0100
0000
,  // measure 115
0002
0003
0010
0000
0200
0300
1000
0000
0002
0003
1000
0000
0020
0030
0001
0000
,  // measure 116
0020
0030
1000
0000
0200
0300
1000
0000
0020
0030
0100
0000
0020
0030
1000
0000
,  // measure 117
0200
0300
0010
0000
0200
0300
1000
0000
0002
0003
0100
0000
0002
0003
1000
0000
,  // measure 118
0100
0010
0100
1000
0010
0100
0001
1000
,  // measure 119
0001
0010
0100
1000
0001
0100
0010
0100
,  // measure 120
0010
1000
0100
1000
0001
0100
0001
0010
,  // measure 121
0100
1000
0001
0100
0010
1000
0010
0100
0001
0010
0100
1000
0010
0100
0001
0010
,  // measure 122
0200
0300
0000
0000
0000
0000
0000
0000
0200
0000
0300
0000
0000
0000
0000
0000
0200
0000
0000
0300
0000
0000
0000
0000
0200
0000
0000
0000
0300
0000
0000
0000
,  // measure 123
2000
3000
1100
0000
0110
0000
0011
0000
,  // measure 124
0001
0100
0010
1000
0100
1000
0001
0010
0100
1000
0100
1000
0010
0100
0010
1000
,  // measure 125
0001
1000
0100
0010
0001
0100
0010
0100
0001
1000
0001
1000
0100
0010
0001
0100
,  // measure 126
0010
1000
0010
0100
0001
0010
0100
0010
0001
0100
0010
1000
0100
0010
0001
0100
,  // measure 127
0010
1000
0001
0010
0100
1000
0001
0100
0010
0100
0010
1000
0001
0010
0100
1000
,  // measure 128
0010
1000
0100
0010
0001
0100
0010
0100
0001
0010
0001
1000
0010
1000
0100
0010
,  // measure 129
0001
0010
0001
0100
0010
0100
0001
1000
0010
1000
0100
1000
0010
0100
0001
0010
,  // measure 130
0001
0100
0010
1000
0100
0010
0001
1000
0010
1000
0100
0010
0001
1000
0010
0100
,  // measure 131
0001
0010
0001
1000
0010
0100
0001
1000
0100
0010
0100
1000
0001
0100
0001
0010
,  // measure 132
0100
1000
0010
0100
0010
1000
0100
1000
0001
0100
0001
0010
0001
0100
0010
1000
,  // measure 133
0010
0100
0001
1000
0100
0010
0001
0100
0001
0010
0100
1000
0001
1000
0001
0100
,  // measure 134
0010
1000
0010
0100
0001
1000
0100
1000
0001
0010
0100
0010
0001
0100
0010
1000
,  // measure 135
0100
0010
0001
0100
0010
1000
0001
0010
0100
0010
0001
0100
0010
1000
0001
0010
,  // measure 136
0001
1000
0010
1000
0100
1000
0010
0100
0001
1000
0010
1000
0100
0010
0001
0010
,  // measure 137
0100
1000
0010
0100
0001
0100
0010
1000
0001
0010
0001
0100
0010
1000
0001
1000
,  // measure 138
0100
1000
0010
0100
0001
1000
0001
0010
0100
1000
0010
0100
0010
1000
0100
0010
,  // measure 139
0001
1000
0001
1000
0001
1000
0001
1000
0001
1000
0001
1000
0001
1000
0001
1000
,  // measure 140
0010
0100
0010
1000
0001
0100
0010
1000
0100
1000
0010
0100
0001
0010
0001
0100
,  // measure 141
0010
1000
0001
0010
0100
1000
0010
1000
0100
0010
0001
0100
0010
1000
0001
0010
,  // measure 142
0001
1000
0010
0100
0010
1000
0100
0010
0001
1000
0010
0100
0001
0100
0001
1000
,  // measure 143
0010
0100
0001
1000
0001
0010
0100
1000
0010
0100
0010
1000
0001
0010
0100
0010
,  // measure 144
0001
1000
0010
0100
0001
1000
0100
1000
0010
0100
0010
1000
0100
0010
0001
0100
,  // measure 145
0001
1000
0010
0100
0001
1000
0001
0100
0010
1000
0100
1000
0001
0100
0001
0010
,  // measure 146
0001
0100
0010
1000
0100
1000
0010
0100
0001
1000
0010
0100
0001
0010
0001
0100
,  // measure 147
0010
1000
0100
0010
0001
0100
0010
1000
0001
0010
0100
1000
0010
1000
0001
0010
,  // measure 148
0001
0100
0010
1000
0001
1000
0001
0100
0010
1000
0010
1000
0100
0010
0001
1000
,  // measure 149
0001
0100
0010
0100
0001
1000
0010
1000
0100
0010
0001
1000
0001
0100
0010
1000
,  // measure 150
0001
0010
0001
0100
0010
1000
0010
1000
0100
1000
0010
0100
0001
0010
0100
1000
,  // measure 151
0010
1000
0100
0010
0100
1000
0010
0100
0001
1000
0100
0010
0001
0100
0001
1000
,  // measure 152
0100
1000
0010
0100
0001
1000
0100
1000
0010
0100
0010
1000
0100
0010
0001
0100
,  // measure 153
0001
1000
0100
1000
0001
0100
0010
1000
0010
0100
0001
1000
0100
1000
0001
0010
,  // measure 154
0100
0010
0001
0100
0010
1000
0010
0100
0001
1000
0100
0010
0001
0100
0010
1000
,  // measure 155
0100
0010
0100
0010
0001
0010
0001
0100
0001
1000
0100
0010
0100
1000
0100
1000
,  // measure 156
0010
0100
0001
1000
0100
1000
0010
0100
0001
0010
0001
0100
0010
1000
0100
0010
,  // measure 157
0100
1000
0010
0100
0001
0010
0100
0010
0001
0100
0010
1000
0010
0100
0001
0010
,  // measure 158
0100
0010
0001
1000
0001
1000
0100
1000
0001
0100
0010
1000
0100
0010
0001
0100
,  // measure 159
0010
1000
0001
0100
0010
1000
0100
0010
0001
0100
0010
0100
0001
0000
1000
0000
,  // measure 160
0001
0100
0001
1000
0100
1000
0001
0100
,  // measure 161
0001
0010
0100
1000
0001
0100
0010
1000
,  // measure 162
0001
1000
0001
1000
0001
1000
0001
1000
0001
1000
0001
1000
0001
1000
0001
1000
,  // measure 163
0011
0000
0000
0000
0000
0000
0000
0000
0000
0000
0000
0000
0000
0000
0000
0000
0000
0000
0000
0000
0000
0000
0000
0000
0101
0000
0000
0000
0000
0000
0000
0000
0000
0000
0000
0000
0000
0000
0000
0000
0000
0000
0000
0000
0000
0000
0000
0000
1010
0000
0000
0000
0000
0000
0000
0000
0000
0000
0000
0000
0000
0000
0000
0000
0000
0000
0000
0000
0000
0000
0000
0000
1100
0000
0000
0000
0000
0000
0000
0000
0000
0000
0000
0000
0000
0000
0000
0000
0000
0000
0000
0000
0000
0000
0000
0000
0001
0000
0000
0000
0000
0000
0000
0000
0000
0000
0000
0000
0010
0000
0000
0000
0000
0000
0000
0000
0000
0000
0000
0000
0100
0000
0000
0000
0000
0000
0000
0000
0000
0000
0000
0000
1000
0000
0000
0000
0000
0000
0000
0000
0000
0000
0000
0000
0001
0000
0000
0000
0000
0000
0000
0000
0000
0000
0010
0000
0000
0000
0000
0000
0000
0000
0000
0100
0000
0000
0000
0000
0000
0000
0000
0000
0000
1000
0000
0000
0000
0000
0000
0000
0000
0000
0001
0000
0000
0000
0000
0000
0000
0000
0000
0000
,  // measure 164
1000
0000
0001
1000
0001
1000
0001
0000
0110
0000
1000
0001
1000
0001
1000
0000
,  // measure 165
0110
0000
0001
1000
0001
1000
0001
0000
0110
0000
1010
0000
1100
0000
0011
0000
,  // measure 166
1001
0000
0100
0010
0100
0010
0100
0000
1001
0000
0010
0100
0010
0100
0010
0000
,  // measure 167
1001
0000
0100
0010
0100
0010
0100
0000
0001
1000
0100
0000
1001
0000
0000
0000
,  // measure 168
1010
0000
0100
0001
0100
0001
0100
0000
1010
0000
0001
0100
0001
0100
0001
0000
,  // measure 169
1010
0000
0100
0001
0100
0001
0100
0000
1010
0000
1001
0000
0011
0000
0110
0000
,  // measure 170
1100
0000
0010
1000
0010
1000
0010
0000
0101
0000
1000
0010
1000
0010
1000
0000
,  // measure 171
0101
0000
0010
1000
0010
1000
0010
0000
0100
0010
1000
0000
1001
0000
0000
0000
,  // measure 172
0110
0000
0010
1000
0010
1000
0010
0000
0101
0000
0010
0001
0010
0001
0010
0000
,  // measure 173
1001
0000
0010
1000
0010
1000
0010
0000
1100
0000
1001
0000
0011
0000
0101
0000
,  // measure 174
1010
0000
1000
0010
1000
0010
1000
0000
0011
0000
0001
0100
0001
0100
0001
0000
,  // measure 175
1010
0000
1000
0100
1000
0100
1000
0000
0010
0100
0001
0000
1001
0000
0000
0000
,  // measure 176
0101
0000
1000
0010
1000
0010
1000
0000
1001
0000
0001
0010
0001
0010
0001
0000
,  // measure 177
0101
0000
0010
1000
0010
1000
0010
0000
1100
0000
0110
0000
0011
0000
0101
0000
,  // measure 178
1010
0000
0001
0100
0001
0100
0010
0000
1010
0000
0100
1000
0100
1000
0100
0000
,  // measure 179
0010
0001
0100
0010
1000
0100
0010
0001
1000
0010
1000
0000
1001
0000
0000
0000
,  // measure 180
0001
0100
0001
0010
0001
0100
0010
1000
0100
1000
0010
0100
0001
0010
0001
0010
,  // measure 181
0100
1000
0010
0100
0010
1000
0001
0100
0010
1000
0010
1000
0001
0010
0001
0100
,  // measure 182
0001
1000
0010
1000
0100
1000
0010
1000
0001
0100
0001
0010
0001
0100
0010
1000
,  // measure 183
0100
1000
0010
0100
0001
0010
0100
1000
0010
0100
0001
0000
1001
0000
0001
0000
,  // measure 184
0010
0100
1000
0100
1000
0010
0100
0001
0010
0001
0100
0010
0100
0010
1000
0100
,  // measure 185
1000
0010
1000
0001
0010
0001
1000
0001
0100
0010
0100
0010
1000
0100
1000
0010
,  // measure 186
1000
0001
0010
0001
1000
0010
1000
0001
0100
0001
0100
0010
1000
0010
1000
0100
,  // measure 187
1000
0100
0010
0001
1000
0010
0100
0001
0010
0001
1000
0000
1001
0000
0000
0000
,  // measure 188
0100
0001
0010
0001
0100
0001
1000
0010
1000
0100
1000
0010
1000
0001
0010
0001
,  // measure 189
0100
0010
0100
0001
0010
0001
0100
0010
1000
0010
1000
0100
1000
0010
1000
0001
,  // measure 190
0100
0001
0010
0001
0100
0010
0100
0001
0010
0100
1000
0100
1000
0010
1000
0001
,  // measure 191
0100
0001
0100
0010
1000
0010
1000
0100
0010
0001
1000
0000
1010
0000
0001
0000
,  // measure 192
0100
0001
0010
0001
1000
0010
1000
0100
1000
0001
0010
0001
1000
0010
1000
0001
,  // measure 193
0100
0001
0100
0010
1000
0010
1000
0100
0010
0100
0010
0001
1000
0001
0100
0010
,  // measure 194
1000
0000
0000
0000
0000
0000
0000
0000
0000
0000
0100
0000
0000
0000
0000
0000
0000
0000
0000
0010
0000
0000
0000
0000
0000
0000
0000
0000
0000
0001
0000
0000
0000
0000
0000
0000
0000
0000
1000
0000
0000
0000
0000
0000
0000
0000
0000
0000
0100
0000
0000
0000
0000
0000
0000
0000
0000
0000
0010
0000
0000
0000
0000
0000
0000
0000
0000
0001
0000
0000
0000
0000
0000
0000
0000
0000
0000
1000
0000
0000
0000
0000
0000
0000
0000
0000
0100
0000
0000
0000
0000
0000
0000
0000
0000
0000
0010
0000
0000
0000
0000
0000
0000
0000
0000
0000
0001
0000
0000
0000
0000
0000
0000
0000
0000
1000
0000
0000
0000
0000
0000
0000
0000
0000
0000
0100
0000
0000
0000
0000
0000
0000
0000
0000
0010
0000
0000
0000
0000
0000
0000
0000
0000
0000
0001
0000
0000
0000
0000
0000
0000
0000
0000
0000
1000
0000
0000
0000
0000
0000
0000
0000
0000
0100
0000
0000
0000
0000
0000
0000
0000
0000
0000
0010
0000
0000
0000
0000
0000
0000
0000
0000
0001
0000
0000
0000
0000
0000
0000
0000
0000
0000
,  // measure 195
0020
0230
2300
3002
,  // measure 196
1003
0010
0100
0001
0010
0001
1000
0100
0010
0001
0010
0001
0100
0010
0100
0001
,  // measure 197
1000
0001
0010
0100
1000
0010
0100
0010
1000
0001
1000
0001
0010
0100
1000
0010
,  // measure 198
0100
0001
0100
0010
1000
0100
0010
0100
1000
0010
0100
0001
0010
0100
1000
0010
,  // measure 199
0100
0001
1000
0100
0010
0001
1000
0010
0100
0010
0100
0001
1000
0100
0010
0001
,  // measure 200
0100
0001
0010
0100
1000
0010
0100
0010
1000
0100
1000
0001
0100
0001
0010
0100
,  // measure 201
1000
0100
1000
0010
0100
0010
1000
0001
0100
0001
0010
0001
0100
0010
1000
0100
,  // measure 202
1000
0010
0100
0001
0010
0100
1000
0001
0100
0001
0010
0100
1000
0001
0100
0010
,  // measure 203
1000
0100
1000
0001
0100
0010
1000
0001
0010
0100
0010
0001
1000
0010
1000
0100
,  // measure 204
0010
0001
0100
0010
0100
0001
0010
0001
1000
0010
1000
0100
1000
0010
0100
0001
,  // measure 205
0100
0010
1000
0001
0010
0100
1000
0010
1000
0100
0010
0001
1000
0001
1000
0010
,  // measure 206
0100
0001
0100
0010
1000
0001
0010
0001
1000
0100
0010
0100
1000
0010
0100
0001
,  // measure 207
0010
0100
1000
0010
0100
0001
1000
0100
0010
0100
1000
0010
0100
0001
1000
0100
,  // measure 208
1000
0001
0100
0001
0010
0001
0100
0010
1000
0001
0100
0001
0010
0100
1000
0100
,  // measure 209
0010
0001
0100
0010
1000
0010
0100
0001
1000
0100
1000
0010
0100
0001
1000
0001
,  // measure 210
0010
0001
0100
0010
1000
0001
1000
0100
0010
0001
0100
0010
0100
0001
0010
0100
,  // measure 211
1000
0001
1000
0001
1000
0001
1000
0001
1000
0001
1000
0001
1000
0001
1000
0001
,  // measure 212
0100
0010
0100
0001
1000
0010
0100
0001
0010
0001
0100
0010
1000
0100
1000
0010
,  // measure 213
0100
0001
1000
0100
0010
0001
0100
0001
0010
0100
1000
0010
0100
0001
1000
0100
,  // measure 214
1000
0001
0100
0010
0100
0001
0010
0100
1000
0001
0100
0010
1000
0010
1000
0001
,  // measure 215
0100
0010
1000
0001
1000
0100
0010
0001
0100
0010
0100
0001
1000
0100
0010
0100
,  // measure 216
1000
0001
0100
0010
1000
0001
0010
0001
0100
0010
0100
0001
0010
0100
1000
0010
,  // measure 217
1000
0001
0100
0010
1000
0001
1000
0010
0100
0001
0010
0001
1000
0010
1000
0100
,  // measure 218
1000
0010
0100
0001
0010
0001
0100
0010
1000
0001
0100
0010
1000
0100
1000
0010
,  // measure 219
0100
0001
0010
0100
1000
0010
0100
0001
1000
0100
0010
0001
0100
0001
1000
0100
,  // measure 220
1000
0010
0100
0001
1000
0001
1000
0010
0100
0001
0100
0001
0010
0100
1000
0001
,  // measure 221
1000
0010
0100
0010
1000
0001
0100
0001
0010
0100
1000
0001
1000
0010
0100
0001
,  // measure 222
1000
0100
1000
0010
0100
0001
0100
0001
0010
0001
0100
0010
1000
0100
0010
0001
,  // measure 223
0100
0001
0010
0100
0010
0001
0100
0010
1000
0001
0010
0100
1000
0010
1000
0001
,  // measure 224
0010
0001
0100
0010
1000
0001
0010
0001
0100
0010
0100
0001
0010
0100
1000
0010
,  // measure 225
1000
0001
0010
0001
1000
0010
0100
0001
0100
0010
1000
0001
0010
0001
1000
0100
,  // measure 226
0010
0100
1000
0010
0100
0001
0100
0010
1000
0001
0010
0100
1000
0010
0100
0001
,  // measure 227
0010
0100
0010
0100
1000
0100
1000
0010
1000
0001
0010
0100
0010
0001
1000
0001
,  // measure 228
1010
1100
1001
0101
0011
0110
1100
1010
,  // measure 229
0101
0011
1001
1100
0101
0011
1001
1100
,  // measure 230
1000
0010
0100
0001
1000
0001
0010
0001
1000
0010
0100
0001
0010
0100
1000
0010
,  // measure 231
1000
0000
0000
0000
0000
0000
0000
0000
0000
0000
0100
0000
0000
0000
0000
0000
0000
0000
0000
0010
0000
0000
0000
0000
0000
0000
0000
0000
0000
0001
0000
0000
0000
0000
0000
0000
0000
0000
1000
0000
0000
0000
0000
0000
0000
0000
0000
0000
0100
0000
0000
0000
0000
0000
0000
0000
0000
0000
0010
0000
0000
0000
0000
0000
0000
0000
0000
0001
0000
0000
0000
0000
0000
0000
0000
0000
0000
1000
0000
0000
0000
0000
0000
0000
0000
0000
0100
0000
0000
0000
0000
0000
0000
0000
0000
0000
0010
0000
0000
0000
0000
0000
0000
0000
0000
0000
0001
0000
0000
0000
0000
0000
0000
0000
0000
1000
0000
0000
0000
0000
0000
0000
0000
0000
0000
0100
0000
0000
0000
0000
0000
0000
0000
0000
0010
0000
0000
0000
0000
0000
0000
0000
0000
0000
0002
0000
0000
0000
0000
0000
0000
0000
0000
0000
0000
0000
0000
0000
0000
0000
0000
0000
0000
0000
0000
0000
0000
0000
0023
0000
0000
0000
0000
0000
0000
0000
0000
0000
0000
0000
0000
0000
0000
0000
0000
0000
0000
0000
0000
0000
0000
0000
,  // measure 232
0000
0000
0000
0000
,  // measure 233
0000
0000
0000
0000
0000
0000
0000
0000
0000
0000
0000
0000
0000
0000
0000
0000
0000
0000
0000
0000
0000
0000
0000
0000
0000
0000
0000
0000
0030
0000
0000
0100
,  // measure 234
2000
0000
0000
0000
,  // measure 235
0000
0000
0000
3000
0000
0000
0000
0000
;
