#TITLE:Cut the Cord;
#SUBTITLE:;
#ARTIST:The Living Tombstone;
#TITLETRANSLIT:;
#SUBTITLETRANSLIT:;
#ARTISTTRANSLIT:;
#GENRE:;
#CREDIT:;
#BANNER:Cut the Cord-bn.png;
#BACKGROUND:Cut the Cord-bg.png;
#LYRICSPATH:;
#CDTITLE:cdtitle.png;
#MUSIC:Cut the Cord.mp3;
#OFFSET:2.299006;
#SAMPLESTART:55.045010;
#SAMPLELENGTH:15.000000;
#LASTBEATHINT:379.110382;
#SELECTABLE:YES;
#DISPLAYBPM:75.000000:103.000000;
#BPMS:0.000000=103.000000
,340.000000=100.000000
,344.000000=98.000000
,346.000000=95.000000
,349.000000=93.000000
,353.000000=90.000000
,355.000000=88.000000
,358.000000=86.000000
,361.000000=83.000000
,364.000000=82.000000
,366.000000=79.000000
,368.000000=78.000000
,370.000000=75.000000
;
#STOPS:
;
#BGCHANGES:4.000=Cut the Cord.avi=1.000=1=0=1===CrossFade==,
99999=-nosongbg-=1.000=0=0=0 // don't automatically add -songbackground-
;
#KEYSOUNDS:;
#ATTACKS:;

//---------------dance-single - ----------------
#NOTES:
     dance-single:
     :
     Beginner:
     2:
     0.100923,0.142175,0.000000,0.075061,0.000000,160.000000,160.000000,0.000000,17.000000,0.000000,0.000000,0.100923,0.142175,0.000000,0.075061,0.000000,160.000000,160.000000,0.000000,17.000000,0.000000,0.000000:
0000
0000
0000
0000
,
0000
0000
0000
0000
,
0000
0000
0000
0000
,
0000
0000
0000
0000
,
0000
0000
0000
0000
,
1000
0000
0001
0000
,
1000
0000
0001
0000
,
0100
0000
0001
0000
,
0100
0000
0010
0000
,
1000
0000
1000
0000
,
0001
0000
0010
0000
,
0010
0000
0001
0000
,
1000
0000
0001
0000
,
0100
0000
0010
0000
,
1000
0000
0001
0000
,
1000
0000
0100
0000
,
1000
0000
0100
0000
,
1000
0000
1000
0000
,
0001
0000
0001
0000
,
0010
0000
0001
0000
,
0010
0000
0001
0000
,
1000
0000
1000
0000
,
0001
0000
0001
0000
,
1000
0000
0100
0000
,
1000
0000
0100
0000
,
1000
0000
0010
0000
,
0100
0000
0001
0000
,
0001
0000
0100
0000
,
0010
0000
1000
0000
,
1000
0000
0100
0000
,
0010
0000
0001
0000
,
0001
0000
0010
0000
,
0100
0000
1000
0000
,
0001
0000
1000
0000
,
0001
0000
1000
0000
,
0010
0000
0100
0000
,
0010
0000
0100
0000
,
0002
0003
0001
0000
,
2000
3000
1000
0000
,
0020
0030
0010
0000
,
0200
0300
0100
0000
,
0001
0000
0001
0000
,
0100
0000
0100
0000
,
0001
0000
1000
0000
,
0100
0000
1000
0000
,
1000
1000
1000
0000
,
0010
0010
0010
0000
,
1000
1000
1000
0000
,
0001
0001
0001
0000
,
0100
0000
0010
0000
,
1000
0000
0001
0000
,
1000
0000
0001
0000
,
0100
0000
0010
0000
,
1000
0000
1000
0000
,
0001
0000
0001
0000
,
0010
0000
0001
0000
,
0010
0000
0001
0000
,
1000
0000
1000
0000
,
0001
0000
0001
0000
,
1000
0000
0100
0000
,
1000
0000
0100
0000
,
0020
0000
0030
0000
,
0020
0000
0030
0000
,
0002
0000
0003
0000
,
2000
0000
3000
0000
,
0001
0000
0000
0000
,
1000
0000
0000
0000
,
0001
0000
0000
0000
,
0200
0000
0300
0000
,
1000
0000
1000
0000
,
0001
0000
0001
0000
,
0010
0000
0001
0000
,
0010
0000
0001
0000
,
1000
0000
1000
0000
,
0001
0000
0001
0000
,
1000
0000
0100
0000
,
1000
0000
0100
0000
,
1000
0000
0001
0000
,
1000
0000
0001
0000
,
0100
0000
0010
0000
,
0100
0000
0010
0000
,
2000
3000
1000
0000
,
0020
0030
0010
0000
,
0200
0300
0100
0000
,
0002
0003
0001
0000
,
2000
0000
0000
0000
,
3000
0000
0000
0000
,
0002
0000
0000
0000
,
0003
0000
0000
0000
,
0200
0000
0000
0000
,
0300
0000
0000
0000
,
0020
0000
0000
0000
,
0030
0000
0000
0000
;

//---------------dance-single - ----------------
#NOTES:
     dance-single:
     :
     Easy:
     4:
     0.188600,0.225999,0.075061,0.150123,0.000000,299.000000,282.000000,17.000000,34.000000,0.000000,0.000000,0.188600,0.225999,0.075061,0.150123,0.000000,299.000000,282.000000,17.000000,34.000000,0.000000,0.000000:
0000
0000
0000
0000
,
0000
0000
0000
0000
,
0000
0000
0000
0000
,
0000
0000
0000
0000
,
0000
0000
0000
0000
,
1000
1000
0001
0000
,
0001
0001
1000
0000
,
0100
0100
0010
0000
,
0010
0010
0100
0000
,
1001
0001
1000
1000
,
0010
0100
0010
0000
,
0010
1000
0001
1000
,
1000
0001
0010
0011
,
0001
0001
1000
0100
,
1000
0010
0010
1000
,
0100
0010
0001
1000
,
0010
0100
1001
0000
,
0002
0013
0100
0100
,
1000
0020
0130
1001
,
0001
1000
0001
1000
,
0100
0010
0001
1000
,
0020
1030
0100
0010
,
0002
1003
0110
0000
,
0001
1000
0100
0010
,
0100
1000
0001
0000
,
1000
0010
1000
0100
,
1000
0010
1000
0100
,
0010
0001
1000
0001
,
0100
0010
1000
0001
,
1000
0010
1000
0100
,
1000
0010
1000
0100
,
0010
0001
1000
0001
,
1000
0100
0100
0000
,
1001
1000
0100
1000
,
0001
0100
0001
1000
,
0010
0100
0001
0100
,
0010
1000
0100
0010
,
0002
0000
1000
1000
,
0203
0000
0010
0010
,
0302
0000
0010
0010
,
2003
0000
0100
3100
,
1100
0000
0101
0000
,
1000
0001
1001
0000
,
0001
0100
0001
1000
,
1000
0001
0010
0000
,
1001
1100
1000
1000
,
0010
0100
0001
1000
,
0010
0010
1000
1000
,
0001
0100
1001
0000
,
1100
0101
0001
0001
,
0010
0100
1000
1000
,
0001
1000
0001
0010
,
0100
0010
0001
1000
,
0002
0013
0100
0100
,
1000
0020
0130
1001
,
0001
1000
0001
1000
,
0100
0010
0001
1000
,
0020
1030
0100
0010
,
0002
1003
0110
0000
,
0001
1000
0100
0010
,
0100
1000
0001
0000
,
0200
0000
0000
0000
,
0320
0000
0000
0000
,
0230
0000
0000
0000
,
0302
0000
0000
0000
,
2003
0000
3020
0000
,
2030
0000
3002
0000
,
0013
0001
0001
0000
,
0200
0000
0300
0000
,
1000
0010
1000
0100
,
1000
0010
1000
0100
,
0010
0001
1000
0001
,
0100
0010
1000
0001
,
1000
0010
1000
0100
,
1000
0010
1000
0100
,
0010
0001
1000
0001
,
0200
0000
0310
0000
,
1001
1000
0100
1000
,
0001
0100
0001
1000
,
0010
0100
0001
0100
,
0010
1000
0100
0010
,
0002
0000
1000
1000
,
0203
0000
0010
0010
,
0302
0000
0010
0010
,
2003
0000
0100
3100
,
2000
0000
0000
0000
,
3002
0000
0000
0000
,
2003
0000
0000
0000
,
3002
0000
0000
0000
,
0203
0000
0000
0000
,
0320
0000
0000
0000
,
2030
0000
0000
0000
,
0002
0000
0000
0000
,
0000
3003
0000
0000
0000
0000
0000
0000
0000
0000
0000
0000
0000
0000
0000
0000
;

//---------------dance-single - ----------------
#NOTES:
     dance-single:
     :
     Medium:
     7:
     0.275015,0.308180,0.181031,0.317907,0.000000,436.000000,395.000000,41.000000,72.000000,0.000000,0.000000,0.275015,0.308180,0.181031,0.317907,0.000000,436.000000,395.000000,41.000000,72.000000,0.000000,0.000000:
0000
0000
0000
0000
,
0000
0000
0000
0000
,
0000
0000
0000
0000
,
0000
0000
0000
0000
,
0000
0000
0000
0000
,
1000
0000
0010
0000
1000
0000
0001
0100
,
0001
0000
1000
0000
0010
0000
0100
0001
,
0010
0000
0100
0000
0010
0000
0001
1000
,
0001
0100
1001
0001
,
0010
0000
0100
0000
1000
0010
1000
0000
,
0001
0100
0010
0000
1000
1000
0000
0000
,
0001
0100
0001
0000
0010
0000
0010
0000
,
0100
1000
0001
0100
0010
0000
1001
0000
,
0100
0000
1000
0000
0001
0100
0010
0000
,
0010
1000
0010
0000
0011
0000
1001
0000
,
0001
1000
0001
0100
0010
0000
1000
0000
,
0001
1000
0100
0000
1000
0001
0100
0000
,
0012
1003
2010
3001
,
1000
0010
0100
0001
0100
0000
0010
0000
,
2000
3001
0020
1030
,
0020
0031
1001
0110
,
0102
0013
2100
3001
,
1000
0001
0100
0010
1000
0000
0001
0000
,
0100
0001
0020
0000
0031
0100
0020
0000
,
1030
0001
1000
0001
0100
0000
0000
0000
,
0002
0000
1003
0010
0200
0000
0310
1000
,
0020
0000
1030
0001
2000
0000
3100
0000
,
1100
0001
0010
0100
,
1000
0001
1000
0010
0100
0001
0010
0000
,
0002
0000
0103
0010
2000
0000
3001
0100
,
0020
0000
1030
0001
0200
0000
0310
0000
,
0110
1001
1000
1001
,
0100
0010
1000
0001
0100
0000
0000
0000
,
1002
0000
0010
0000
1003
0000
0010
1000
,
2100
0000
0001
0000
3010
0000
0100
0001
,
0102
0000
0010
0000
1003
0000
0100
0010
,
2010
0000
0100
0000
3010
0100
0010
0000
,
1000
0100
0001
0100
1000
0000
1000
0000
,
0001
0010
1000
0010
0001
0000
0001
0000
,
0100
0010
0100
0000
0001
1000
0100
0000
,
0010
0100
0010
0000
0010
0001
1000
0000
,
1002
0000
2003
0000
,
3010
0010
0120
1030
,
0001
1000
0001
0100
0010
0000
1000
0000
,
1000
0001
0100
0000
0101
0000
0101
0000
,
0012
0000
1003
0000
0010
1000
0100
0000
,
2010
0000
3001
0000
0100
0010
1000
0000
,
0001
0100
0001
0000
1000
0100
1000
0000
,
0002
0103
2000
3100
,
0011
0000
1001
0000
1000
0010
1000
0000
,
0001
0100
0001
0010
0100
1000
0001
0000
,
1000
1000
0010
0010
,
1000
0010
0100
0001
0010
0100
1000
0000
,
0012
1003
2010
3001
,
1000
0010
0100
0001
0100
0000
0010
0000
,
2000
3001
0020
1030
,
0020
0031
1001
0110
,
0102
0013
2100
3001
,
1000
0001
0100
0010
1000
0000
0001
0000
,
0100
0001
0020
0000
0031
0100
0020
0000
,
1030
0001
1000
0001
0100
0000
0000
0000
,
1002
0000
0203
0000
,
0320
0000
2030
0000
,
3002
0000
2003
0000
,
3002
0000
0203
0000
,
0320
0000
2030
0000
,
3200
0000
0302
0000
,
0023
0000
2030
0000
,
0002
0000
3003
0000
,
0002
0000
1003
0010
0200
0000
0310
1000
,
0020
0000
1030
0001
2000
0000
3100
0000
,
1100
0001
0010
0100
,
1000
0001
1000
0010
0100
0001
0010
0000
,
0002
0000
0103
0010
2000
0000
3001
0100
,
0020
0000
1030
0001
0200
0000
0310
0000
,
0110
1001
1000
1001
,
0100
0010
1000
0001
0100
0000
0000
0000
,
1002
0000
0010
0000
1003
0000
0010
1000
,
2100
0000
0001
0000
3010
0000
0100
0001
,
0102
0000
0010
0000
1003
0000
0100
0010
,
2010
0000
0100
0000
3010
0100
0010
0000
,
1000
0100
0001
0100
1000
0000
1000
0000
,
0001
0010
1000
0010
0001
0000
0001
0000
,
0100
0010
0100
0000
0001
1000
0100
0000
,
0010
0100
0010
0000
0010
0001
1000
0000
,
2000
0000
0000
0000
,
3002
0000
0000
0000
,
2003
0000
0000
0000
,
3002
0000
0000
0000
,
0203
0000
0000
0000
,
0320
0000
0000
0000
,
2030
0000
0000
0000
,
0002
0000
0000
0000
,
0000
3003
0000
0000
0000
0000
0000
0000
0000
0000
0000
0000
0000
0000
0000
0000
;

//---------------dance-single - ----------------
#NOTES:
     dance-single:
     :
     Hard:
     9:
     0.361430,0.513633,0.154538,0.326738,0.072854,573.000000,538.000000,35.000000,74.000000,0.000000,0.000000,0.361430,0.513633,0.154538,0.326738,0.072854,573.000000,538.000000,35.000000,74.000000,0.000000,0.000000:
0000
0000
0000
0000
,
0000
0000
0000
0000
,
0000
0000
0000
0000
,
0000
0000
0000
0000
,
0000
0000
0000
0000
,
1002
0000
0100
0000
0103
0000
0001
0010
,
0200
0000
0010
0000
0310
0000
1000
0010
,
0200
0000
0001
0000
0310
0000
1000
0100
,
0020
0100
0130
1001
,
0020
0000
1030
0000
0010
1000
0100
0000
,
1000
0010
0100
0001
0010
0100
1000
0000
,
0001
1000
0001
1000
0100
0010
0001
0100
,
0000
0010
0010
0000
1001
0000
1001
0000
,
0100
1000
0010
0000
1000
0100
0010
0001
,
0001
1000
0100
1000
0001
0100
1001
0000
,
0010
0001
0010
0100
1000
0010
0001
0010
,
1000
0001
0010
0100
1000
0001
1000
0000
,
0012
0000
0103
0010
2000
0000
3010
0100
,
0020
0000
1030
0001
1001
0000
0110
0000
,
0001
0010
0100
1000
0010
0100
0001
0010
,
0001
1000
0010
0100
0001
1000
0001
0000
,
1002
0000
0013
0100
2000
0000
3010
0100
,
0002
0000
0013
0100
2000
0000
3001
0000
,
1000
0010
1000
0001
0100
0010
0100
0001
,
0010
0100
1000
0001
1001
0000
0000
0000
,
0002
0000
0013
0100
2000
0000
3010
0100
,
0020
0000
1030
0100
0020
0000
0031
1000
,
0000
1000
0001
1000
0001
0010
0000
0010
,
0100
1000
0010
0100
0001
0010
1001
0000
,
2000
0000
3001
0100
2000
0000
3100
0001
,
0020
0000
0130
0001
0200
0000
1300
0010
,
1000
0001
0100
0010
0100
0000
0100
0001
,
0010
0100
1000
0001
1000
0000
0000
0000
,
1002
0000
0010
0000
0013
0000
0100
1000
,
2010
0000
0100
0000
3100
0000
0010
0001
,
0120
0000
0001
0000
0130
0000
1000
0010
,
0102
0000
0010
0000
1003
0010
1000
0100
,
1000
0010
0100
0001
0010
0000
0001
0000
0010
0100
1000
0010
1000
0000
0001
0000
,
0100
0010
0100
0001
0100
0000
0010
0000
1000
0100
0010
0001
0010
0000
0100
0000
,
0010
0001
0010
0001
0010
0000
0100
0000
0001
0100
0001
0100
0001
0000
0100
0000
,
1000
0010
1000
0010
1000
0000
0100
0000
0010
1000
0010
1000
0010
0000
0000
0000
,
1002
0000
0203
0000
,
0320
0000
2030
0000
0001
0001
3001
0000
,
1000
0001
1000
0100
0010
0100
0100
0000
,
0010
0001
0100
1000
0001
0010
1001
0000
,
0210
0000
1300
0000
0010
0001
0010
0000
,
1002
0000
0013
0000
0100
1000
0010
0000
,
0102
0013
2100
3001
,
1000
0010
0100
0001
0010
0100
1000
0000
,
0210
0000
0001
0000
0010
0010
0310
0000
,
0001
1000
0100
1000
0001
0010
0100
0000
,
1000
0010
0110
0000
1000
0001
0110
0000
,
1000
0001
0010
0100
0010
0001
1000
0000
,
0012
0000
0103
0010
2000
0000
3010
0100
,
0020
0000
1030
0001
1001
0000
0110
0000
,
0001
0010
0100
1000
0010
0100
0001
0010
,
0001
1000
0010
0100
0001
1000
0001
0000
,
1002
0000
0013
0100
2000
0000
3010
0100
,
0002
0000
0013
0100
2000
0000
3001
0000
,
1000
0010
1000
0001
0100
0010
0100
0001
,
0010
0100
1000
0001
1001
0000
0000
0000
,
0002
0000
0000
0010
0000
0000
0000
0000
,
2003
0000
0000
0010
0000
0000
3002
0000
,
0023
0230
0010
0010
,
2300
0001
3020
0130
,
1002
0000
0000
0100
0000
0000
0203
0000
,
0010
0010
0000
0302
,
0023
0230
2300
0000
,
0002
0000
3003
0000
,
0002
0000
0013
0100
2000
0000
3010
0100
,
0020
0000
1030
0100
0020
0000
0031
1000
,
0000
1000
0001
1000
0001
0010
0000
0010
,
0100
1000
0010
0100
0001
0010
1001
0000
,
2000
0000
3001
0100
2000
0000
3100
0001
,
0020
0000
0130
0001
0200
0000
1300
0010
,
1000
0001
0100
0010
0100
0000
0100
0001
,
0010
0100
1000
0001
1000
0000
0000
0000
,
1002
0000
0010
0000
0013
0000
0100
1000
,
2010
0000
0100
0000
3100
0000
0010
0001
,
0120
0000
0001
0000
0130
0000
1000
0010
,
0102
0000
0010
0000
1003
0010
1000
0100
,
1000
0010
0100
0001
0010
0000
0001
0000
0010
0100
1000
0010
1000
0000
0001
0000
,
0100
0010
0100
0001
0100
0000
0010
0000
1000
0100
0010
0001
0010
0000
0100
0000
,
0010
0001
0010
0001
0010
0000
0100
0000
0001
0100
0001
0100
0001
0000
0100
0000
,
1000
0010
1000
0010
1000
0000
0100
0000
0010
1000
0010
1000
0010
0000
0000
0000
,
2000
0000
0001
0000
3010
0000
1000
0001
,
0200
0000
0010
0000
0310
0000
1000
0001
,
0020
0000
0100
0000
0130
0000
0010
0001
,
2000
0000
0001
0000
3001
0010
0100
1000
,
0002
0000
1000
0000
1003
0000
1000
0010
,
0200
0000
0010
0000
0310
0000
1000
0010
,
0200
0000
0001
0000
0301
0000
0010
0100
,
2000
0000
0001
0000
3001
0010
0100
0000
,
0000
1000
0000
0000
0000
0000
0000
0000
0000
0000
0000
0000
0000
0000
0000
0000
;

//---------------dance-double - ----------------
#NOTES:
     dance-double:
     :
     Easy:
     4:
     0.178508,0.225999,0.075061,0.194277,0.000000,283.000000,266.000000,17.000000,44.000000,0.000000,0.000000,0.178508,0.225999,0.075061,0.194277,0.000000,283.000000,266.000000,17.000000,44.000000,0.000000,0.000000:
00000000
00000000
00000000
00000000
,
00000000
00000000
00000000
00000000
,
00000000
00000000
00000000
00000000
,
00000000
00000000
00000000
00000000
,
00000000
00000000
00000000
00000000
,
02000000
00000000
00010000
00000000
,
03020000
00000000
00100000
00000000
,
20030000
00000000
01000000
00000000
,
30200000
00000000
01300000
00000000
,
10010000
10000000
00100000
00100000
,
01000000
00100000
00010000
00000000
,
00000100
00001000
00000010
00001000
,
00000010
00000100
00000001
00000000
,
00000001
00001000
00000010
00001000
,
00000100
00000010
00001000
00000000
,
00010000
00000100
00010000
00001000
,
00010000
00100000
01000000
00010000
,
20000000
31000000
00100000
00010000
,
02000000
03100000
01100000
00000000
,
10000000
00010000
10000000
00010000
,
00100000
00001000
00010000
00000000
,
00000200
00001300
00000010
00000100
,
00000002
00001003
00001001
00000000
,
00000001
00000010
00000100
00000010
,
00000001
00001000
00001001
00000000
,
00000002
00000013
00000100
00001000
,
00000020
00000130
00001000
00010000
,
00000100
00010000
00001000
00100000
,
00001000
00010000
00100000
10000000
,
00020000
00130000
01000000
00100000
,
00002000
00013000
00100000
10000000
,
00010000
01000000
00010000
00100000
,
10010000
00000000
00000000
00000000
,
00010000
10000000
00010000
10000000
,
00100000
01000000
00010000
01000000
,
00001000
00010000
00001000
00010000
,
00000010
00001000
00000100
00000010
,
00000002
00000000
00001000
00001000
,
00000023
00000000
00000100
00000100
,
00000032
00000000
00000010
00000010
,
00002003
00000000
00000100
00003100
,
00001001
00000000
00001100
00000000
,
00000010
00000100
00001001
00000000
,
00000100
00010000
00001000
00010000
,
00100000
01000000
00010000
00000000
,
10010000
10010000
00100000
00100000
,
00001000
00010000
00001000
00010000
,
00000100
00000010
00000001
00000100
,
00000010
00001000
00000100
00010000
,
00011000
00000000
00011000
00110000
,
00100000
00001000
00100000
00010000
,
10000000
10000000
00100000
00100000
,
01000000
00010000
00100000
00010000
,
20000000
31000000
00100000
00010000
,
02000000
03100000
01100000
00000000
,
10000000
00010000
10000000
00010000
,
00100000
00001000
00010000
00000000
,
00000200
00001300
00000010
00000100
,
00000002
00001003
00001001
00000000
,
00000001
00000010
00000100
00000010
,
00000001
00001000
00001001
00000000
,
00000020
00000000
00000000
00000000
,
00002030
00000000
00000000
00000000
,
00003200
00000000
00000000
00000000
,
00002300
00000000
00000000
00000000
,
00023000
00000000
00000000
00000000
,
02030000
00000000
00000000
00000000
,
03002000
00000000
00000000
00000000
,
00003200
00000000
00000300
00000000
,
00000002
00000013
00000100
00001000
,
00000020
00000130
00001000
00010000
,
00000100
00010000
00001000
00100000
,
00001000
00010000
00100000
10000000
,
00020000
00130000
01000000
00100000
,
00002000
00013000
00100000
10000000
,
00010000
01000000
00010000
00100000
,
10010000
00000000
00000000
00000000
,
00010000
10000000
00010000
10000000
,
00100000
01000000
00010000
01000000
,
00001000
00010000
00001000
00010000
,
00000010
00001000
00000100
00000010
,
00000002
00000000
00001000
00001000
,
00000023
00000000
00000100
00000100
,
00000032
00000000
00000010
00000010
,
00002003
00000000
00000100
00003100
,
00000002
00000000
00000000
00000000
,
00000023
00000000
00000000
00000000
,
00000230
00000000
00000000
00000000
,
00002300
00000000
00000000
00000000
,
00023000
00000000
00000000
00000000
,
00230000
00000000
00000000
00000000
,
02300000
00000000
00000000
00000000
,
23000000
00000000
00000000
00000000
,
00000000
30000000
00000000
00000000
00000000
00000000
00000000
00000000
00000000
00000000
00000000
00000000
00000000
00000000
00000000
00000000
;

//---------------dance-double - ----------------
#NOTES:
     dance-double:
     :
     Medium:
     6:
     0.244738,0.287635,0.114800,0.335569,0.002208,388.000000,362.000000,26.000000,76.000000,0.000000,0.000000,0.244738,0.287635,0.114800,0.335569,0.002208,388.000000,362.000000,26.000000,76.000000,0.000000,0.000000:
00000000
00000000
00000000
00000000
,
00000000
00000000
00000000
00000000
,
00000000
00000000
00000000
00000000
,
00000000
00000000
00000000
00000000
,
00000000
00000000
00000000
00000000
,
02000000
00010000
00010000
03100000
,
20000000
00010000
00010000
31000000
,
00200000
00001000
00010000
00301000
,
00000200
00001000
00010000
00001300
,
00001002
00000100
00001000
00000013
,
00000100
00000000
00001000
00000000
00010000
00010000
00000000
00000000
,
01000000
00001000
01000000
00010000
,
00100000
01000000
10000000
10010000
,
00010000
00001000
00000100
00001000
,
00000001
00000000
00000010
00000000
00000001
00001000
00000001
00000000
,
00000010
00000100
00001000
00000000
00010000
00000000
00001000
00000000
,
00000010
00000000
00000100
00000000
00000001
00001000
00000001
00000000
,
00000002
00000000
00000013
00000100
00002000
00000000
00003010
00000100
,
00002000
00000000
00013000
00000100
00002000
00000000
00013000
00000000
,
00100000
00010000
00100000
00000000
01000000
00000000
10000000
00000000
,
00010000
01000000
00010000
10000000
01000000
00000000
00100000
00000000
,
00020000
00000000
00130000
01000000
20000000
00000000
30100000
01000000
,
00020000
00000000
00130000
00001000
00020000
00000000
00030100
00000000
,
00001000
00000001
00001000
00000000
00000100
00000000
00000010
00000000
,
00000011
00000101
00001001
00000000
,
00000002
00000000
00000000
00001003
00000020
00000000
00000130
00000000
,
00000002
00000000
00000013
00000200
00000000
00000000
00000310
00000000
,
00000010
00000100
00010000
00000100
00010000
00001000
00000000
00000000
,
00010000
00100000
10100000
10010000
,
02000000
00000000
00000000
03100000
20000000
00000000
30010000
00000000
,
00200000
00000000
00301000
00020000
00000000
00000000
00030100
00000000
,
00001000
00000001
00000010
00000001
00001000
00000000
00000010
00000000
,
00000101
00000201
00000301
00000000
,
00000002
00000000
00000010
00000000
00001003
00000000
00000010
00001000
,
00000200
00000000
00010000
00000000
00001300
00000000
00000100
00001000
,
00020000
00000000
00100000
00000000
00031000
00000000
00100000
00001000
,
00020000
00100000
00031000
00010000
,
00001000
00010000
00100000
00000000
10000000
00000000
10000000
00000000
,
01000000
00100000
00010000
00000000
00001000
00000000
00001000
00000000
,
00000100
00010000
00000100
00000000
00010000
00001000
00010000
00000000
,
00000100
00000010
00000100
00000000
00001000
00000001
00000100
00000000
,
00000101
00000000
00000101
00000000
,
00001001
00000000
00000100
00000000
00000010
00000001
00000010
00000000
,
00000100
00001000
00000100
00010000
,
00001000
00010000
00100000
00000000
10010000
00000000
00000000
00000000
,
11000000
01010000
00100000
00100000
,
00010100
00010000
00110000
00100000
,
00001000
00010000
00000100
00000000
00000100
00000000
00000010
00000000
,
00000001
00001000
00000010
00000100
,
00000102
00000013
00000100
00001100
,
00000200
00000000
00010300
00000000
00001000
00001000
00000000
00000000
,
00010000
01000000
10000000
01000000
,
00010000
00000000
00001000
00000000
00000100
00000001
00000100
00000000
,
00000002
00000000
00000013
00000100
00002000
00000000
00003010
00000100
,
00002000
00000000
00013000
00000100
00002000
00000000
00013000
00000000
,
00100000
00010000
00100000
00000000
01000000
00000000
10000000
00000000
,
00010000
01000000
00010000
10000000
01000000
00000000
00100000
00000000
,
00020000
00000000
00130000
01000000
20000000
00000000
30100000
01000000
,
00020000
00000000
00130000
00001000
00020000
00000000
00030100
00000000
,
00001000
00000001
00001000
00000000
00000100
00000000
00000010
00000000
,
00000011
00000101
00001001
00000000
,
00000002
00000000
00000000
00000000
,
00002003
00000000
00000000
00000000
,
00003020
00000000
00000230
00000000
,
00002300
00000000
00023000
00000000
,
00032000
00000000
00000000
00000000
,
02003000
00000000
00000000
00000000
,
03002000
00000000
00003200
00000000
,
00000020
00000000
00000330
00000000
,
00000002
00000000
00000000
00001003
00000020
00000000
00000130
00000000
,
00000002
00000000
00000013
00000200
00000000
00000000
00000310
00000000
,
00000010
00000100
00010000
00000100
00010000
00001000
00000000
00000000
,
00010000
00100000
10100000
10010000
,
02000000
00000000
00000000
03100000
20000000
00000000
30010000
00000000
,
00200000
00000000
00301000
00020000
00000000
00000000
00030100
00000000
,
00001000
00000001
00000010
00000001
00001000
00000000
00000010
00000000
,
00000101
00000201
00000301
00000000
,
00000002
00000000
00000010
00000000
00001003
00000000
00000010
00001000
,
00000200
00000000
00010000
00000000
00001300
00000000
00000100
00001000
,
00020000
00000000
00100000
00000000
00031000
00000000
00100000
00001000
,
00020000
00100000
00031000
00010000
,
00001000
00010000
00100000
00000000
10000000
00000000
10000000
00000000
,
01000000
00100000
00010000
00000000
00001000
00000000
00001000
00000000
,
00000100
00010000
00000100
00000000
00010000
00001000
00010000
00000000
,
00000100
00000010
00000100
00000000
00001000
00000001
00001000
00000000
,
00000002
00000000
00000203
00000000
,
00000320
00000000
00002030
00000000
,
00023000
00000000
02030000
00000000
,
03200000
00000000
20300000
00000000
,
32000000
00000000
03200000
00000000
,
00302000
00000000
00023000
00000000
,
00230000
00000000
20300000
00000000
,
30020000
00000000
02030000
00000000
,
00000000
03100000
00000000
00000000
00000000
00000000
00000000
00000000
00000000
00000000
00000000
00000000
00000000
00000000
00000000
00000000
;

//---------------dance-double - ----------------
#NOTES:
     dance-double:
     :
     Hard:
     9:
     0.362061,0.513633,0.123631,0.304661,0.075061,574.000000,546.000000,28.000000,69.000000,0.000000,0.000000,0.362061,0.513633,0.123631,0.304661,0.075061,574.000000,546.000000,28.000000,69.000000,0.000000,0.000000:
// measure 0
00000000
00000000
00000000
00000000
,  // measure 1
00000000
00000000
00000000
00000000
,  // measure 2
00000000
00000000
00000000
00000000
,  // measure 3
00000000
00000000
00000000
00000000
,  // measure 4
00000000
00000000
00000000
00000000
,  // measure 5
20010000
00000000
00010000
00000000
30010000
00000000
10000000
00100000
,  // measure 6
02000000
00000000
00010000
00000000
03010000
00000000
00100000
00001000
,  // measure 7
00020000
00000000
00100000
00000000
00130000
00000000
00010000
00000100
,  // measure 8
00002000
00000010
00003010
00001001
,  // measure 9
00000001
00000000
00001000
00000000
00000010
00000010
00000100
00000000
,  // measure 10
00000010
00000100
00001000
00010000
01000000
10000000
00000000
00000000
,  // measure 11
00010000
10000000
01000000
10000000
00010000
00100000
00010000
10000000
,  // measure 12
00000000
10000000
10000000
00000000
01010000
00000000
11000000
00000000
,  // measure 13
00100000
00001000
00010000
00000000
00010000
00100000
01000000
00010000
,  // measure 14
00000000
00010000
00001000
00000000
00001000
00000010
00000110
00000000
,  // measure 15
00000100
00000001
00000010
00000100
00001000
00000010
00000100
00001000
,  // measure 16
00010000
00000100
00000010
00000100
00010000
00001000
01000000
00000000
,  // measure 17
00020000
00000000
10030000
02000000
00000000
00100000
00100000
23000000
,  // measure 18
00000000
00010000
30200000
01000000
20300000
00000000
30010000
00000000
,  // measure 19
10000000
00010000
00100000
00010000
00001000
00010000
00100000
00001000
,  // measure 20
00010000
00000100
00000010
00000100
00001000
00000010
00000100
00000000
,  // measure 21
00000002
00000000
00001003
00000200
00000000
00000010
00000010
00002300
,  // measure 22
00000000
00000001
00003020
00000100
00002030
00000000
00003001
00000000
,  // measure 23
00001000
00000100
00000010
00000100
00001000
00010000
00100000
01000000
,  // measure 24
00100000
10010000
01100000
00000000
,  // measure 25
00020000
00000000
00130000
01000000
20000000
00000000
30100000
01000000
,  // measure 26
00002000
00000000
00013000
01000000
20000000
00000000
30010000
10000000
,  // measure 27
00000000
10000000
00100000
01000000
00100000
01000000
00000000
00010000
,  // measure 28
00001000
00010000
00001000
00000010
00000100
00000001
00000010
00000000
,  // measure 29
00000002
00000000
00000103
00001000
00000200
00000000
00000301
00000010
,  // measure 30
00000200
00000000
00000301
00000100
00002000
00000000
00003010
00000100
,  // measure 31
00000000
00000100
00000001
00001000
00000001
00000000
00000010
00000100
,  // measure 32
00010000
00001000
00010000
00100000
01100000
00000000
00000000
00000000
,  // measure 33
20010000
00000000
00010000
00000000
30010000
00000000
01000000
00100000
,  // measure 34
01002000
00000000
00010000
00000000
01003000
00000000
00010000
00000100
,  // measure 35
00021000
00000000
00100000
00000000
00031000
00000000
00010000
00000100
,  // measure 36
00001200
00000000
00010000
00000000
00000310
00000001
00001000
00000010
,  // measure 37
00000100
00000001
00000010
00000100
00001000
00000000
00000010
00000000
00001000
00000100
00010000
00001000
00010000
00000000
00001000
00000000
,  // measure 38
01000000
00010000
00100000
01000000
10000000
00000000
00100000
00000000
10000000
00010000
00100000
01000000
10000000
00000000
00100000
00000000
,  // measure 39
01000000
00010000
01000000
00010000
01000000
00000000
00010000
00000000
00001000
00010000
00001000
00010000
00001000
00000000
00000100
00000000
,  // measure 40
00001000
00000010
00001000
00000010
00001000
00000000
00000001
00000000
00000010
00000100
00000010
00000100
00000010
00000000
00000000
00000000
,  // measure 41
00001002
00000000
00000100
00000000
00001000
00001000
00001003
00000000
,  // measure 42
00000001
00000010
00000001
00001000
00000010
00000010
00000010
00000000
,  // measure 43
00000100
00001000
00010000
00001000
00100000
00100000
01000000
00000000
,  // measure 44
10000000
00010000
00000000
00000000
00010000
00000000
01000000
00000000
00100000
00000000
01000000
00000000
10010000
00000000
00000000
00000000
,  // measure 45
01100000
00000000
10010000
00000000
01000000
01000000
01000000
00000000
,  // measure 46
00010000
00001000
00010000
01000000
00010000
01000000
00001000
00000000
,  // measure 47
00010000
00000100
00000110
00000000
00000001
00001000
00010100
00000000
,  // measure 48
00001000
00010000
00001000
00100000
01000000
10000000
00010000
00000000
,  // measure 49
11000000
00000000
01010000
00000000
00100000
00100000
00100000
00000000
,  // measure 50
00010000
00001000
00000010
00000100
00000001
00000010
00000010
00000000
,  // measure 51
00000001
00000010
00000100
00001000
00000010
00000100
00001000
00010000
,  // measure 52
00001000
00100000
01000000
00100000
00010000
10000000
10100000
00000000
,  // measure 53
00020000
00000000
10030000
02000000
00000000
00100000
00100000
23000000
,  // measure 54
00000000
00010000
30200000
01000000
20300000
00000000
30010000
00000000
,  // measure 55
10000000
00010000
00100000
00010000
00001000
00010000
00100000
00001000
,  // measure 56
00010000
00000100
00000010
00000100
00001000
00000010
00000100
00000000
,  // measure 57
00000002
00000000
00001003
00000200
00000000
00000010
00000010
00002300
,  // measure 58
00000000
00000001
00003020
00000100
00002030
00000000
00003001
00000000
,  // measure 59
00001000
00000100
00000010
00000100
00001000
00010000
00100000
01000000
,  // measure 60
00100000
10010000
01100000
00000000
,  // measure 61
20000000
00000000
00000000
00010000
00000000
00000000
00000000
30020000
,  // measure 62
00000000
00000000
01000000
01000000
00000000
00000000
00100000
00000000
,  // measure 63
00230000
00302000
00023000
02030000
,  // measure 64
23000000
00010000
30200000
01000000
,  // measure 65
20300000
00000000
00000000
00010000
00000000
00000000
30020000
00000000
,  // measure 66
00230000
00000000
00000000
00010000
00000000
00000000
00302000
00000000
,  // measure 67
00013000
00000000
00000100
00000000
00000010
00000000
00000001
00000100
,  // measure 68
00000010
00000100
00000010
00000000
00000000
00000000
00000000
00000000
,  // measure 69
00000002
00000000
00000103
00000010
00002000
00000000
00003100
00000010
,  // measure 70
00002000
00000000
00003010
00000001
00000200
00000000
00000310
00001000
,  // measure 71
00000000
00001000
00000001
00001000
00000001
00001000
00000000
00000100
,  // measure 72
00000010
00001000
00010000
00100000
01000000
00010000
10010000
00000000
,  // measure 73
20000000
00000000
31000000
00100000
00020000
00000000
01030000
10000000
,  // measure 74
02000000
00000000
03100000
00010000
00200000
00000000
10300000
00010000
,  // measure 75
00100000
01000000
10000000
00010000
01000000
00000000
00001000
00010000
,  // measure 76
00100000
00010000
00000100
00000010
00000001
00000000
00000000
00000000
,  // measure 77
00001002
00000000
00001000
00000000
00001003
00000000
00000010
00000100
,  // measure 78
00001020
00000000
00010000
00000000
00010030
00000000
00001000
00010000
,  // measure 79
01002000
00000000
00000010
00000000
00003010
00000000
00100000
00010000
,  // measure 80
00201000
00000000
00010000
00000000
00310000
00100000
01000000
10000000
,  // measure 81
00010000
01000000
00100000
10000000
01000000
00000000
00100000
00000000
01000000
10000000
00100000
01000000
00010000
00000000
00100000
00000000
,  // measure 82
00010000
01000000
00100000
00010000
00100000
00000000
01000000
00000000
00010000
00001000
00010000
00100000
00001000
00000000
00010000
00000000
,  // measure 83
00000100
00000010
00000100
00000010
00000100
00000000
00001000
00000000
00000001
00000100
00000001
00000100
00000001
00000000
00000100
00000000
,  // measure 84
00001000
00000100
00001000
00000100
00001000
00000000
00010000
00000000
00001000
00010000
00001000
00010000
00001000
00000000
00000000
00000000
,  // measure 85
00200000
00000000
00010000
00000000
00310000
00000000
00010000
10000000
,  // measure 86
02000000
00000000
00100000
00000000
03100000
00000000
00010000
01000000
,  // measure 87
00002000
00000000
00010000
00000000
00013000
00000000
00001000
00010000
,  // measure 88
00000200
00000000
00000010
00000000
00000310
00000001
00001000
00000100
,  // measure 89
00020000
00000000
00001000
00000000
00031000
00000000
00001000
00010000
,  // measure 90
00200000
00000000
10000000
00000000
10300000
00000000
01000000
00100000
,  // measure 91
00020000
00000000
01000000
00000000
01030000
00000000
00001000
00010000
,  // measure 92
00002000
00000000
00010000
00000000
00013000
01000000
10000000
00000000
,  // measure 93
00000000
00010000
00000000
00000000
00000000
00000000
00000000
00000000
00000000
00000000
00000000
00000000
00000000
00000000
00000000
00000000
;
