#TITLE:Chirality;
#SUBTITLE:;
#ARTIST:Camellia;
#TITLETRANSLIT:;
#SUBTITLETRANSLIT:;
#ARTISTTRANSLIT:;
#GENRE:;
#CREDIT:;
#BANNER:;
#BACKGROUND:Chirality-bg.png;
#LYRICSPATH:;
#CDTITLE:;
#MUSIC:Chirality.mp3;
#OFFSET:0.190000;
#SAMPLESTART:67.470070;
#SAMPLELENGTH:15.000000;
#SELECTABLE:YES;
#BPMS:0.000000=201.000000
,65.000000=100.500000
,66.000000=201.000000
,97.000000=100.500000
,97.500000=201.000000
,159.500000=100.500000
,160.500000=201.000000
;
#STOPS:65.000000=0.300000,
221.500000=0.440000,
254.500000=0.150000
;
#BGCHANGES:;
#KEYSOUNDS:;
#ATTACKS:;

//---------------dance-single - ----------------
#NOTES:
     dance-single:
     :
     Beginner:
     2:
     0.133112,0.158250,0.078466,0.000000,0.004904,95.000000,87.000000,8.000000,0.000000,0.000000,0.000000,0.133112,0.158250,0.078466,0.000000,0.004904,95.000000,87.000000,8.000000,0.000000,0.000000,0.000000:
0000
0000
0000
0000
,
1000
0000
0000
0000
,
0001
0000
0000
0000
,
1000
0000
0000
0000
,
0001
0000
0000
0000
,
0100
0000
0000
0000
,
0001
0000
0000
0000
,
1000
0000
0000
0000
,
0001
0000
0000
0000
,
0110
0000
0000
0000
,
0000
0000
0000
0000
,
1001
0000
0000
0000
,
0000
0000
0000
0000
,
0110
0000
0000
0000
,
0000
0000
0000
0000
,
1001
0000
0000
0000
,
0000
0010
1000
0000
,
0000
0000
0100
0000
,
1000
0000
0001
0000
,
0000
0000
1000
0000
,
0001
0000
1000
0000
,
0000
0000
0001
0000
,
0100
0000
0010
0000
,
0000
0000
0010
0000
,
0000
0000
0000
1000
0000
0000
0000
0000
,
0000
0000
0000
0100
0000
0000
0000
1000
,
0000
0000
0000
0100
0000
0000
0000
0000
,
0000
0000
0000
1000
0000
0000
0000
0010
,
0000
0000
0000
0100
0000
0000
0000
0000
,
0000
0000
0000
0001
0000
0000
0000
0000
,
0000
0000
0000
1000
0000
0000
0000
0000
,
0000
0000
0000
0001
0000
0000
0000
0000
,
0000
0000
0000
0100
0000
0000
0000
0000
,
0000
0000
0000
0100
0000
0000
0000
0000
,
0000
0000
0000
0010
0000
0000
0000
0000
,
0000
0000
0000
0010
0000
0000
0000
0000
,
0000
0000
0000
1000
0000
0000
0000
0000
,
0000
0000
0000
1000
0000
0000
0000
0000
,
0000
0000
0000
0001
0000
0000
0000
0000
,
0000
0000
0000
0001
0000
0000
0000
0000
,
0000
1000
0000
0000
0000
0000
0000
0000
,
0000
0010
0000
0000
0000
0000
0000
0000
,
0000
0100
0000
0000
0000
0000
0000
0000
,
0000
0001
0000
0000
0000
0000
0000
0000
,
0000
0100
0000
0000
0000
0000
0000
0000
,
0000
0010
0000
0000
0000
0000
0000
0000
,
0000
1000
0000
0000
0000
0000
0000
0000
,
0000
0001
0000
0000
0000
0000
0000
0000
,
0000
0110
0000
0000
0000
0000
0000
0000
,
0000
0000
0000
0000
,
0000
1001
0000
0000
0000
0000
0000
0000
,
0000
0000
0000
0000
,
0000
0011
0000
0000
0000
0000
0000
0000
,
0000
0000
0000
0000
,
0000
1010
0000
0000
0000
0000
0000
0000
,
0000
0000
0000
1000
0000
0000
0001
0000
,
0000
0001
0000
0001
,
0000
0000
0000
1000
,
0000
1000
0000
1000
,
0000
0000
0000
0010
,
0000
0010
0000
0010
,
0000
0000
0000
1000
,
0000
0000
0000
0001
,
0000
0000
0000
0100
,
0000
0000
0000
0000
0000
0100
0000
0000
,
0000
0000
0000
0000
0000
0010
0000
0000
,
0000
0010
0000
0000
0000
0010
0000
0000
,
0000
0000
0000
0000
0000
1000
0000
0000
,
0000
1000
0000
0000
0000
1000
0000
0000
,
0000
0000
0000
0000
0000
0001
0000
0000
,
0000
0000
0000
0000
0000
1000
0000
0000
,
0000
0000
0000
0000
0000
0010
0000
0000
,
0000
0000
0000
0000
0000
0010
0000
0000
,
0000
0000
0000
0000
0000
0100
0000
0000
,
0000
0000
0000
0000
0000
0010
0000
0000
,
0000
0000
0000
0000
0000
1000
0000
1000
,
0000
0000
0000
0000
0000
0001
0000
0000
,
0000
0000
0000
0000
0000
0010
0000
0000
,
0000
0000
0000
0000
0000
0100
0000
0000
,
0000
0000
0000
0000
0000
1000
0000
0000
,
0000
0000
0000
0000
0000
0000
0000
0000
0000
0000
0000
0000
0000
0000
0000
0000
0000
0000
0000
0000
0000
0000
0000
0000
0000
0000
0000
0000
0000
0000
0000
0000
0000
0000
0000
0000
0000
0000
0000
0000
0000
0000
0000
0001
0000
0000
0000
0000
0000
0000
0000
0000
0000
0000
0000
0000
0000
0000
0000
0000
0000
0000
0000
0000
;

//---------------dance-single - ----------------
#NOTES:
     dance-single:
     :
     Easy:
     7:
     0.381121,0.435187,0.294247,0.009808,0.004904,272.000000,242.000000,30.000000,1.000000,0.000000,0.000000,0.381121,0.435187,0.294247,0.009808,0.004904,272.000000,242.000000,30.000000,1.000000,0.000000,0.000000:
0000
0000
0000
0000
,
1000
0001
0100
0010
,
0100
0001
0010
0000
,
0001
0100
1000
0100
,
0010
0001
0100
0000
,
0001
1000
0010
0100
,
0001
1000
0010
0000
,
1000
0100
0010
0001
,
0100
0010
1000
0000
,
1001
0000
0000
0000
0000
0010
0000
0010
,
0000
0000
0000
0000
,
1001
0000
0000
0000
0000
0100
0000
0100
,
0000
0000
0000
0000
,
0011
0000
0000
0000
0000
1000
0000
1000
,
0000
0000
0000
0000
,
1010
0000
0000
0000
0000
0001
0000
0001
,
0000
0110
1000
0000
,
1010
0000
0001
0100
,
1001
0000
0010
0000
,
0110
0000
1000
0100
,
0011
0100
1000
0000
,
1001
0000
0010
0100
,
1001
0000
0011
0000
,
0100
1000
0000
1000
,
1001
0000
0000
0010
0000
0000
0000
0101
,
0000
0000
0000
0010
0000
0001
0000
1001
,
0000
0000
0000
0010
0000
0000
0000
1100
,
0000
0000
0000
0010
0000
1000
0000
1001
,
0000
0000
0000
0020
0000
0000
0000
0130
,
0000
0001
0000
0000
0000
1000
0000
1001
,
0000
0000
0000
0010
0000
0000
0000
0100
,
0000
0001
0000
1000
0000
1000
0000
0100
,
0000
0000
0000
0001
0000
0000
0000
0001
,
0000
0010
0000
0000
0000
0010
0000
0001
,
0000
0000
0000
1000
0000
0100
0000
0000
,
0000
0100
0000
1000
0000
0100
0000
1000
,
0000
0000
0000
0010
0000
0100
0000
0001
,
0000
1000
0000
0010
0000
0100
0000
0001
,
0000
0000
0000
0010
0000
0100
0000
1000
,
0000
0001
0000
0010
0000
0100
0000
1000
,
0000
0101
0000
0000
0001
0000
1000
0000
,
0100
1000
0100
1000
,
0000
0110
0000
0000
0100
0000
0001
0000
,
0100
0010
1000
0100
,
0000
0011
0000
0000
0100
0000
0001
0000
,
1000
0001
0010
0100
,
0000
1010
0000
0000
0101
0000
0000
1001
,
0000
0000
0110
0000
0000
1000
0000
0001
,
0000
1000
0000
0000
0000
0000
0010
0000
,
0010
0000
0000
0000
,
0000
0101
0000
0000
0000
0000
1000
0000
,
1000
0000
0000
0000
,
0000
0110
0000
0000
0000
0000
0001
0000
,
0001
0000
0000
0000
,
0000
1010
0000
0000
0000
0000
0100
0000
,
0100
0000
0000
1001
0000
0000
0001
0000
,
0010
0100
1000
0010
,
0100
0001
1000
0010
,
0100
0001
0010
0100
,
1000
0010
0100
0001
,
0010
1000
0010
0100
,
0001
0010
0100
1000
,
0001
1000
0010
0100
,
0001
0000
0010
0000
0100
0000
0000
1000
,
0000
0001
0000
1000
0000
0010
0000
0100
,
0000
0001
0000
0100
0000
0010
0000
1000
,
0000
0100
0000
0010
0000
0001
0000
0100
,
0000
0010
0000
1000
0000
0001
0000
0100
,
0000
1000
0000
0100
0000
0001
0000
0100
,
0000
1000
0000
0100
0000
0001
0000
0010
,
0000
0100
0000
1000
0000
0010
0000
1000
,
0000
0100
0000
0010
0000
0001
0000
0000
,
0001
0000
0000
1000
0000
1000
0000
0010
,
0000
0000
0010
0000
0100
0000
0000
0100
,
0000
0001
0000
0000
0001
0000
0000
1000
,
0000
0100
0000
0010
0000
0001
0000
0001
,
0000
1001
0000
0000
0000
0010
0000
0100
,
0000
0001
0000
0010
0000
0100
0000
1000
,
0000
0001
0000
0000
0000
0100
0000
0010
,
0000
0100
0000
0001
0000
0010
0000
0100
,
0000
0000
0000
0000
0000
0000
0000
0000
1000
0000
0000
0000
0000
0000
0000
0000
0000
0000
0000
0000
0000
0000
0000
0000
0000
0000
0000
0000
0000
0000
0000
0000
0000
0000
0000
0000
0000
0000
0000
0000
0000
0000
0000
0001
0000
0000
0000
0000
0000
0000
0000
0000
0000
0000
0000
0000
0000
0000
0000
0000
0000
0000
0000
0000
;

//---------------dance-single - ----------------
#NOTES:
     dance-single:
     :
     Medium:
     10:
     0.545058,0.593437,0.353097,0.029425,0.078466,389.000000,353.000000,36.000000,3.000000,0.000000,0.000000,0.545058,0.593437,0.353097,0.029425,0.078466,389.000000,353.000000,36.000000,3.000000,0.000000,0.000000:
0000
0000
0000
0000
,
1000
0001
0010
0100
,
1000
0000
0010
0000
1000
1000
0100
0000
,
0010
0001
0100
1000
,
0010
0000
0100
0000
0001
0100
0001
0000
,
1000
0100
0010
0001
,
0100
0000
0010
0000
1000
0001
1000
0000
,
0010
0100
0001
0010
,
0100
1000
0001
0100
0010
0000
0000
0000
,
0110
0000
0000
0000
0000
1001
0000
1001
,
0000
0000
0000
0000
,
0101
0000
0000
0000
0000
1010
0000
1010
,
0000
0000
0000
0000
,
1100
0000
0000
0000
0000
0011
0000
0011
,
0000
0000
0000
0000
,
1001
0000
0000
0000
0000
0110
0000
0110
,
0000
0000
1000
0000
0002
0003
0000
0000
1000
0000
0000
0000
0010
0000
0000
0000
,
0100
0000
0000
0100
0000
0000
0100
0000
0000
0000
0001
0000
1000
0000
0000
0000
,
1000
0100
1000
0000
0001
0000
0010
0000
,
0100
0000
0000
0100
0000
0000
0100
0000
0000
0000
0010
0000
0001
0000
0000
0000
,
1001
0010
0101
0010
,
0100
0000
0000
0100
0000
0000
0100
0000
0000
0000
1000
0000
0001
0000
0000
0000
,
1000
1000
0100
0000
0011
0000
0100
0000
,
0001
1000
0100
0000
0101
0000
0010
0000
,
1001
0000
0000
1000
0000
0100
0000
0010
,
0000
0001
0000
0000
0010
0000
0000
0000
0100
0000
1000
0000
0000
0000
1000
0000
,
0001
0001
0000
1000
0000
0010
0000
0100
,
0000
0001
0000
0000
1000
0000
0000
0000
0100
0000
0010
0000
0000
0000
1001
0000
,
0000
0010
0100
0002
0000
0000
0000
1003
,
0000
0010
1001
0000
1000
0100
0000
0010
,
0010
0100
0000
1001
0000
0010
0000
0100
,
0001
0010
0000
1001
0000
1001
0000
0110
,
0000
0110
0000
0001
1000
0000
1000
0000
,
0010
0100
0001
0001
,
1000
0000
0100
0010
0100
0000
1000
0000
,
0010
0001
0100
1000
,
0001
0000
0100
0010
0010
0000
1000
0000
,
0100
0001
0100
1000
,
0100
0000
0001
0010
0100
0000
1000
0000
,
0010
0100
0010
0010
,
0000
1001
0001
0000
0010
0000
0100
0000
,
1000
0010
1000
0100
,
0001
0100
0010
0000
1000
0000
0010
0000
,
0100
0001
0010
0100
,
1000
0100
0010
0000
0001
0000
1000
0000
,
0100
0001
0100
0010
,
1000
0100
0100
0000
0010
0010
0000
0001
,
0001
0000
0100
0100
0000
0010
1000
0010
,
0100
0001
0000
0000
0000
0000
1010
0000
,
0101
0000
0000
0000
,
0000
0011
0000
0000
0000
0000
1001
0000
,
1100
0000
0000
0000
,
0000
1010
0000
0000
0000
0000
0011
0000
,
1010
0000
0000
0000
,
0000
1001
0000
0000
0000
0000
0110
0000
,
1001
0000
0000
0000
1000
0000
0002
0003
0000
0000
0000
0000
0001
0000
0010
0000
,
0000
0100
1000
0000
0010
0100
0000
0001
,
1000
0000
0100
0001
0100
1000
0100
0010
,
0000
0001
0100
0000
0010
0100
0000
1000
,
0100
0000
0001
1000
0100
0010
0001
1000
,
0000
0010
0100
0000
0001
1000
0000
0100
,
0010
0000
0000
0000
0001
0000
1000
0000
0010
0000
0100
0000
0001
0000
0000
0010
,
0000
0000
0100
0000
1000
0000
0000
0001
0000
0000
0100
0000
0010
0000
0000
0000
,
0010
0100
0000
0001
0010
0100
0000
1000
,
0100
0010
0000
0001
1000
0000
0100
1000
,
0000
0010
0100
0001
0010
0001
1000
0000
,
0001
0010
0000
0100
1000
0000
0001
0010
,
0000
0100
1000
0010
0100
0001
0100
0000
,
1000
0100
0000
0001
0010
0000
1000
0010
,
0000
0000
0001
0000
1000
0000
0100
0000
1000
0000
0010
0000
0000
0100
0000
0000
,
0001
0000
1000
0000
0000
0100
0000
0000
0010
0000
0001
0000
0000
1000
0000
0000
,
0001
0000
1000
0000
0000
0010
0000
0000
0100
0000
0001
0000
1000
0000
0000
0000
,
0001
0000
1000
0001
0000
0010
0000
0001
,
0010
0000
0100
0000
0010
0100
0000
1000
,
0000
0100
1000
0000
0010
0000
0100
0010
,
0000
1000
0000
0001
1000
0100
0010
0001
,
1000
0100
0000
0000
0000
0001
0000
0100
,
0000
1000
0000
0100
0000
0001
0000
0010
,
0001
0100
0001
1000
0000
0100
0000
0001
,
0000
0010
0000
1000
0000
0001
0000
0010
,
0000
0000
0000
0000
0000
0000
0000
0000
0000
0000
0000
0000
0000
0000
0000
0000
0100
0000
0000
0000
0000
0000
0000
0000
0000
0000
0000
0000
0000
0000
0000
0000
0010
0000
0000
0000
0000
0000
0000
0000
0000
0000
0000
0000
0000
0000
0000
0000
0000
0000
0000
0000
0000
0000
0000
0000
0000
0000
0000
0000
0001
0000
0000
0000
0000
0000
0000
0000
0000
0000
0000
0000
0000
0000
0000
0000
0000
0000
0000
0000
0000
0000
0000
0000
0000
0000
0000
0000
0000
0000
0000
0000
1000
0000
0000
0000
0000
0000
0000
0000
0000
0000
0000
0000
0000
0000
0000
0000
0000
0000
0000
0000
0000
0000
0000
0000
0000
0000
0000
0000
0000
0000
0000
0000
0000
0000
0000
0000
0000
0010
0000
0000
0000
0000
0000
0000
0000
0000
0000
0000
0000
0000
0000
0000
0000
0000
0000
0000
0000
0000
0000
0000
0000
0000
0000
0000
0000
0000
0000
0000
0000
0000
0000
0000
0000
0000
0000
0000
0000
0000
0000
0000
0000
0000
0000
0000
0000
0000
0000
0000
0000
0000
0000
0000
0000
0000
0000
0000
0000
0000
0000
0000
;

//---------------dance-single - ----------------
#NOTES:
     dance-single:
     :
     Hard:
     16:
     0.867329,1.028625,0.774852,0.176548,0.426659,619.000000,540.000000,79.000000,18.000000,0.000000,0.000000,0.867329,1.028625,0.774852,0.176548,0.426659,619.000000,540.000000,79.000000,18.000000,0.000000,0.000000:
0000
0000
0000
0000
,
0001
0100
0010
1000
0100
0001
0100
1000
,
0010
0000
0100
0000
0001
0000
0010
0100
0010
0001
0010
0100
1000
0000
0010
0000
,
1000
0001
1000
0010
0100
1000
0100
0001
,
0010
0000
0100
0000
1000
0001
0100
0001
0100
0000
0010
0000
1000
0000
1000
0000
,
0010
0100
1000
0010
0100
0001
0010
0100
,
1000
0000
0001
0000
0100
0000
0010
1000
0001
1000
0010
0100
0010
0000
1000
0000
,
0100
0001
0100
0010
0001
0100
0001
1000
,
0010
0000
0100
0001
1000
0001
0010
0100
0010
0001
1000
0100
1000
0000
0000
0000
,
0110
0000
0000
0000
1001
0110
0000
1001
,
0000
0000
0000
0000
,
0011
0000
0000
0000
1100
0011
0000
1100
,
0000
0000
0000
0000
,
1010
0000
0000
0000
0101
1010
0000
0101
,
0000
0000
0000
0000
,
0101
0000
0000
0000
1010
1001
0000
0110
,
0000
0000
0002
0000
2000
3003
0000
0000
1000
0000
0001
0010
0100
0000
1000
0000
,
0010
0000
0100
0001
0000
0100
0001
0000
1000
0000
0001
0000
0200
0000
0000
0000
,
0310
0010
0100
0000
1001
0000
0001
0010
,
0100
0000
1000
0010
0000
0100
0001
0000
0100
0000
0010
0000
1000
0000
0100
0010
,
0001
0000
0100
0010
1001
0000
0010
0100
,
0001
0000
0100
0001
0000
0010
0001
0000
1000
0000
0010
0000
0001
0000
0000
0000
,
0100
0100
1100
0000
1001
0000
0000
0010
,
0101
0000
1010
0000
1000
0001
0011
0000
,
2100
0000
0000
0000
3000
0000
0001
0000
1000
0010
0100
0000
0001
0000
0010
0000
,
0100
1000
0000
0100
1000
0000
0010
0000
0100
0000
0020
0000
0000
0000
0031
0000
,
0001
0100
0000
1010
0000
0001
0100
0010
,
1000
0001
0000
0010
0001
0000
0010
0000
0100
0000
1000
0000
0010
0000
0101
0000
,
0000
0000
0010
0000
1000
0000
0200
0000
0000
0000
0000
0000
0000
0000
1300
0100
,
0001
0100
1000
0000
1001
0000
0001
0010
0100
0000
1000
0000
0010
0000
0002
0003
,
0002
0003
0020
0000
0000
0000
1030
0000
0000
0000
0001
0000
0000
0000
0100
0000
,
1000
0100
0001
0011
0000
1100
0000
1010
,
0000
0000
0101
0000
1000
0001
0100
0000
0010
0000
0000
0000
0010
0000
0000
0000
,
1000
0000
0000
0000
0100
0000
0000
0000
0010
0000
0000
0000
0001
0000
0200
0300
,
0020
0030
0020
0030
0100
0001
0010
0000
1000
0000
0000
0000
0010
0000
0000
0000
,
0100
0000
0000
0000
0010
0000
0000
0000
0001
0000
0000
0000
1000
0010
1000
0010
,
1000
0000
0001
0010
0100
0000
1000
0000
,
0100
0000
0000
0000
0010
0000
0000
0000
0001
0000
0000
0000
0100
0000
0200
0300
,
0002
0003
0002
0003
0010
0100
1000
0000
0100
0000
0000
0000
0001
0000
0000
0000
,
0100
0000
1000
0000
0110
0000
1001
0110
,
0000
0001
0100
0000
0100
1000
0100
0000
,
0100
0000
0001
0000
0100
0000
0000
0000
0100
0000
0010
0000
0100
0001
0010
0001
,
1000
1000
0010
0000
0010
0100
0010
0000
,
0010
0001
0010
0000
0010
1000
0010
0000
,
0001
0100
1000
0000
1000
0010
1000
0000
,
1000
0100
1000
0000
1000
0001
1000
0000
,
0010
1000
1000
0000
0001
0001
0000
0100
,
0100
0000
0010
0010
0000
1000
0100
0010
,
0001
1001
0000
0000
0000
0110
1001
0000
,
0110
0000
0000
0000
,
0000
0011
0000
0000
0000
1100
0011
0000
,
1100
0000
0000
0000
,
0000
1010
0000
0000
0000
0101
1010
0000
,
0101
0000
0000
0000
,
0000
0101
0000
0000
0000
1010
1001
0000
,
0110
0000
0000
0000
0002
0000
2000
3003
0000
0000
0000
0000
1000
0001
0100
0000
,
0010
0000
1000
0100
0010
0000
0001
0000
1000
0010
0100
0000
0001
0000
1000
0100
,
0010
0000
0001
0000
1000
0010
0100
0000
0001
0100
0010
0000
0010
0100
0001
0000
,
1000
0000
0001
0010
0100
0000
1000
0000
0001
0100
0010
0000
1000
0000
0001
0010
,
0100
0000
1000
0000
0001
0010
0001
0000
0100
0010
0100
0000
0001
0100
0010
0000
,
1000
0000
0100
0010
0001
0000
1000
0000
0010
1000
0100
0000
1000
0000
0001
0010
,
0001
0000
0100
0000
0010
1000
0001
1000
0010
0100
0010
0000
1000
0000
0000
0100
,
0010
0000
0100
0000
0001
0000
0000
0100
0010
0000
0100
0000
1000
0000
0010
0000
,
0100
0001
0100
0000
0010
0000
1000
0000
0100
0000
0020
0000
0031
0000
1000
0000
,
0010
0100
0001
0000
0010
0000
0100
1000
0001
0000
0100
0000
0010
1000
0001
0000
,
0010
0000
0100
0010
0001
0000
0100
0010
0100
0000
0001
0010
0100
0000
1000
0000
,
0010
0100
0010
0000
1000
0000
0100
0010
0100
0000
1000
0000
0001
0100
0010
0000
,
0100
0000
0001
0010
1000
0000
0010
0001
0100
0000
0010
1000
0100
0000
0010
0000
,
0100
1000
0010
0000
0100
0000
0010
1000
0001
0000
0100
0000
0010
1000
0001
0000
,
0010
0000
0100
1000
0001
0000
1000
0010
0100
0000
0101
0000
0000
0010
0000
0000
,
1000
0000
1100
0000
0000
0010
0000
0000
0100
0000
0011
0000
0000
0100
0000
0000
,
1000
0000
1001
0000
0000
0010
0000
0000
0100
0000
0101
0000
0101
0000
0000
0000
,
1001
0000
1010
1010
0000
1100
0000
0110
,
0110
0000
0011
0000
0101
0101
0000
0110
,
0000
1010
1010
0000
1100
0000
1001
1001
,
0000
0110
0000
0101
0101
1001
1100
1010
,
0101
0011
0000
0000
0000
0001
0100
0010
,
1000
0100
1000
0001
0100
0010
1000
0100
,
0001
0100
0010
0100
1000
0000
0001
0000
0100
0000
1000
0000
0100
0000
0001
0000
,
0010
0000
1000
0000
0001
0000
0100
0000
1000
0000
0001
0000
0100
0000
0010
1000
,
0001
0000
0000
0000
0000
0000
0000
0000
0000
0000
0000
0000
0000
0000
0000
0000
0010
0000
0000
0000
0000
0000
0000
0000
0000
0000
0000
0000
0000
0000
0000
0000
0100
0000
0000
0000
0000
0000
0000
0000
0000
0000
0000
0000
0000
0000
0000
0000
0000
0000
0000
0000
0000
0000
0000
0000
0000
0000
0000
0000
1000
0000
0000
0000
0000
0000
0000
0000
0000
0000
0000
0000
0000
0000
0000
0000
0000
0000
0000
0000
0000
0000
0000
0000
0000
0000
0000
0000
0000
0000
0000
0000
0001
0000
0000
0000
0000
0000
0000
0000
0000
0000
0000
0000
0000
0000
0000
0000
0000
0000
0000
0000
0000
0000
0000
0000
0000
0000
0000
0000
0000
0000
0000
0000
0000
0000
0000
0000
0000
0100
0000
0000
0000
0000
0000
0000
0000
0000
0000
0000
0000
0000
0000
0000
0000
0000
0000
0000
0000
0000
0000
0000
0000
0000
0000
0000
0000
0000
0000
0000
0000
0000
0000
0000
0000
0000
0000
0000
0000
0000
0000
0000
0000
0000
0000
0000
0000
0000
0000
0000
0000
0000
0000
0000
0000
0000
0000
0000
0000
0000
0000
0000
;

//---------------dance-double - ----------------
#NOTES:
     dance-double:
     :
     Easy:
     8:
     0.371312,0.435159,0.147124,0.000000,0.004904,265.000000,250.000000,15.000000,0.000000,0.000000,0.000000,0.371312,0.435159,0.147124,0.000000,0.004904,265.000000,250.000000,15.000000,0.000000,0.000000,0.000000:
00000000
00000000
00000000
00000000
,
00000001
00000010
00000100
00001000
,
00000001
00000100
00000010
00000000
,
00001000
00000100
00000010
00000100
,
00001000
00000010
00000100
00000000
,
00010000
00100000
01000000
10000000
,
00100000
01000000
00010000
00000000
,
10000000
01000000
00100000
00010000
,
00100000
01000000
00100000
00000000
,
00011000
00000000
00000000
00000000
00000000
00000100
00000000
00000100
,
00000000
00000000
00000000
00000000
,
00011000
00000000
00000000
00000000
00000000
00100000
00000000
00100000
,
00000000
00000000
00000000
00000000
,
01001000
00000000
00000000
00000000
00000000
00010000
00000000
00010000
,
00000000
00000000
00000000
00000000
,
00010100
00000000
00000000
00000000
00000000
00001000
00000000
00001000
,
00000000
00000010
00001000
00000100
,
00000010
00000100
00001000
00000001
,
00000100
00000000
00001000
00010000
,
00100000
00010000
00001000
00100000
,
00010000
00000000
10000000
01000000
,
00010000
01000000
10000000
00100000
,
01000000
00000000
10010000
00000000
,
00100000
01000000
00000000
00010000
,
10010000
00000000
00000000
01000000
00000000
00000000
00000000
00100000
,
00000000
00000000
00000000
01000000
00000000
00010000
00000000
00100000
,
00000000
00000000
00000000
00001000
00000000
00000000
00000000
00010000
,
00000000
00000000
00000000
00001000
00000000
00010000
00000000
00000100
,
00000000
00000000
00000000
00000101
00000000
00000000
00000000
00000001
,
00000000
00001000
00000000
00000100
00000000
00010000
00000000
00100000
,
00000000
00100000
00000000
10000000
00000000
00000000
00000000
10000000
,
00000000
00100000
00000000
10000000
00000000
00000000
00000000
01000000
,
00000000
00000000
00000000
10000000
00100000
00000000
10000000
00000000
,
00100000
10000000
00100000
01000000
,
00010000
00000000
00000000
00100000
01000000
00000000
00100000
00000000
,
01000000
10000000
01000000
00100000
,
00010000
00000000
00000000
00001000
00000100
00000000
00010000
00000000
,
00000100
00001000
00000100
00000010
,
00000001
00000000
00000000
00000100
00000010
00000000
00001000
00000000
,
00000010
00000100
00000001
00000010
,
00000000
00000001
00001000
00000000
00001000
00000000
00000001
00000000
,
00000001
00001000
00001000
00000100
,
00000000
00010000
00000100
00000000
00000100
00000000
00010000
00000000
,
00010000
00001000
00001000
00010000
,
00000000
00100000
01000000
00000000
01000000
00000000
00010000
00000000
,
00010000
10000000
10000000
01000000
,
00000000
00100000
00000000
00000000
00100000
00000000
00000000
00100000
,
00000000
00000000
00100000
00000000
00000000
00100000
00000000
01000000
,
00000000
10010000
00000000
00000000
00000000
00000000
00100000
00000000
,
00100000
00000000
00000000
00000000
,
00000000
00011000
00000000
00000000
00000000
00000000
00000100
00000000
,
00000100
00000000
00000000
00000000
,
00000000
00011000
00000000
00000000
00000000
00000000
01000000
00000000
,
01000000
00000000
00000000
00000000
,
00000000
00011000
00000000
00000000
00000000
00000000
00000100
00000000
,
00000010
00000001
00000000
00001000
,
00000100
00000010
00000001
00000100
,
00000010
00001000
00000100
00000010
,
00001000
00010000
00000100
00010000
,
00001000
00010000
00100000
10000000
,
01000000
00100000
00010000
00100000
,
01000000
10000000
00100000
00010000
,
00000000
00010000
00000000
00001000
,
00010000
00000000
00011000
00000000
00000000
00000000
00000000
00000100
,
00000000
00001000
00000000
00000100
00000000
00001000
00000000
00000001
,
00000000
00000100
00000000
00000010
00000000
00010000
00000000
00001000
,
00000000
00010000
00000000
00001000
00000000
00010000
00000000
00100000
,
00000000
10000000
00000000
00100000
00000000
10000000
00000000
01000000
,
00000000
00100000
00000000
00010000
00000000
10000000
00000000
01000000
,
00000000
00100000
00000000
00010000
00000000
00001000
00000000
00000000
,
00000000
00001000
00000000
00000000
00000000
00010000
00000000
00000000
,
00000000
00010000
00000000
00000000
00000000
00100000
00000000
00000000
,
00100000
00000000
00000000
01000000
00000000
10000000
00000000
10000000
,
00000000
00000000
10000000
00000000
00000000
00100000
00000000
00010000
,
00000000
00010000
00000000
00000000
00001000
00000000
00000000
00001000
,
00000000
00010000
00000000
00000100
00000000
00010100
00000000
00011000
,
00000000
00001010
00000000
00000000
00000000
00000001
00000000
00000100
,
00000000
00000001
00000000
00000100
00000000
00000010
00000000
00001000
,
00000000
00000100
00000000
00000000
00000000
00010000
00000000
00100000
,
00000000
01000000
00000000
00010000
00000000
00100000
00000000
01000000
,
00000000
00000000
00000000
10000000
00000000
00000000
00000000
00000000
00000000
00000000
00000000
00000000
00000000
00000000
00000000
00000000
00010000
00000000
00000000
00000000
00000000
00000000
00000000
00000000
;

//---------------dance-double - ----------------
#NOTES:
     dance-double:
     :
     Medium:
     11:
     0.570280,0.633245,0.568878,0.039233,0.024521,407.000000,349.000000,58.000000,4.000000,0.000000,0.000000,0.570280,0.633245,0.568878,0.039233,0.024521,407.000000,349.000000,58.000000,4.000000,0.000000,0.000000:
00000000
00000000
00000000
00000000
,
00000001
00000010
00000100
00001000
,
00000001
00000000
00000010
00000000
00000100
00000010
00000001
00000000
,
00000100
00001000
00000100
00000001
,
00000010
00000000
00000100
00001000
00000001
00000000
00000100
00000000
,
00001000
00010000
00100000
10000000
,
01000000
00000000
10000000
00000000
00010000
00100000
01000000
00000000
,
10000000
00100000
00010000
00100000
,
01000000
00000000
00010000
00000000
00100000
00001000
00010000
00000000
,
00011000
00000000
00000000
00000000
00000000
00001100
00000000
00001100
,
00000000
00000000
00000000
00000000
,
00000101
00000000
00000000
00000000
00000000
00000011
00000000
00000011
,
00000000
00000000
00000000
00000000
,
00001100
00000000
00000000
00000000
00000000
00010100
00000000
00010100
,
00000000
00000000
00000000
00000000
,
00011000
00000000
00000000
00000000
00000000
01010000
00000000
01010000
,
00000000
02200000
03300000
00000000
10000000
00000000
00100000
00000000
,
10000000
01000000
00100000
00000000
01100000
00000000
00110000
00000000
,
00011000
00001100
00000001
00000010
,
00000100
00000010
00000001
00000000
00000100
00000000
00000010
00000000
,
00001100
00000000
00010000
10000000
,
00100000
10000000
00010000
00000000
01000000
00000000
00100000
00000000
,
10100000
01010000
00101000
00000000
,
00010000
00100000
01000000
00000000
10010000
00000000
00100000
00000000
,
10010000
00000000
00000000
01000000
00000000
00100000
00000000
00010000
,
00000000
00100000
00000000
10000000
00000000
00100000
00000000
00010000
,
00001000
00000100
00000000
00000001
00000000
00000010
00000000
00001000
,
00000000
00000010
00000000
00000001
00000000
00000010
00000000
00001000
,
00010000
00100000
00000000
11000000
00000000
00000000
00000000
00010000
,
01000000
00100000
00000000
10000000
01000000
00100000
00000000
00010000
,
00010000
10000000
00000000
10000000
00000000
01100000
00000000
00010000
,
10000000
01000000
00000000
00100000
00000000
01100000
00000000
10000000
,
00000000
10010000
00000000
00100000
01000000
00000000
00010000
00000000
,
01000000
00000000
00100000
00000000
00010000
00000000
00001000
00010000
,
00001000
00010000
00000000
00000100
00000010
00000000
00000001
00000000
,
00000010
00001000
00010000
00100000
,
10000000
00000000
01000000
00100000
00010000
00000000
00001000
00000000
,
00000100
00010000
00100000
01000000
,
00010000
00000000
10000000
01000000
00010000
00000000
01000000
00000000
,
10000000
00100000
10010000
00110000
,
00000000
00001000
00010000
00000000
00010000
00001000
00010000
00000000
,
00010000
00000000
00100000
00000000
00010000
00001000
00010000
00000000
,
00000000
00000100
00000010
00000000
00000010
00000100
00000010
00000000
,
00000100
00000000
00000010
00000000
00000001
00000100
00001000
00000000
,
00010000
00100000
01000000
00000000
01000000
00010000
01000000
00000000
,
00100000
10000000
01000000
00100000
,
00000000
00010000
00010000
00000000
00001000
00001000
00000000
00000100
,
00000100
00000000
00000010
00000010
00000000
00000001
00000100
00000010
,
00000000
00001001
00000000
00000000
00000000
00000000
00000110
00000000
,
00001100
00000000
00000000
00000000
,
00000000
00011000
00000000
00000000
00000000
00000000
00011000
00000000
,
00110000
00000000
00000000
00000000
,
00000000
01100000
00000000
00000000
00000000
00000000
11000000
00000000
,
10010000
00000000
00000000
00000000
,
00000000
00110000
00000000
00000000
00000000
00000000
00011000
00000000
,
00011000
00000000
00022000
00033000
00000000
00000000
00001000
00010000
,
00100000
10000000
00100000
00010000
00001000
00100000
00010000
00001000
,
00010000
00000000
00001000
00000100
00001000
00000000
00000010
00000100
,
00000001
00000010
00001000
00000010
00000001
00000100
00001000
00010000
,
00100000
00000000
10000000
01000000
00100000
00000000
00010000
10000000
,
00100000
00010000
00100000
10000000
01000000
00100000
00010000
00001000
,
00000100
00010000
00001000
00010000
00000100
00000000
00000010
00000001
,
00000010
00000000
00000100
00000010
00000100
00000000
00010000
00001000
,
00010000
00100000
10000000
01000000
00100000
00010000
00000000
00010000
,
01000000
10000000
01000000
00010000
01000000
10000000
01000000
00010000
,
00000000
00100000
01000000
00100000
00000000
00010000
00001000
00000100
,
00001000
00010000
00001000
00000100
00001000
00010000
00001000
00000010
,
00000000
00000100
00000001
00000010
00000000
00000001
00000010
00001000
,
00000010
00000001
00000010
00001000
00000010
00000100
00000010
00000001
,
00000000
00001000
00000100
00010000
00000000
00001000
00000000
00001000
,
00000000
00010000
00000000
00010000
00000000
00001000
00000000
00001000
,
00000000
00010000
00000000
00010000
00000000
10100000
00000000
00000000
,
11000000
00000000
00000000
01100000
00000000
00110000
00000000
00101000
,
00000000
00000000
00010100
00000000
00000000
00001010
00000000
00000101
,
00000000
00000011
00000000
00000000
00000011
00000000
00000000
00010100
,
00000000
00001100
00000000
00001010
00000000
00010100
00000000
01001000
,
00000000
00010100
00000000
00000000
00000000
00000001
00000000
00000100
,
00000000
00000010
00000000
00000100
00000000
00000001
00000000
00000010
,
00000000
00000001
00000100
00001000
00000000
00010000
00000000
00100000
,
00000000
10000000
00000000
01000000
00000000
00100000
00000000
00010000
,
00000000
00000000
00000000
00000000
00000000
00000000
00000000
00000000
00000000
00000000
00000000
00000000
00000000
00000000
00000000
00000000
00001000
00000000
00000000
00000000
00000000
00000000
00000000
00000000
00000000
00000000
00000000
00000000
00000000
00000000
00000000
00000000
00000100
00000000
00000000
00000000
00000000
00000000
00000000
00000000
00000000
00000000
00000000
00000000
00000000
00000000
00000000
00000000
00000000
00000000
00000000
00000000
00000000
00000000
00000000
00000000
00000000
00000000
00000000
00000000
00010000
00000000
00000000
00000000
00000000
00000000
00000000
00000000
00000000
00000000
00000000
00000000
00000000
00000000
00000000
00000000
00000000
00000000
00000000
00000000
00000000
00000000
00000000
00000000
00000000
00000000
00000000
00000000
00000000
00000000
00000000
00000000
00001000
00000000
00000000
00000000
00000000
00000000
00000000
00000000
00000000
00000000
00000000
00000000
00000000
00000000
00000000
00000000
00000000
00000000
00000000
00000000
00000000
00000000
00000000
00000000
00000000
00000000
00000000
00000000
00000000
00000000
00000000
00000000
00000000
00000000
00000000
00000000
00000000
00000000
00000000
00000000
00000000
00000000
00000000
00100000
00000000
00000000
00000000
00000000
00000000
00000000
00000000
00000000
00000000
00000000
00000000
00000000
00000000
00000000
00000000
00000000
00000000
00000000
00000000
00000000
00000000
00000000
00000000
00000000
00000000
00000000
00000000
00000000
00000000
00000000
00000000
00000000
00000000
00000000
00000000
00000000
00000000
00000000
00000000
00000000
00000000
00000000
00000000
00000000
00000000
00000000
00000000
00000000
00000000
00000000
00000000
00000000
00000000
00000000
00000000
00000000
;

//---------------dance-double - ----------------
#NOTES:
     dance-double:
     :
     Hard:
     16:
     0.835102,1.029023,0.961208,0.049041,0.308960,596.000000,498.000000,98.000000,5.000000,0.000000,0.000000,0.835102,1.029023,0.961208,0.049041,0.308960,596.000000,498.000000,98.000000,5.000000,0.000000,0.000000:
// measure 0
00000000
00000000
00000000
00000000
,  // measure 1
00000001
00000010
00000001
00000010
00000100
00001000
00000100
00001000
,  // measure 2
00000010
00000100
00000010
00001000
00000100
00000010
00001000
00010000
,  // measure 3
00100000
10000000
00100000
00010000
00100000
10000000
01000000
00100000
,  // measure 4
00010000
00100000
01000000
10000000
00010000
00100000
01000000
01000000
,  // measure 5
00001000
00000100
00000010
00000001
00000100
00000010
00000001
00000010
,  // measure 6
00001000
00000000
00000100
00000000
00000010
00000000
00000100
00000000
00001000
00000000
00000010
00000000
00000000
00000100
00000000
00000000
,  // measure 7
00001000
00000000
00010000
00000000
00100000
00000000
10000000
00000000
01000000
00000000
00100000
00000000
00000000
00010000
00000000
00000000
,  // measure 8
01000000
00100000
10000000
01000000
10000000
00010000
10000000
00000000
,  // measure 9
01100000
00000000
00000000
00000000
00100000
01000000
00000000
10010000
,  // measure 10
00000000
00000000
00000000
00000000
,  // measure 11
00110000
00000000
00000000
00000000
00001000
00010000
00000000
00010100
,  // measure 12
00000000
00000000
00000000
00000000
,  // measure 13
00000101
00000000
00000000
00000000
00000010
00000100
00000000
00001001
,  // measure 14
00000000
00000000
00000000
00000000
,  // measure 15
00000101
00000000
00000000
00000000
00001000
00010000
00000000
00011000
,  // measure 16
00000000
00000000
00022000
00000000
00000000
00033000
00000000
00000000
00001000
00000000
00010000
00000000
00100000
00000000
10000000
00000000
,  // measure 17
01000000
00000000
00100000
01000000
00000000
00100000
01000000
00000000
00100000
00000000
00010000
00000000
01000000
00000000
00000000
00000000
,  // measure 18
00100000
00010000
00001000
00000000
00000110
00000000
00000001
00000010
,  // measure 19
00000100
00000000
00000010
00000100
00000000
00000010
00000100
00000000
00001000
00000000
00000100
00000000
00010000
00000000
00000000
00000000
,  // measure 20
00001000
00010000
00100000
00000000
11000000
00000000
00100000
00010000
,  // measure 21
10000000
00000000
00010000
10000000
00000000
00010000
10000000
00000000
00100000
00000000
00010000
00000000
00100000
00000000
00000000
00000000
,  // measure 22
00010000
00010000
00000100
00000000
00000110
00000000
00000001
00001000
,  // measure 23
00000010
00000000
00011000
00000000
00010000
00100000
01000000
00000000
,  // measure 24
10010000
00000000
00000000
01100000
00000000
00010000
00100000
01000000
,  // measure 25
00100000
00010000
00000000
00100000
00010000
00000000
00001000
00000000
00001000
00000000
00000100
00000000
00000000
00000000
00000010
00000000
,  // measure 26
00000100
00000001
00000000
00000110
00000000
00000100
00001000
00000010
,  // measure 27
00000100
00000010
00000000
00000100
00000010
00000000
00001000
00000000
00000100
00000000
00000010
00000000
00001000
00000000
00010000
00000000
,  // measure 28
00000000
00000000
00100000
00000000
10000000
00000000
02000000
00000000
00000000
00000000
03010000
00000000
00000000
00000000
00100000
01000000
,  // measure 29
00010000
00100000
00001000
00000000
00000100
00000000
00000001
00000000
00000010
00000000
00001000
00000000
00010000
00000000
00100000
00000000
,  // measure 30
00100000
10000000
00000000
11000000
00000000
00100000
00010000
01000000
,  // measure 31
00000000
10010000
00000000
01000000
00001000
00010000
00000000
00101000
,  // measure 32
00000000
00010100
00000000
00000010
00000100
00000000
00000101
00000000
,  // measure 33
00001010
00000000
00010100
00000000
00101000
00000000
00010000
00100000
,  // measure 34
01000000
01000000
10000000
00100000
10000000
00000000
11000000
00000000
,  // measure 35
01010000
00110000
00011000
00010100
,  // measure 36
00001010
00000000
00000001
00000010
00000100
00000000
00001100
00000000
,  // measure 37
00011000
00000000
00110000
00000000
11000000
00000000
10000000
00010000
,  // measure 38
01000000
01000000
00100000
00010000
00001000
00000000
00010100
00000000
,  // measure 39
00011000
00010100
00001100
00000011
,  // measure 40
00000000
00000001
00000100
00000000
00001100
00000000
00011000
00000000
,  // measure 41
00001100
00101000
00011000
00101000
,  // measure 42
00010000
10000000
01000000
00000000
10100000
00000000
00110000
00000000
,  // measure 43
01100000
00101000
01100000
10000000
,  // measure 44
00100000
00010000
00001000
00000000
00011000
00000000
00010100
00000000
,  // measure 45
00110000
00011000
00010100
00001010
,  // measure 46
00000001
00000010
00000010
00000000
00001000
00001000
00000000
00010000
,  // measure 47
00010000
00000000
01000000
01000000
00000000
10000000
00100000
00010000
,  // measure 48
00001000
00000110
00000000
00000000
00000000
00000001
00001000
00000000
,  // measure 49
00000110
00000000
00000000
00000000
,  // measure 50
00000000
00001100
00000000
00000000
00000000
10000000
00100000
00000000
,  // measure 51
11000000
00000000
00000000
00000000
,  // measure 52
00000000
01100000
00000000
00000000
00000000
00001000
00000100
00000000
,  // measure 53
00000011
00000000
00000000
00000000
,  // measure 54
00000000
00000101
00000000
00000000
00000000
00010000
00100000
00000000
,  // measure 55
11000000
00000000
00000000
00000000
20020000
00000000
30030000
00000000
00000000
00000000
00000000
00000000
10000000
01000000
00100000
00000000
,  // measure 56
00010000
00000000
01000000
00100000
10000000
00000000
01000000
00000000
00100000
00010000
01000000
00000000
00100000
00000000
01000000
00010000
,  // measure 57
00100000
00000000
01000000
00000000
00100000
00010000
01000000
00000000
00100000
01000000
00010000
00000000
00100000
00010000
00001000
00000000
,  // measure 58
00000100
00000000
00001000
00000010
00000100
00000000
00001000
00000000
00000100
00000010
00001000
00000000
00000100
00000000
00001000
00000010
,  // measure 59
00000100
00000000
00001000
00000000
00000001
00000010
00000100
00000000
00000010
00000100
00001000
00000000
00010000
00001000
01000000
00000000
,  // measure 60
00100000
00000000
00010000
00100000
01000000
00000000
00010000
00000000
00100000
01000000
10000000
00000000
00100000
00000000
01000000
00010000
,  // measure 61
00100000
00000000
01000000
00000000
10000000
00100000
01000000
00000000
00100000
00010000
00001000
00000000
00001000
00000000
00000000
00000001
,  // measure 62
00000100
00000000
00000010
00000000
00000100
00000000
00000000
00001000
00010000
00000000
00110000
00000000
10000000
00000000
00100000
01000000
,  // measure 63
00010000
00000000
10000000
00000000
00010000
10000000
01000000
00000000
00100000
00000000
00010000
00000000
00000000
00000000
00100000
00010000
,  // measure 64
01000000
00000000
00100000
00000000
10000000
00000000
01000000
00100000
00010000
00000000
00100000
00000000
01000000
10000000
00010000
00000000
,  // measure 65
00100000
00000000
01000000
10000000
00010000
00000000
01000000
10000000
00010000
00000000
00100000
00010000
00001000
00000000
00010000
00000000
,  // measure 66
00001000
00000010
00000100
00000000
00000010
00000000
00000001
00000100
00000010
00000000
00000100
00000000
00000010
00001000
00000100
00000000
,  // measure 67
00000010
00000000
00000100
00001000
00000001
00000000
00000100
00001000
00000001
00000000
00000100
00001000
00010000
00000000
00100000
00000000
,  // measure 68
01000000
10000000
00100000
00000000
01000000
00000000
00100000
01000000
00010000
00000000
00100000
00000000
00010000
01000000
00100000
00000000
,  // measure 69
10000000
00000000
01000000
00100000
00010000
00100000
01000000
00000000
00100000
00000000
00011000
00000000
00000000
00010000
00000100
00000000
,  // measure 70
00001100
00000000
00001001
00000000
00000000
00000001
00000100
00000000
00001100
00000000
00011000
00000000
00000000
01010000
00000000
00000000
,  // measure 71
11000000
00000000
01010000
00000000
00000000
00011000
00000000
00000000
00001100
00000000
00000011
00000000
00000011
00000000
00000000
00000000
,  // measure 72
00000011
00000000
00001010
00001010
00000000
00001010
00000000
00001010
,  // measure 73
00001010
00000000
00011000
00000000
00011000
00011000
00000000
00011000
,  // measure 74
00000000
00110000
00110000
00000000
00110000
00000000
00110000
00110000
,  // measure 75
00000000
11000000
00000000
11000000
11000000
01100000
00010000
00001100
,  // measure 76
00000010
00000001
00000000
00000000
00000000
00000001
00000100
00000010
,  // measure 77
00001000
00000100
00000010
00000001
00000100
00000010
00001000
00000100
,  // measure 78
00000010
00001000
00010000
00100000
10000000
01000000
00010000
00100000
,  // measure 79
00010000
00000000
01000000
00000000
10000000
00000000
00100000
00000000
00010000
00000000
00001000
00000000
00000100
00000000
00001000
00010000
,  // measure 80
00000100
00000000
00000000
00000000
00000000
00000000
00000000
00000000
00000000
00000000
00000000
00000000
00000000
00000000
00000000
00000000
00001000
00000000
00000000
00000000
00000000
00000000
00000000
00000000
00000000
00000000
00000000
00000000
00000000
00000000
00000000
00000000
00000100
00000000
00000000
00000000
00000000
00000000
00000000
00000000
00000000
00000000
00000000
00000000
00000000
00000000
00000000
00000000
00000000
00000000
00000000
00000000
00000000
00000000
00000000
00000000
00000000
00000000
00000000
00000000
00010000
00000000
00000000
00000000
00000000
00000000
00000000
00000000
00000000
00000000
00000000
00000000
00000000
00000000
00000000
00000000
00000000
00000000
00000000
00000000
00000000
00000000
00000000
00000000
00000000
00000000
00000000
00000000
00000000
00000000
00000000
00000000
00001000
00000000
00000000
00000000
00000000
00000000
00000000
00000000
00000000
00000000
00000000
00000000
00000000
00000000
00000000
00000000
00000000
00000000
00000000
00000000
00000000
00000000
00000000
00000000
00000000
00000000
00000000
00000000
00000000
00000000
00000000
00000000
00000000
00000000
00000000
00000000
00000000
00000000
00000000
00000000
00000000
00000000
00000000
00100000
00000000
00000000
00000000
00000000
00000000
00000000
00000000
00000000
00000000
00000000
00000000
00000000
00000000
00000000
00000000
00000000
00000000
00000000
00000000
00000000
00000000
00000000
00000000
00000000
00000000
00000000
00000000
00000000
00000000
00000000
00000000
00000000
00000000
00000000
00000000
00000000
00000000
00000000
00000000
00000000
00000000
00000000
00000000
00000000
00000000
00000000
00000000
00000000
00000000
00000000
00000000
00000000
00000000
00000000
00000000
00000000
;
