#TITLE:Catastrophic Dance;
#SUBTITLE:;
#ARTIST:the wandering bard feat. 志方あきこ;
#TITLETRANSLIT:;
#SUBTITLETRANSLIT:;
#ARTISTTRANSLIT:;
#GENRE:;
#CREDIT:;
#BANNER:;
#BACKGROUND:;
#LYRICSPATH:;
#CDTITLE:cdtitle.png;
#MUSIC:Catastrophic Dance.mp3;
#OFFSET:1.459000;
#SAMPLESTART:33.279999;
#SAMPLELENGTH:15.000000;
#LASTBEATHINT:0.999821;
#SELECTABLE:YES;
#BPMS:0.000000=145.000000
;
#STOPS:
;
#BGCHANGES:;
#KEYSOUNDS:;
#ATTACKS:;

//---------------dance-single - ----------------
#NOTES:
     dance-single:
     :
     Beginner:
     2:
     0.087539,0.146811,0.000000,0.221280,0.000000,72.000000,72.000000,0.000000,26.000000,0.000000,0.000000,0.087539,0.146811,0.000000,0.221280,0.000000,72.000000,72.000000,0.000000,26.000000,0.000000,0.000000:
0000
0000
0000
0000
,
0000
0000
0000
0000
,
0000
0000
0000
0000
,
0000
0000
0000
0000
,
0000
0000
0000
0000
,
2000
0000
0000
0000
,
3200
0000
0000
0000
,
0320
0000
0000
0000
,
0032
0000
0000
0000
,
1003
0000
0000
0000
,
1000
0000
0000
0000
,
0001
0000
0000
0000
,
0001
0000
0000
0000
,
0000
0000
0100
0000
,
0000
0000
0100
0000
,
0000
0000
0010
0000
,
0000
0000
0010
0000
,
1000
0000
0000
0000
,
1000
0000
1000
0000
,
0001
0000
0000
0000
,
0001
0000
0001
0000
,
0200
0000
0000
0000
,
0320
0000
0000
0000
,
2030
0000
0000
0000
,
3002
0000
0000
0000
,
0203
0000
0000
0000
,
0302
0000
0000
0000
,
1003
0000
1000
0000
,
1000
0000
1000
0000
,
2000
0000
0000
0000
,
3020
0000
0000
0000
,
0230
0000
0000
0000
,
0302
0000
0000
0000
,
1003
0000
0000
0000
,
0001
0000
0000
0000
,
0100
0000
0000
0000
,
0001
0000
0000
0000
,
2000
0000
0000
0000
,
3200
0000
0000
0000
,
0310
0000
0010
0000
,
0010
0000
0010
0000
,
0010
0000
0000
0000
,
0000
0000
0000
0000
,
0000
0000
0000
0000
,
0000
0000
0000
0000
,
0100
0000
0000
0000
,
0100
0000
0000
0000
,
0010
0000
0000
0000
,
0010
0000
0000
0000
,
0200
0000
0000
0000
,
0320
0000
0000
0000
,
2030
0000
0000
0000
,
3002
0000
0000
0000
,
0203
0000
0000
0000
,
0320
0000
0000
0000
,
1030
0000
1000
0000
,
1000
0000
0001
0000
,
0002
0000
0000
0000
,
0203
0000
0000
0000
,
0301
0000
1000
0000
,
2000
0000
0000
0000
,
3001
0000
0000
0000
,
0000
0000
0000
0000
,
1000
0000
0000
0000
,
0000
0000
0000
0000
,
0001
0000
0001
0000
,
0100
0000
0100
0000
,
0010
0000
0010
0000
,
1000
0000
2000
0000
,
3000
0000
0000
0000
;

//---------------dance-single - ----------------
#NOTES:
     dance-single:
     :
     Easy:
     6:
     0.229791,0.293622,0.119151,0.331921,0.000000,189.000000,175.000000,14.000000,39.000000,0.000000,0.000000,0.229791,0.293622,0.119151,0.331921,0.000000,189.000000,175.000000,14.000000,39.000000,0.000000,0.000000:
0000
0000
0000
0000
,
0000
0000
0000
0000
,
0000
0000
0000
0000
,
0000
0000
0000
0000
,
0000
0000
0000
0000
,
2001
0000
0000
0000
,
3020
0000
0000
0000
,
0230
0000
0000
0000
,
0302
0000
0000
0000
,
1003
1000
0010
0010
,
0100
0001
1000
0000
,
0001
0001
0100
0100
,
1000
0100
0001
0000
,
0010
0100
0010
0100
,
1000
0001
0100
0010
,
1000
0001
1000
0010
,
0100
0001
0010
0000
,
1002
0000
0000
0100
,
0000
1003
1000
0000
,
2100
0000
0000
0001
,
0000
3010
0010
0000
,
0102
0000
0010
0010
,
0203
0000
0010
0010
,
0302
0000
1000
1000
,
0103
0001
0010
1000
,
0102
0000
0000
0000
,
2003
0000
0100
3100
,
1001
0001
0100
0010
,
0100
1000
0100
0001
,
2000
0000
0010
0001
,
3020
0000
0100
0100
,
2030
0000
0100
0000
,
3002
0000
0010
0000
,
0203
0000
0010
0010
,
0302
0000
1003
0000
,
0200
0000
0010
0310
,
0002
2003
3200
0320
,
0032
0000
1000
0000
,
0203
0000
0010
0310
,
1001
0000
0110
0000
,
0001
0010
0100
1000
,
1001
0000
0000
0000
,
0100
0000
0000
0000
,
0010
0000
0000
0000
,
0100
0000
0000
0000
,
0001
0000
0001
0000
,
1000
0000
1000
0000
,
0010
0000
0100
0000
,
0010
1000
0001
0100
,
1002
0000
1000
0100
,
2003
0000
0001
0100
,
3002
0000
0010
0100
,
2003
0000
0010
0000
,
3002
0010
0100
0100
,
0203
0010
0001
0301
,
1001
0000
1100
0000
,
0001
0010
0100
1000
,
1020
0000
0100
0000
,
2030
0000
0100
0001
,
3002
0010
2003
0100
,
3010
0100
0001
0010
,
1001
0000
0002
0000
,
0103
0000
0200
0000
,
0310
0000
0020
0000
,
1030
0000
2000
0000
,
3001
0010
0100
1000
,
1000
0100
0010
0001
,
0100
1000
0010
0100
,
0001
0010
1000
0002
,
0003
0000
0000
0000
;

//---------------dance-single - ----------------
#NOTES:
     dance-single:
     :
     Medium:
     10:
     0.362316,0.469795,0.212770,0.400007,0.042554,298.000000,273.000000,25.000000,47.000000,0.000000,0.000000,0.362316,0.469795,0.212770,0.400007,0.042554,298.000000,273.000000,25.000000,47.000000,0.000000,0.000000:
0000
0000
0000
0000
,
0000
0000
0000
0000
,
0000
0000
0000
0000
,
0000
0000
0000
0000
,
0000
0000
0000
0000
,
0102
0000
1000
0000
,
2003
0000
0010
0000
,
3020
0000
0100
0000
,
2030
0000
0001
0000
,
3010
0000
1000
0000
0001
0010
0001
0000
,
0100
0010
1000
0000
0100
0010
0001
0000
,
1000
0000
0100
0000
1000
0010
0100
0000
,
0010
0100
0001
0000
0010
0001
0100
0000
,
0102
1000
0010
1003
,
2000
0100
0001
3010
,
0100
0001
1000
0000
0001
0010
0100
1000
,
0001
0000
0000
0100
0000
0000
0010
0000
1000
0000
0000
0000
0001
0000
0000
0000
,
0101
0000
0000
0001
0000
0000
1000
0000
0000
0001
0000
0000
0100
0000
0100
0000
,
0000
0001
0010
0100
,
1100
0000
0000
0001
0000
0000
0100
0000
0000
1000
0000
0000
0100
0000
0010
0000
,
0000
0001
1000
1001
,
0120
1000
0100
1000
,
0230
0001
0010
0001
,
0302
0010
1000
0010
,
2003
0100
3020
0001
,
0230
1000
0010
0001
,
0320
0001
0100
1030
,
0102
0013
2100
3010
,
0101
1100
0011
1001
,
0102
1000
0010
0100
,
0023
0000
0100
0001
,
0230
1000
0010
1000
,
0320
0001
0100
0031
,
1002
0000
0010
0010
,
0203
0010
0001
0010
,
0302
0010
1000
0103
,
2100
3001
0012
0103
,
2001
0100
0010
3100
,
0012
0100
1000
0013
,
0001
0010
0001
0100
0010
1000
0100
0010
,
0002
2003
3002
0203
,
0310
0000
0000
0010
0000
0000
0000
0000
0000
0000
0000
0000
0000
0000
0000
0000
,
0010
0000
0000
0000
,
1000
0000
0000
0000
,
0001
0000
0100
0000
,
0001
0100
0000
0001
1000
0000
0100
0000
,
0020
0100
0032
1000
,
0103
0000
0000
0000
0010
0000
0000
0000
0100
0000
0000
0010
0000
0000
1000
0000
,
0100
0000
0000
0100
0000
0000
1000
0000
0001
0000
0000
0000
0100
0000
0000
0000
,
1000
0001
1000
0000
0010
0100
0010
0000
,
1000
0100
0010
0000
0001
0100
0010
0000
,
1002
0100
0010
1003
,
2100
3010
0102
0013
,
0100
1000
0100
0000
1000
0010
0100
0000
,
0001
0100
0010
0000
1000
0001
0010
0000
,
0102
1003
2100
3001
,
0001
1000
0001
1000
0010
0100
0010
0000
,
1200
0010
0001
0310
,
0201
1000
0010
0301
,
1000
0100
1000
0001
0100
0010
1000
0000
,
0001
0000
0000
0001
0000
0000
1000
0000
0000
1000
0000
0000
0010
0000
0100
0000
,
0002
0000
0203
0000
,
2300
0000
3200
0000
,
0302
0000
2003
0000
,
3020
0000
0130
0000
,
0001
1000
0100
1000
,
0010
0100
0001
1000
0100
0000
0010
0000
,
0001
0010
0100
1000
0010
0100
0001
0010
,
0100
0010
0001
0100
0010
1000
0001
0200
,
0300
0000
0000
0000
;

//---------------dance-single - ----------------
#NOTES:
     dance-single:
     :
     Hard:
     13:
     0.588460,0.851504,0.297877,0.212770,0.319154,484.000000,449.000000,35.000000,25.000000,0.000000,0.000000,0.588460,0.851504,0.297877,0.212770,0.319154,484.000000,449.000000,35.000000,25.000000,0.000000,0.000000:
0000
0000
0000
0000
,
0000
0000
0000
0000
,
0000
0000
0000
0000
,
0000
0000
0000
0000
,
0000
0000
0000
0000
,
2001
0010
0100
3001
,
0102
0010
1000
0103
,
0120
0100
0001
0031
,
0201
0010
1000
0310
,
1000
0000
0100
0000
0010
0000
0001
0000
0100
0001
0100
0000
0010
0000
0000
0000
,
1000
0000
0100
0000
0010
0000
0001
0000
1000
0001
1000
0000
0010
0000
0000
0000
,
0100
0000
0001
0000
0010
0000
0001
0000
1000
0001
1000
0000
0100
0000
0000
0000
,
1000
0000
0010
0000
0100
0000
0001
0000
0010
0100
1000
0000
0001
0000
0000
0000
,
1000
0001
0010
0001
1000
0001
0010
0100
,
1000
0010
1000
0000
0100
0010
0001
0000
,
1000
0100
1000
0010
0100
0001
0010
0100
,
0010
0000
0000
0101
0000
0000
1000
0000
0100
0000
0000
0000
0010
0000
0000
0000
,
0101
0000
0000
0001
0000
0000
1001
0000
0000
0001
0000
0000
0100
0000
0010
0000
,
0000
0000
0100
0000
0001
0000
0010
0000
0100
0000
0000
1000
0000
0000
0001
0000
,
0101
0000
0000
0001
0000
0000
1001
0000
0000
0001
0000
0000
0011
0000
0011
0000
,
0000
0000
0001
0000
1000
0000
0100
0000
0010
0000
0000
0100
0000
0000
1000
0000
,
0001
0100
0010
0100
1000
0100
0010
0100
,
0001
0010
0100
0010
1000
0010
0100
0010
,
0001
1000
0010
1000
0100
1000
0001
1000
,
0010
0100
0001
0010
0100
1000
0001
1000
,
0100
0010
0001
0010
1000
0010
0001
0010
,
0100
1000
0010
0100
0010
1000
0001
0010
,
1001
0000
0000
0000
0100
0000
0001
0000
1001
0000
0000
0001
0100
0000
0001
1000
,
0010
0000
0100
0000
0001
0000
0010
0000
0001
1000
0001
1000
0001
0000
0100
0000
,
0010
1000
0010
0000
1000
0100
1000
0000
0100
0010
0100
0000
0010
0001
0010
0000
,
0001
1000
0001
0000
1000
0100
1000
0000
0010
0100
0010
0000
0100
0001
0100
0000
,
0012
1000
0100
0013
,
2100
0001
0010
3100
,
0012
0103
2100
3010
,
0102
0000
0013
0000
0100
0010
0100
0010
,
1002
0013
0210
1300
,
0110
0101
1001
0110
,
0001
0010
0100
1000
0100
0001
0100
1000
,
0010
0001
0010
1000
0001
0010
0100
1000
,
0001
0000
1000
0000
0010
0000
0100
0000
0001
0100
0001
0000
1000
0100
1000
0000
,
0010
0100
0001
0100
0001
0100
0001
0010
0100
1000
0100
0010
0001
0100
0010
1000
,
0001
0000
0000
1000
0000
0000
0000
0000
0010
0000
0000
0000
0000
0000
0000
0000
,
0100
0000
0000
0000
,
0001
0000
0001
0000
,
1000
1000
1000
1000
,
0001
0100
0000
1000
0100
0000
0012
0000
,
1003
0000
0100
1000
0010
0000
0102
0000
,
1003
0000
0100
1000
0010
0100
0001
0010
,
0100
0000
0000
1001
0000
0000
0100
0000
0010
0000
0000
0000
1000
0000
0000
0000
,
0001
1000
0100
0000
1000
0100
1000
0000
0010
0100
0010
0000
0100
0001
0100
0000
,
0001
0010
0001
0000
1000
0100
1000
0000
0010
0100
0010
0000
0100
0001
0100
0000
,
1002
0010
0100
0013
,
2100
3001
0102
0013
,
1000
0100
1000
0000
0010
0100
0010
0000
0100
0001
0100
0000
0001
0010
0100
0000
,
1000
0010
1000
0000
0010
0100
0010
0000
0100
0001
0010
0000
0100
1000
0010
0000
,
0100
0001
0100
0010
1000
0001
0010
0100
,
1000
0001
0010
0000
0100
1000
0100
0000
1000
0010
0100
0010
0100
0001
0010
0100
,
1000
0001
0100
0010
1000
0001
0010
0100
,
0010
0001
0100
1000
0001
0100
1000
0001
,
0011
0000
1000
0000
0100
0000
1000
0000
0010
0100
0001
0100
0010
1000
0001
1000
,
0010
0000
0000
1000
0000
0000
0100
0000
0000
0010
0000
0000
1001
0000
0010
0000
,
0200
0000
0302
0000
,
2003
0000
3200
0000
,
0320
0000
0230
0000
,
2300
0000
3001
0000
,
1000
0100
0010
0001
0100
0010
1000
0100
,
0010
0001
0100
0000
0001
0010
0100
0000
1000
0010
0100
0000
0001
0100
0010
0000
,
1000
0100
0010
0001
0100
0010
1000
0100
0010
0001
1000
0001
0010
0100
1000
0010
,
0100
1001
1100
0202
,
0303
0000
0000
0000
;

//---------------dance-double - ----------------
#NOTES:
     dance-double:
     :
     Easy:
     5:
     0.199395,0.264260,0.017022,0.263834,0.000000,164.000000,162.000000,2.000000,31.000000,0.000000,0.000000,0.199395,0.264260,0.017022,0.263834,0.000000,164.000000,162.000000,2.000000,31.000000,0.000000,0.000000:
// measure 0
00000000
00000000
00000000
00000000
,  // measure 1
00000000
00000000
00000000
00000000
,  // measure 2
00000000
00000000
00000000
00000000
,  // measure 3
00000000
00000000
00000000
00000000
,  // measure 4
00000000
00000000
00000000
00000000
,  // measure 5
20000000
00000000
00000000
00000000
,  // measure 6
30200000
00000000
00000000
00000000
,  // measure 7
00320000
00000000
00000000
00000000
,  // measure 8
02030000
00000000
00000000
00000000
,  // measure 9
13000000
00010000
01000000
00000000
,  // measure 10
01000000
00000000
01000000
00000000
,  // measure 11
00001000
00010000
00001000
00000000
,  // measure 12
00010000
00000000
00001000
00000000
,  // measure 13
00010000
00000100
00010000
00000100
,  // measure 14
00001000
00000010
00001000
00000000
,  // measure 15
00000100
00000010
00000001
00000100
,  // measure 16
00000010
00000010
00000010
00000000
,  // measure 17
00001001
00000000
00000000
00000000
,  // measure 18
00000001
00000000
00001000
00000000
,  // measure 19
00001001
00000000
00000000
00000000
,  // measure 20
00000010
00000000
00000100
00000000
,  // measure 21
00000001
00000010
00000100
00001000
,  // measure 22
00000010
00000100
00001000
00010000
,  // measure 23
00000100
00001000
00010000
00100000
,  // measure 24
00001000
00010000
00100000
01000000
,  // measure 25
00020000
00000000
00000000
00000000
,  // measure 26
20030000
00000000
30020000
00000000
,  // measure 27
01030000
01000000
00100000
00100000
,  // measure 28
10000000
01000000
00010000
00100000
,  // measure 29
20000000
00000000
00010000
00000000
,  // measure 30
30020000
00000000
01030000
00001000
,  // measure 31
00020000
00000000
00000000
00000000
,  // measure 32
00032000
00000000
00000000
00000000
,  // measure 33
00003200
00000000
00000302
00000000
,  // measure 34
00002003
00000000
00003100
00000100
,  // measure 35
00000020
00000000
00002030
00000000
,  // measure 36
00013000
00000100
00001000
00010000
,  // measure 37
00200000
00000000
00000000
01000000
,  // measure 38
00320000
00000000
01000000
00000000
,  // measure 39
20030000
00000000
30200000
00000000
,  // measure 40
01300000
00100000
10000000
01000000
,  // measure 41
00100000
00000000
00000000
00000000
,  // measure 42
00000000
00000000
00000000
00000000
,  // measure 43
00010000
00000000
00010000
00000000
,  // measure 44
01000000
01000000
01000000
00000000
,  // measure 45
00001000
00000000
00010000
00000000
,  // measure 46
00001000
00100000
00001000
00000000
,  // measure 47
00010000
00000000
00001000
00000000
,  // measure 48
00010000
00000100
00010000
00000000
,  // measure 49
00000100
00000010
00000001
00000010
,  // measure 50
00000200
00000000
00001300
00000001
,  // measure 51
00002000
00000000
00003200
00000000
,  // measure 52
00020300
00000000
00032000
00000000
,  // measure 53
00013000
00100000
01000000
10000000
,  // measure 54
01000000
00010000
00100000
01000000
,  // measure 55
20000000
00000000
30020000
00000000
,  // measure 56
01030000
01000000
01000000
01000000
,  // measure 57
00100000
10000000
00100000
01000000
,  // measure 58
00010000
00100000
01000000
10000000
,  // measure 59
00020000
00000000
02030000
00000000
,  // measure 60
03002000
00000000
00000000
00010000
,  // measure 61
00013000
00000000
00000000
00000000
,  // measure 62
00010000
00000000
00000000
00000000
,  // measure 63
00000010
00000000
00000000
00000000
,  // measure 64
00001000
00000000
00000000
00000000
,  // measure 65
00000001
00000100
00001000
00010000
,  // measure 66
00010000
00000100
00001000
00000010
,  // measure 67
00000100
00001000
00100000
01000000
,  // measure 68
10000000
10000000
00010000
00020000
,  // measure 69
00030000
00000000
00000000
00000000
;

//---------------dance-double - ----------------
#NOTES:
     dance-double:
     :
     Medium:
     8:
     0.293014,0.411071,0.025532,0.468093,0.025532,241.000000,238.000000,3.000000,55.000000,0.000000,0.000000,0.293014,0.411071,0.025532,0.468093,0.025532,241.000000,238.000000,3.000000,55.000000,0.000000,0.000000:
// measure 0
00000000
00000000
00000000
00000000
,  // measure 1
00000000
00000000
00000000
00000000
,  // measure 2
00000000
00000000
00000000
00000000
,  // measure 3
00000000
00000000
00000000
00000000
,  // measure 4
00000000
00000000
00000000
00000000
,  // measure 5
20000000
00000000
00000000
00000000
,  // measure 6
30200000
00000000
00000000
00000000
,  // measure 7
00320000
00000000
00000100
00000000
,  // measure 8
00030200
00000000
00000010
00000000
,  // measure 9
00001300
00000000
00000001
00000000
00001000
00000001
00001000
00000000
,  // measure 10
00000010
00000000
00000100
00000000
00000010
00001000
00000100
00000000
,  // measure 11
00010000
00000000
00001000
00000000
00010000
00001000
00010000
00000000
,  // measure 12
00100000
00000000
01000000
00000000
00010000
00100000
01000000
00000000
,  // measure 13
10000000
01000000
10000000
01000000
,  // measure 14
00100000
00010000
01000000
00000000
00001000
00010000
00100000
00000000
,  // measure 15
01000000
00010000
01000000
00001000
,  // measure 16
00010000
00000000
00000000
00000100
00000000
00000000
00000010
00000000
00000001
00000000
00000000
00000000
00000100
00000000
00000000
00000000
,  // measure 17
00000020
00000000
00000000
00000130
,  // measure 18
00000000
00000001
00001000
00000001
,  // measure 19
00000200
00000000
00000000
00000310
,  // measure 20
00001000
00000100
00020000
00000000
,  // measure 21
00032000
00100000
00010000
00100000
,  // measure 22
02003000
00100000
00010000
00100000
,  // measure 23
03020000
00100000
10000000
00100000
,  // measure 24
02030000
00001000
03020000
00100000
,  // measure 25
00032000
00000100
00000010
00000100
,  // measure 26
00003002
00000010
00001000
00000103
,  // measure 27
00001002
00000013
00002100
00003010
,  // measure 28
00000001
00000100
00001000
00010000
,  // measure 29
02000000
10000000
00100000
00010000
,  // measure 30
23000000
00010000
30200000
01000000
,  // measure 31
02300000
00001000
00001000
00001000
,  // measure 32
03002000
00010000
00023000
00000100
,  // measure 33
00030200
00000010
00001000
00010000
,  // measure 34
00020300
00000000
00001000
00001000
,  // measure 35
00030020
00000000
00000100
00001000
,  // measure 36
00020030
00001000
00230000
01000000
,  // measure 37
20300000
00000000
00010000
00000000
,  // measure 38
30020000
00100000
00001000
00100000
,  // measure 39
02030000
00000000
03200000
00000000
,  // measure 40
10300000
01000000
00100000
00010000
01000000
00000000
01000000
00000000
,  // measure 41
00010000
00000000
00000000
00010000
00000000
00000000
00000000
00000000
00000000
00000000
00000000
00000000
00000000
00000000
00000000
00000000
,  // measure 42
00000000
00000000
00000000
00000000
,  // measure 43
10000000
00000000
00010000
00000000
,  // measure 44
01000000
01000000
01000000
00000000
,  // measure 45
00010000
10000000
00000000
00010000
10000000
00000000
01000000
00000000
,  // measure 46
00020000
00031000
00002000
01003000
,  // measure 47
00100000
00000000
00000000
00000000
00000000
00000000
00000000
00000000
01000000
00000000
00000000
00001000
00000000
00000000
00010000
00000000
,  // measure 48
00001000
00000000
00000000
00000100
00000000
00000000
00000010
00000000
00001000
00000000
00000000
00000000
00000001
00000000
00000000
00000000
,  // measure 49
00000020
00000001
00000230
00001000
,  // measure 50
00020300
00001000
00032000
00100000
,  // measure 51
02003000
00100000
10000000
00100000
,  // measure 52
03002000
00010000
00203000
00010000
,  // measure 53
00302000
00000100
00010000
00000100
,  // measure 54
00023000
00001000
01000000
00001000
,  // measure 55
00030100
00000010
00000001
00000100
,  // measure 56
00000010
00001000
00000100
00000010
00000100
00000000
00001000
00000000
,  // measure 57
00000002
00000010
00001000
00000100
,  // measure 58
00002003
00000100
00003200
00010000
,  // measure 59
00010300
00000000
00100000
00000000
01000000
00010000
00100000
01000000
,  // measure 60
10000000
00000000
00000000
10000000
00000000
00000000
10000000
00000000
00000000
00100000
00000000
00000000
00010000
00000000
10000000
00000000
,  // measure 61
02000000
00000000
03200000
00000000
,  // measure 62
00320000
00000000
00032000
00000000
,  // measure 63
00023000
00000000
02030000
00000000
,  // measure 64
23000000
00000000
30200000
00000000
,  // measure 65
01300000
00010000
00001000
00000100
,  // measure 66
00000100
00001000
00010000
01000000
,  // measure 67
00100000
10000000
01000000
00100000
00010000
00001000
00010000
01000000
,  // measure 68
00100000
00010000
00001000
00022000
,  // measure 69
00033000
00000000
00000000
00000000
;

//---------------dance-double - ----------------
#NOTES:
     dance-double:
     :
     Hard:
     13:
     0.564143,0.734055,0.161705,0.170216,0.310644,464.000000,445.000000,19.000000,20.000000,0.000000,0.000000,0.564143,0.734055,0.161705,0.170216,0.310644,464.000000,445.000000,19.000000,20.000000,0.000000,0.000000:
00000000
00000000
00000000
00000000
,
00000000
00000000
00000000
00000000
,
00000000
00000000
00000000
00000000
,
00000000
00000000
00000000
00000000
,
00000000
00000000
00000000
00000000
,
20010000
00100000
00100000
30100000
,
10020000
00100000
00100000
00130000
,
00021000
00000000
00000100
00030100
,
00001002
00000010
00001000
00000103
,
00000010
00000000
00001000
00000000
00000100
00000000
00000010
00000000
00000001
00000010
00000001
00000000
00000010
00000000
00000000
00000000
,
00000100
00000000
00010000
00000000
00001000
00000000
01000000
00000000
00010000
01000000
00010000
00000000
00100000
00000000
00000000
00000000
,
01000000
00000000
10000000
00000000
00100000
00000000
00010000
00000000
00001000
00010000
00001000
00000000
00010000
00000000
00000000
00000000
,
00000100
00000000
00000010
00000000
00000001
00000000
00000100
00000000
00001000
00010000
00001000
00000000
00010000
00000000
00000000
00000000
,
00000100
00010000
00001000
00010000
00000100
00010000
00001000
00010000
,
00100000
10000000
01000000
00000000
00100000
00001000
00010000
00000000
,
00001000
00010000
00000100
00000010
00000001
00000010
00001000
00010000
,
00000100
00000000
00000000
00001100
00000000
00000000
00000010
00000000
00000001
00000000
00000000
00000000
00000100
00000000
00000000
00000000
,
00000010
00000000
00000000
00000010
00000000
00000000
00000010
00000000
00000000
00000010
00000000
00000000
00001000
00000000
00001000
00000000
,
00000000
00000000
00000001
00000000
00000010
00000000
00000100
00000000
00001000
00000000
00000000
00000010
00000000
00000000
00010000
00000000
,
00001000
00000000
00000000
00001000
00000000
00000000
00001000
00000000
00000000
00001000
00000000
00000000
00001000
00000000
00001000
00000000
,
00000000
00000000
00010000
00000000
01000000
00000000
10000000
00000000
00100000
00000000
00000000
01000000
00000000
00000000
00010000
00000000
,
10000000
00100000
10000000
00010000
10000000
01000000
10000000
00100000
,
01000000
00010000
01000000
00100000
01000000
10000000
01000000
00100000
,
00010000
00001000
00010000
00100000
00010000
00001000
00010000
00000100
,
00001000
00000010
00001000
00000001
00000010
00000100
00000010
00000001
,
00000100
00001000
00000100
00000010
00000100
00000001
00000100
00000010
,
00001000
00000100
00000010
00001000
00010000
00000100
00001000
00000010
,
00000110
00000000
00000000
00000000
00000001
00000000
00000010
00000000
00001100
00000000
00000000
00010000
00000100
00000000
00010000
00001000
,
00010000
00000000
00001000
00000000
00100000
00000000
01000000
00000000
10000000
00010000
10000000
00010000
01000000
00100000
01000000
00100000
,
10000000
01000000
00100000
00001000
00010000
00000100
00000010
00000001
,
00000001
00000100
00001000
00010000
01000000
10000000
00100000
00010000
,
00010000
00001000
00000100
00000001
00000010
00001000
00010000
00000100
,
00001000
00010000
01000000
10000000
00010000
00100000
01000000
00010000
,
00100000
01000000
00000000
00000000
01000000
10000000
00000000
00000000
10000000
00100000
00000000
00000000
00100000
00010000
00000000
00000000
,
00010000
00001000
00000000
00000000
00001000
00010000
00000000
00000000
00010000
00000000
00000100
00000000
00000010
00000000
00000001
00000000
,
00000100
00000000
00000000
00000100
00001000
00000000
00000000
00001000
01000000
00000000
00000000
01000000
00100000
00000000
00000000
00100000
,
10000000
00000000
01000000
00000000
00100000
00000000
00010000
00000000
10000000
00010000
10000000
00000000
00100000
01000000
00100000
00000000
,
10000000
00000000
00000000
01000000
00100000
00000000
00010000
00000000
00001000
00000000
00000100
00010000
00001000
00000000
00010000
00000000
,
00000100
00000000
00000000
00000010
00001000
00000000
00010000
00000000
00000100
00010000
00000100
00000000
00001000
00000000
00000010
00000000
,
00000100
00000000
00000001
00000000
00000100
00000000
00000001
00000000
00000010
00000100
00000010
00000100
00001000
00000001
00001000
00000010
,
00001000
00000000
00000000
00010100
00000000
00000000
00001000
00000000
00000000
00010000
00000000
00000000
00100000
00000000
00100000
00000000
,
01000000
00000000
00000000
10010000
00000000
00000000
00000000
00000000
00000000
00000000
00000000
00000000
00000000
00000000
00000000
00000000
,
00000000
00000000
00000000
00000000
,
00010000
00000000
00000000
00000000
00000000
00000000
00000000
10000000
00010000
00000000
00000000
00000000
00000000
00000000
00000000
10000000
,
00010000
00000000
00000000
00000000
00010000
00000000
00000000
01000000
00010000
00000000
00000000
00000000
00010000
00000000
00000000
00000000
,
10000000
01000000
00000000
00010000
01000000
00000000
10020000
00000000
,
00130000
01000000
02000000
03001000
,
00021000
00000000
00000000
00000000
00030100
00000000
00000000
00000000
00001000
00000000
00000000
00000001
00000000
00000000
00000010
00000000
,
00000100
00000000
00000000
00000100
00000000
00000000
00000010
00000000
00001001
00000000
00000000
00000000
00000010
00000000
00000000
00000000
,
00000100
00000001
00000100
00000000
00000010
00000000
00001000
00000000
00000100
00000010
00000100
00000000
00001000
00000000
00000100
00000000
,
00010000
00001000
01000000
00000000
00100000
00000000
01000000
00000000
00010000
00100000
01000000
00000000
10000000
00000000
00100000
00000000
,
02010000
00100000
00001000
03100000
,
00021000
00130000
00002100
00003010
,
00000001
00000000
00000010
00000000
00000100
00000000
00001000
00000000
00000010
00000100
00000010
00000000
00001000
00000000
00000100
00000000
,
00000010
00000000
00001000
00000000
00010000
00000000
00000100
00000000
00010000
00001000
00010000
00000000
00001000
00000000
01000000
00000000
,
00100000
00000000
00000000
01000000
00010000
00000000
00100000
00000000
01000000
10000000
01000000
00000000
00100000
00000000
00010000
00000000
,
01000000
00010000
01000000
00000000
00100000
10000000
00100000
00000000
10000000
01000000
00100000
00010000
01000000
00100000
10000000
00010000
,
00100000
00010000
00001000
00010000
00100000
00010000
00001000
00000100
,
00010000
00001000
00010000
00000100
00001000
00000010
00000100
00000001
,
00000010
00000000
00000001
00000000
00001000
00000000
00000100
00000000
00010000
00001000
00010000
00001000
00100000
00010000
00100000
00010000
,
01000000
00000000
00000000
10100000
00000000
00000000
01000000
00000000
00000000
00100000
00000000
00000000
00001000
00000000
00010000
00000000
,
00000200
00000000
00000320
00000000
,
00002030
00000000
00023000
00000000
,
02030000
00000000
23000000
00000000
,
30200000
00000000
02300000
00000000
,
03010000
10000000
01000000
10000000
00010000
10000000
01000000
10000000
,
00100000
00010000
00001000
00010000
00100000
00010000
00001000
00010000
,
00000100
00001000
00000010
00000100
00000001
00000010
00000100
00001000
00000001
00001000
00000100
00010000
00001000
00100000
00010000
00100000
,
00001000
00101000
00110000
00022000
,
00033000
00000000
00000000
00000000
;
