#TITLE:Can't take my eyes off you;
#SUBTITLE:(12' Mix);
#ARTIST:Jessica Jay;
#TITLETRANSLIT:;
#SUBTITLETRANSLIT:;
#ARTISTTRANSLIT:;
#GENRE:;
#CREDIT:;
#BANNER:;
#BACKGROUND:Can't take my eyes off you (12' Mix)-bg.jpg;
#LYRICSPATH:;
#CDTITLE:;
#MUSIC:Can-t take my eyes off you (12-Mix).mp3;
#OFFSET:2.706000;
#SAMPLESTART:112.252975;
#SAMPLELENGTH:15.000000;
#LASTBEATHINT:3.869219;
#SELECTABLE:YES;
#BPMS:0.000000=138.000000
;
#STOPS:
;
#BGCHANGES:;
#KEYSOUNDS:;
#ATTACKS:;

//---------------dance-single - ----------------
#NOTES:
     dance-single:
     :
     Beginner:
     4:
     0.183668,0.228259,0.020626,0.006875,0.000000,187.000000,184.000000,3.000000,1.000000,0.000000,0.000000,0.183668,0.228259,0.020626,0.006875,0.000000,187.000000,184.000000,3.000000,1.000000,0.000000,0.000000:
0000
0000
0000
0000
,
0000
0000
0000
0000
,
0000
0000
0000
0000
,
0000
0000
0000
0000
,
0000
0000
0000
0000
,
0000
0000
0000
0000
,
0000
0000
0000
0000
,
0000
0000
0000
0000
,
0000
0000
0000
0000
,
0000
0000
0000
0000
,
1000
1000
0001
0001
,
0000
0000
0000
0000
,
0100
0100
0001
0001
,
0000
0000
0000
0000
,
0001
0001
0010
0010
,
0000
0000
0000
0000
,
1000
1000
0100
0100
,
0000
0000
0000
0000
,
0001
1000
0001
1000
,
0000
0010
0000
0100
,
0010
1000
0010
1000
,
0000
0001
0000
0001
,
1000
0100
1000
0100
,
0000
0010
0000
0010
,
0001
1000
0001
1000
,
0010
0000
0000
0000
,
1000
0000
1000
0000
,
1000
0000
0010
0100
,
0001
0000
0001
0000
,
0001
0000
0010
0100
,
0010
0000
0010
0000
,
0010
0000
0001
1000
,
0100
0000
0010
0000
,
0100
0000
1000
0100
,
1000
0000
1000
0000
,
1000
0000
0001
0100
,
0001
0000
0001
0000
,
0001
0000
0100
0010
,
0001
0000
0001
0000
,
0001
0000
0010
0100
,
1000
0000
1000
0000
,
1000
0000
0001
1000
,
0100
0000
1000
0000
,
0100
0000
1000
0010
,
0100
0000
0010
0000
,
0100
0000
0010
0100
,
0001
0000
0010
0000
,
0001
0000
0010
0100
,
1000
0000
1000
0000
,
0001
0000
1000
0000
,
0010
0100
0010
0000
,
1000
0000
0010
0000
,
0100
0001
0100
0000
,
0010
0000
0100
0000
,
1000
0100
1000
0000
,
0010
0000
0100
0000
,
0001
0010
0001
0000
,
0110
0000
0000
0000
,
0001
0001
0100
0100
,
0010
0010
0000
0000
,
1000
1000
0100
0100
,
1000
1000
0000
0000
,
0001
0001
0100
0100
,
0010
0010
0000
0000
,
1000
1000
0010
0010
,
1000
0000
0000
0000
,
0002
0000
0000
0000
,
0103
0000
0100
0000
,
0010
0100
0010
0100
,
0001
0000
0001
0000
,
1000
0001
1000
0001
,
0010
0000
0000
0000
,
0100
0000
0100
0000
,
1001
0000
0110
0000
,
0000
0001
0001
0001
,
1000
0000
1000
0000
,
0001
1000
0001
1000
,
0010
0000
0010
0000
,
0100
0010
0100
0010
,
1000
0000
0001
0000
,
1000
0001
0100
0000
,
0010
0000
0100
0000
,
0010
0000
0100
0010
,
1000
0000
0000
0000
;

//---------------dance-single - ----------------
#NOTES:
     dance-single:
     :
     Easy:
     7:
     0.287779,0.399453,0.247509,0.013751,0.000000,293.000000,257.000000,36.000000,2.000000,0.000000,0.000000,0.287779,0.399453,0.247509,0.013751,0.000000,293.000000,257.000000,36.000000,2.000000,0.000000,0.000000:
0000
0000
0000
0000
,
0000
0000
0000
0000
,
0000
0000
0000
0000
,
0000
0000
0000
0000
,
0000
0000
0000
0000
,
0000
0000
0000
0000
,
0000
0000
0000
0000
,
0000
0000
0000
0000
,
0000
0000
0000
0000
,
0000
0000
0000
0000
,
0001
0001
0100
0100
,
0000
0000
0000
1000
0000
1000
0000
0000
,
0010
0010
0100
0100
,
0000
0010
0000
0010
,
1000
1000
0100
0100
,
0000
0000
0000
0001
0000
0001
0000
0000
,
0010
0100
0010
0100
,
1001
0000
0000
0000
,
1100
0010
0001
0010
,
0001
0100
0001
0100
,
1010
1000
0100
1000
,
0001
0010
0001
1000
,
0110
0001
0110
1000
,
0100
0010
0001
1000
,
0110
0001
0110
1000
,
1001
0000
0000
0000
,
0001
0010
0001
0010
,
0001
1000
0001
0100
,
0010
1000
0010
0100
,
0010
1000
0100
0100
,
0010
0001
1000
0001
,
0010
0001
0010
0100
,
1000
0100
0010
0001
,
0100
0000
0010
0010
,
1001
0100
0001
0100
,
1000
0100
0001
0100
,
0001
0010
0001
0010
,
0100
1000
0100
1000
,
0010
0100
0001
0100
,
0010
1000
0010
0100
,
0001
0010
0001
1000
,
1001
0000
0001
0001
,
1010
0100
0010
0100
,
0001
0010
0100
0100
,
1000
0001
1000
0001
,
0100
0100
0010
0100
,
0010
0001
0100
1000
,
0100
0000
0001
0001
,
1000
1000
0010
0100
,
1001
0000
0100
0010
,
1001
0000
1001
0000
,
0010
0000
1000
0100
,
0011
0000
1100
0000
,
0001
0000
0001
0100
,
0010
0001
0010
0100
,
0001
0010
0100
0010
,
0001
1000
0001
1000
,
0220
0000
0330
0000
,
0101
0001
1000
1000
,
0010
0000
0000
0100
0000
0100
0000
0000
,
1001
1000
0010
0010
,
0100
0000
0000
0100
0000
0100
0000
0000
,
1001
0010
0100
0010
,
1000
0000
0000
0100
0000
0100
0000
0000
,
0011
0100
1000
0010
,
0100
0100
0100
0100
,
0110
0110
0110
0110
,
1001
0001
1000
0100
,
0010
0100
1000
0010
,
0100
0001
0100
0010
,
1000
0001
1000
0001
,
1000
1000
0001
0001
,
1000
0001
1000
0010
,
1001
0000
0010
0000
,
0000
0101
1001
1100
,
0010
0001
0010
0001
,
0100
0010
0100
0010
,
1000
0100
1000
0100
,
0001
0100
0001
0100
,
1001
0000
0000
0110
0000
0000
1001
0000
,
0000
0001
0000
0000
1000
0000
0100
0000
,
1001
0000
0000
0110
0000
0000
0000
0000
,
1000
0000
0001
1000
,
0110
0000
0000
0000
;

//---------------dance-single - ----------------
#NOTES:
     dance-single:
     :
     Medium:
     11:
     0.483233,0.513582,0.398765,0.000000,0.000000,492.000000,434.000000,58.000000,0.000000,0.000000,0.000000,0.483233,0.513582,0.398765,0.000000,0.000000,492.000000,434.000000,58.000000,0.000000,0.000000,0.000000:
0000
0000
0000
0000
,
0000
0000
0000
0000
,
0000
0000
0000
0000
,
0000
0000
0000
0000
,
0000
0000
0000
0000
,
0000
0000
0000
0000
,
0000
0000
0000
0000
,
0000
0000
0000
0000
,
0000
0000
0000
0000
,
0000
0000
0000
0000
,
0001
0100
0001
0000
0100
0001
0100
0000
,
0010
0000
0010
1000
0000
1000
0000
1000
,
0100
1000
0010
0000
1000
0010
1000
0000
,
0100
0010
0001
0000
0001
0010
0100
0000
,
1000
0010
0100
0000
0001
1000
0010
0000
,
1000
0100
0010
0000
0010
0100
1000
0000
,
0001
1000
0001
0000
1000
0001
1000
0000
,
0110
0010
0110
1001
,
1001
0100
0010
0000
1100
0010
0001
0000
,
0100
0010
1000
0001
0000
0001
0000
1000
,
1100
0010
0001
0000
0101
0010
1000
0000
,
0100
0010
0001
0000
0010
0100
1000
0000
,
0101
0010
0100
0000
1100
0010
0100
0000
,
0001
0100
0010
1000
0000
1000
0000
0100
,
0011
0100
1000
0000
1100
0010
0001
0000
,
1001
0000
0000
0000
,
1001
0100
1000
0010
0100
0000
0010
0000
,
1000
0000
0100
0000
0010
0001
0010
0001
,
0101
0100
0010
1000
0100
0000
0010
0000
,
0100
0000
0010
0000
0001
0100
0010
0100
,
1001
0010
0100
0001
1000
0000
0100
0000
,
0010
0000
0001
0000
0001
0100
0010
1000
,
0100
0001
0100
1000
0010
0001
0010
1000
,
0100
0000
0010
0000
1001
0000
0100
1000
,
1001
0010
0110
1000
,
0100
0010
0001
0000
1001
0000
0110
0000
,
0001
1000
0100
1000
0001
0100
0000
0100
,
1000
0100
0001
0000
0011
0000
1100
0000
,
1001
0000
0010
0100
0000
0100
0010
0000
,
0100
0001
1000
0000
0001
0010
0100
0000
,
1001
0000
0001
1000
0010
0100
0010
0000
,
1100
0000
0110
0000
0011
0000
1001
0010
,
0100
0001
0100
0010
1000
0100
0010
0000
,
0001
0010
0100
0000
1000
0100
0010
0000
,
0001
0100
0010
1000
0010
0100
0010
0000
,
1000
0100
1000
0000
0001
1000
0001
0000
,
0011
0000
0100
1000
0001
0000
0100
0000
,
0010
0000
0100
0000
0010
0001
0010
1000
,
0100
0001
0010
0001
0010
0001
0100
1000
,
0010
0000
1100
0000
0001
0100
0001
0000
,
1100
0000
0001
1000
0100
0000
1001
0000
,
0110
0000
0010
0100
0001
0000
0110
0000
,
0100
1000
0100
0010
0001
0100
0010
0000
,
0101
0010
1001
1001
,
0010
1000
0001
1000
0010
1000
0001
0000
,
0010
0001
1000
0001
0010
0001
1000
0000
,
0100
0010
0001
0100
0010
1000
0100
0010
,
0001
0001
1000
1000
0001
0001
1000
1000
,
0110
0001
0100
0000
1010
0100
0001
0000
,
0110
1000
0010
0100
0000
0100
0000
0001
,
1010
0100
0001
0000
0011
0100
1000
0000
,
1010
0100
0001
0010
0000
0010
0000
0100
,
1100
0010
0001
0000
0110
1000
0100
0000
,
1010
0100
0001
0100
0000
0100
0000
0010
,
1100
0010
0001
0000
1001
0010
0100
0000
,
0001
0001
1000
1000
0001
0001
1000
1000
,
0010
0010
0100
0100
0010
0010
0100
0100
,
1001
0000
0010
0100
0000
0100
0001
1000
,
0001
1000
0010
1000
0001
1000
0100
0000
,
0011
0000
0100
0010
0000
0010
0100
0000
,
0001
0100
0010
0100
1000
0100
0010
0100
,
1001
0000
0010
0100
0000
0100
0010
0000
,
0001
0100
1000
0010
0001
0100
1000
0000
,
0001
0001
0010
0010
0100
0100
1000
0000
,
0000
1100
0110
0011
,
0001
1000
0100
1000
0001
1000
0010
0000
,
0100
0001
0010
0000
0010
0100
1000
0000
,
0001
1000
0100
1000
0001
1000
0100
0000
,
0001
0100
0010
0000
0010
0100
0001
0000
,
1100
0000
0010
0001
0000
0100
0010
0000
,
0100
0001
0000
0010
0100
0000
1100
0000
,
1001
0000
0001
1000
0000
1000
0001
0000
,
0010
0100
0000
0100
0010
0000
1000
0000
,
1001
0000
0000
0000
;

//---------------dance-single - ----------------
#NOTES:
     dance-single:
     :
     Hard:
     13:
     0.622702,0.798905,0.955661,0.000000,0.085941,634.000000,495.000000,139.000000,0.000000,0.000000,0.000000,0.622702,0.798905,0.955661,0.000000,0.085941,634.000000,495.000000,139.000000,0.000000,0.000000,0.000000:
// measure 0
0000
0000
0000
0000
,  // measure 1
0000
0000
0000
0000
,  // measure 2
0000
0000
0000
0000
,  // measure 3
0000
0000
0000
0000
,  // measure 4
0000
0000
0000
0000
,  // measure 5
0000
0000
0000
0000
,  // measure 6
0000
0000
0000
0000
,  // measure 7
0000
0000
0000
0000
,  // measure 8
0000
0000
0000
0000
,  // measure 9
0000
0000
0000
0000
,  // measure 10
0101
1000
1001
0000
1010
1000
0110
0000
,  // measure 11
1000
0100
1000
0010
0000
0010
0000
1000
,  // measure 12
1001
0100
0011
0000
0101
0010
1100
0000
,  // measure 13
1000
0001
0001
0000
0001
1000
1000
0000
,  // measure 14
0101
0010
1100
0000
1100
0010
0101
0000
,  // measure 15
0001
0100
0010
1000
0000
1000
0000
1000
,  // measure 16
0110
0001
0110
0000
0110
1000
0110
0000
,  // measure 17
0001
1000
0001
1000
0001
1000
0001
1000
0001
1000
0001
1000
0001
1000
0001
1000
,  // measure 18
1010
0100
1001
0000
0011
0100
1001
0000
,  // measure 19
0110
0100
0001
1000
0010
1000
0100
1000
,  // measure 20
0011
0100
1010
0000
1010
0100
0011
0000
,  // measure 21
0010
1000
0100
0001
0100
1000
0010
0000
,  // measure 22
0101
0010
1100
0000
1100
0010
0101
0000
,  // measure 23
1000
0100
0001
0100
1000
0001
0100
0010
,  // measure 24
1001
0100
1001
0000
1001
0010
1001
0000
,  // measure 25
0110
0000
0000
0000
,  // measure 26
1001
0100
1000
0001
0100
0000
0010
0000
,  // measure 27
0100
0000
0010
0000
0001
0010
0100
1000
,  // measure 28
0010
0100
0001
1000
0010
0000
0100
0000
,  // measure 29
0010
0000
0100
0000
0001
0010
0001
0010
,  // measure 30
0100
1000
0001
0100
1000
0000
1001
0000
,  // measure 31
0100
0000
0010
0000
0001
0010
0100
0000
,  // measure 32
1100
0000
1010
0000
0100
0001
0100
1000
,  // measure 33
0100
0000
1010
0000
0001
0100
0010
0010
,  // measure 34
0101
1010
1100
0001
,  // measure 35
0100
0001
1000
0000
0001
0100
0010
0000
,  // measure 36
0011
0000
0100
1000
0100
0001
0100
0000
,  // measure 37
1010
0000
0100
0000
0010
0100
1000
0010
,  // measure 38
1001
0000
0010
0100
0000
0100
0010
0000
,  // measure 39
0001
1000
0100
0000
1000
0100
0010
0001
,  // measure 40
0010
0100
1000
0010
0100
0001
1000
0000
,  // measure 41
1001
0000
0010
0000
0110
0000
0110
0110
,  // measure 42
1001
0000
0001
0100
0010
0000
1100
0000
,  // measure 43
1000
0000
0001
0000
1000
0100
0001
0100
,  // measure 44
0001
0010
1000
0010
0100
0001
0010
0000
,  // measure 45
0100
0000
1000
0000
0001
0100
0010
0100
,  // measure 46
0001
0100
1000
0001
0100
1000
0010
0000
,  // measure 47
0001
0010
0100
0000
1000
0100
0001
0010
,  // measure 48
0001
0000
0100
0000
0001
0100
0010
0100
,  // measure 49
0010
0000
1100
0000
0001
1000
0001
0100
,  // measure 50
0110
0000
0001
0010
0110
0000
0001
0000
,  // measure 51
1010
0000
0100
1000
0001
0000
0100
0000
,  // measure 52
0001
0100
1000
0100
0001
0100
1000
0000
,  // measure 53
0001
0010
1000
0010
0001
0010
1000
0000
,  // measure 54
1100
0000
0001
0101
0000
1000
1100
0000
,  // measure 55
0001
0100
0010
0000
1000
0100
0010
0000
,  // measure 56
1001
0000
0010
0100
0010
0100
1001
0000
,  // measure 57
0001
1000
0001
1000
0001
1000
0001
1000
0001
1000
0001
1000
0001
1000
0001
1000
,  // measure 58
1001
0010
1100
0000
1100
0010
0101
0000
,  // measure 59
0011
0100
1000
0001
0000
0001
0000
1000
,  // measure 60
1010
0001
0011
0000
0011
0001
1010
0000
,  // measure 61
1100
0010
0001
0100
0000
0100
0000
0010
,  // measure 62
1001
0010
0110
0000
1001
0100
0110
0000
,  // measure 63
1001
0010
0100
0001
0000
0001
0000
1000
,  // measure 64
1001
0010
1010
0000
1001
0100
0101
0000
,  // measure 65
0001
0100
0001
0000
1000
0100
1000
0000
0001
0100
0001
0000
1000
0100
1000
0000
,  // measure 66
0001
0010
0001
0000
1000
0010
1000
0000
0001
0010
0001
0000
1000
0010
1000
0010
,  // measure 67
1001
0100
0010
0011
0100
1000
1001
0010
,  // measure 68
0110
0110
0001
0011
0100
1000
1001
0001
,  // measure 69
0110
0100
0001
1001
0010
0100
1100
1000
,  // measure 70
1001
1001
0010
0110
0100
0101
1001
0010
,  // measure 71
0110
0100
1000
1010
0010
0100
0001
0100
,  // measure 72
0110
0110
1000
1100
0001
0011
0011
0100
,  // measure 73
1001
0100
1001
0010
1001
0100
1001
0000
,  // measure 74
0010
0110
1001
0110
,  // measure 75
0101
0010
1000
1010
0100
0001
0011
0110
,  // measure 76
1100
0010
1000
1001
0010
0100
0011
0110
,  // measure 77
1001
0010
1000
1100
0001
0010
1001
1010
,  // measure 78
1100
1001
0010
0101
0010
1001
0011
0011
,  // measure 79
0110
0001
1000
1010
0100
0010
0101
0010
,  // measure 80
1000
0110
0001
0100
0110
0001
0110
1000
,  // measure 81
0110
0100
1000
0110
0010
0100
0101
0010
,  // measure 82
0100
0110
0010
1000
1100
0000
0101
0000
,  // measure 83
1001
0000
0000
0000
;

//---------------dance-double - ----------------
#NOTES:
     dance-double:
     :
     Easy:
     7:
     0.226884,0.285323,0.144380,0.000000,0.000000,231.000000,210.000000,21.000000,0.000000,0.000000,0.000000,0.226884,0.285323,0.144380,0.000000,0.000000,231.000000,210.000000,21.000000,0.000000,0.000000,0.000000:
00000000
00000000
00000000
00000000
,
00000000
00000000
00000000
00000000
,
00000000
00000000
00000000
00000000
,
00000000
00000000
00000000
00000000
,
00000000
00000000
00000000
00000000
,
00000000
00000000
00000000
00000000
,
00000000
00000000
00000000
00000000
,
00000000
00000000
00000000
00000000
,
00000000
00000000
00000000
00000000
,
00000000
00000000
00000000
00000000
,
00010000
00010000
01000000
01000000
,
00000000
00000000
00000000
00100000
00000000
00100000
00000000
00000000
,
10000000
10000000
00100000
00100000
,
00000000
00000000
00000000
00000000
,
00001000
00001000
00000100
00000100
,
00000000
00000000
00000000
00000010
00000000
00000010
00000000
00000000
,
00000001
00000001
00001000
00001000
,
00000110
00000000
00000000
00000000
,
00000001
00001000
00000100
00001000
,
00000001
00000000
00000100
00000000
,
00001000
00010000
00000100
00010000
,
00001000
00000000
00010000
00000000
,
00001000
00100000
00010000
00100000
,
00010000
00000000
10000000
00000000
,
00100000
01000000
00010000
10000000
,
01100000
00000000
00000000
00000000
,
10000000
00000000
10000000
00000000
,
00100000
00000000
00100000
01000000
,
00010000
00000000
00010000
00000000
,
00100000
00000000
00100000
00001000
,
00010000
00000000
00010000
00000000
,
00000100
00000000
00000100
00001000
,
00000010
00000100
00000001
00000010
,
00000100
00000000
00001000
00001000
,
00000001
00000000
00000001
00000000
,
00000100
00000000
00000100
00001000
,
00010000
00000000
00010000
00000000
,
00001000
00000000
00001000
00100000
,
00010000
00000000
00010000
00000000
,
01000000
00000000
01000000
00100000
,
10000000
00000000
10000000
00000000
,
00010000
00000000
10000000
00010000
,
10010000
10000000
00100000
00000000
,
00100000
00000000
00100000
01000000
,
00010000
00000000
00010000
00000000
,
00001000
00000000
00001000
00000100
,
00010000
00000000
00010000
00000000
,
00001000
00000000
00001000
00010000
,
00001000
00100000
00010000
01000000
,
00100000
00000000
10000000
00010000
,
10000000
01000000
00100000
00000000
,
00100000
00000000
00100000
00010000
,
00001000
00000000
00001000
00000000
,
00001000
00000000
00001000
00000100
,
00000010
00000000
00000010
00000000
,
00000001
00000000
00000001
00000100
,
00000010
00000000
00000010
00000000
,
00001000
00001000
00000001
00000001
,
00001001
00000000
00001001
00000000
,
00000110
00000000
00001010
00000000
,
00010100
00000000
00010100
00000000
,
00011000
00000000
00101000
00000000
,
00110000
00000000
00110000
00000000
,
01100000
00000000
10010000
00000000
,
10100000
00000000
10100000
00000000
,
00110000
00000000
00100000
00000000
,
00001000
00001000
00010000
00010000
,
00011000
00001000
00000100
00000001
,
00000010
00000001
00000010
00000001
,
00000100
00000010
00001000
00000100
,
00000010
00000010
00000100
00000100
,
00010000
00001000
00010000
00001000
,
00100000
00100000
01000000
01000000
,
10010000
00000000
00000000
00000000
,
01000000
00100000
01000000
00100000
,
10010000
01000000
00100000
00010000
,
01000000
01000000
00100000
00100000
,
00010000
00001000
00010000
00000100
,
00000010
00000010
00000001
00000001
,
00000100
00000001
00001000
00000100
,
00000010
00000001
00000100
00000100
,
00001000
00000000
00010000
00000000
,
00001000
00100000
00010000
00000000
,
00001000
00000000
00000000
00000000
;

//---------------dance-double - ----------------
#NOTES:
     dance-double:
     :
     Medium:
     10:
     0.399747,0.513582,0.446892,0.000000,0.000000,407.000000,342.000000,65.000000,0.000000,0.000000,0.000000,0.399747,0.513582,0.446892,0.000000,0.000000,407.000000,342.000000,65.000000,0.000000,0.000000,0.000000:
00000000
00000000
00000000
00000000
,
00000000
00000000
00000000
00000000
,
00000000
00000000
00000000
00000000
,
00000000
00000000
00000000
00000000
,
00000000
00000000
00000000
00000000
,
00000000
00000000
00000000
00000000
,
00000000
00000000
00000000
00000000
,
00000000
00000000
00000000
00000000
,
00000000
00000000
00000000
00000000
,
00000000
00000000
00000000
00000000
,
00010000
00010000
00100000
00100000
,
00000000
00000000
00000000
00010000
00000000
00010000
00000000
00010000
,
00100000
00100000
01000000
01000000
,
00000000
10000000
00000000
10000000
,
00100000
00100000
00010000
00010000
,
00000000
00000000
00000000
00001000
00000000
00001000
00000000
00001000
,
00010000
00010000
00000100
00000100
,
00001001
00000010
00000110
00000110
,
00000101
00001010
00001100
00010100
,
00001000
00000000
00010000
00100000
00000000
00100000
00000000
10000000
,
11000000
01100000
00110000
01100000
,
10000000
00100000
00010000
00001000
,
00001010
00000011
00001010
00000011
,
00000100
00000000
00001000
00000010
00000000
00000010
00000000
00000100
,
00000110
00001001
00010100
00011000
,
00101000
00000000
00000000
00000000
,
11000000
10000000
00100000
10000000
,
01000000
00000000
10000000
00000000
00100000
01000000
00010000
00100000
,
01000000
00010000
00001000
00010000
,
00100000
00000000
00010000
00000000
00001000
00000100
00000010
00001000
,
00000100
00000010
00000001
00000010
,
00000100
00000000
00001000
00000000
00000010
00000100
00000010
00001000
,
00000100
00000010
00001000
00010000
,
00100000
00000000
01000000
00000000
00100000
00000000
10000000
01000000
,
00100000
00010000
01000000
00100000
,
00010000
00000000
00001000
00000000
00010000
00000000
00000100
00000010
,
00000001
00000100
00001000
00010000
,
00001000
00000000
00100000
00000000
00010000
00000000
00001000
00010000
,
00100000
01000000
10000000
00100000
,
10000000
00000000
01000000
00000000
00100000
00000000
00010000
00001000
,
00000100
00010000
00001000
00010000
,
00001010
00000000
00000000
00000000
00000001
00000000
00000001
00001000
,
00000110
00000000
00000001
00001000
00000100
00000000
00010000
00000000
,
00001000
00000000
00010000
00000000
00100000
00000000
01000000
00010000
,
00100000
00000000
01000000
10000000
00100000
00000000
10000000
00000000
,
01000000
00000000
00100000
00000000
00010000
00000000
00001000
00000010
,
00000100
00000000
00000010
00001000
00000001
00000000
00000010
00000000
,
00001001
00000000
00000000
00000000
00000001
00000100
00000010
00001000
,
00000100
00000000
00000010
00000000
00000100
00001000
00000100
00000000
,
00011000
00000000
00010000
00000000
00001000
00010000
00001000
00000000
,
00110000
00000000
01000000
00100000
10000000
00000000
11000000
00000000
,
01010000
00100000
00011000
00100000
,
11000000
00000000
10000000
00010000
00100000
01000000
10000000
00000000
,
01100000
00010000
00101000
00101000
,
00001100
00000000
00000100
00000010
00000001
00000000
00001001
00000000
,
00000110
00000000
00000000
00000000
00000101
00000000
00000001
00001000
,
00000100
00010000
00001000
00010000
,
00100000
10000000
00100000
10000000
00010000
00100000
00010000
00100000
,
00101000
01010000
10100000
11000000
,
00110000
00000000
00001000
00010000
00000000
00010000
00000000
00000100
,
00010100
00001010
00001001
00000110
,
00001100
00000000
00010000
00100000
00000000
00100000
00000000
01000000
,
01010000
10100000
01010000
10100000
,
11000000
00000000
00100000
00010000
00000000
00010000
00000000
01000000
,
01100000
01010000
00101000
00010100
,
00000010
00001000
00000100
00000000
00000010
00000001
00000100
00000000
,
00000010
00001000
00000100
00000010
00000001
00000100
00000010
00000000
,
00001001
00000000
00000010
00000100
00000000
00000100
00001000
00000000
,
00010000
00100000
10000000
01000000
00100000
00010000
01000000
00000000
,
00100000
00000000
10000000
01000000
00000000
01000000
10000000
00000000
,
00100000
01000000
00010000
00100000
00001000
00010000
00100000
00000000
,
00010000
00000000
00001000
00010000
00000000
00010000
00001000
00000000
,
00010000
00001000
00000100
00001000
00010000
00000000
00001000
00000000
,
00010100
00000010
00000101
00001000
,
00000000
00000101
00001100
00011000
,
00110000
00000000
01000000
10000000
00000000
10000000
00100000
00000000
,
10000000
01000000
00100000
00010000
00000000
01000000
00100000
00000000
,
00011000
00000000
00010000
00000100
00000000
00000100
00010000
00000000
,
00001000
00010000
00000010
00000100
00000000
00000001
00000010
00000000
,
00001100
00000000
00001000
00010000
00000000
00010000
00100000
00000000
,
00100000
01000000
00000000
01000000
10000000
00000000
10000000
00000000
,
01000000
00000000
01000000
00100000
00000000
00100000
00001000
00000000
,
00001000
00010000
00000100
00000000
00001000
00000000
00000010
00000000
,
00000100
00000000
00000000
00000000
;

//---------------dance-double - ----------------
#NOTES:
     dance-double:
     :
     Hard:
     12:
     0.515645,0.570647,0.598148,0.000000,0.000000,525.000000,438.000000,87.000000,0.000000,0.000000,0.000000,0.515645,0.570647,0.598148,0.000000,0.000000,525.000000,438.000000,87.000000,0.000000,0.000000,0.000000:
00000000
00000000
00000000
00000000
,
00000000
00000000
00000000
00000000
,
00000000
00000000
00000000
00000000
,
00000000
00000000
00000000
00000000
,
00000000
00000000
00000000
00000000
,
00000000
00000000
00000000
00000000
,
00000000
00000000
00000000
00000000
,
00000000
00000000
00000000
00000000
,
00000000
00000000
00000000
00000000
,
00000000
00000000
00000000
00000000
,
01010000
10100000
01010000
10100000
,
10000000
00000000
01000000
00100000
00000000
00100000
00000000
00010000
,
01010000
00101000
01010000
00101000
,
00010000
00001000
00000100
00000000
00000010
00001000
00000100
00000000
,
00000011
00001100
00000011
00001100
,
00000001
00000000
00000100
00000010
00000000
00000010
00000000
00001000
,
00001100
00011000
00001100
00011000
,
00001000
00010000
00100000
10000000
00100000
00010000
00001000
00000100
,
00001001
00000110
00011000
00110000
,
11000000
00100000
10000000
01000000
00100000
00010000
01000000
00000000
,
01100000
00011000
00001100
00000011
,
00000001
00000100
00001000
00000100
00000001
00000100
00001000
00000000
,
00000011
00001100
00110000
11000000
,
10000000
00100000
01000000
00010000
00000000
00010000
00000000
10000000
,
11000000
00110000
00001100
00000011
,
00001001
00000000
00000000
00000000
,
00001001
00000001
00000100
00000010
00000100
00000001
00000100
00000010
,
00000100
00000001
00000100
00000010
00001000
00000100
00000010
00000100
,
00010000
00001000
00010000
00100000
00010000
00001000
00010000
01000000
,
00010000
00001000
00010000
00100000
10000000
01000000
00100000
00010000
,
00100000
01000000
00100000
00010000
00100000
10000000
00100000
00010000
,
00100000
01000000
00100000
00010000
00001000
00000100
00001000
00000010
,
00000100
00000001
00000010
00001000
00010000
00100000
10000000
01000000
,
01100000
00000000
00010000
00000000
10010000
00000000
00100000
01000000
,
10010000
00000000
00100000
00010000
00001000
00000000
00000100
00000000
,
00000001
00000000
00000010
00000000
00000001
00000100
00000010
00000000
,
00001000
00000100
00001000
00010000
00100000
01000000
10000000
00000000
,
11000000
00000000
00010000
00000000
01100000
00000000
00100000
00010000
,
00001000
00000000
00100000
00010000
00001000
00000000
00000100
00000000
,
00001010
00000000
00000100
00000000
00000001
00000100
00000010
00001000
,
00000100
00000000
00000010
00000100
00001000
00000100
00010000
00000000
,
00000100
00000000
00010000
00000000
00011000
00000000
00101000
00101000
,
00110000
01000000
10000000
01000000
00100000
00000000
00010000
01000000
,
00100000
00000000
00010000
00100000
01000000
00010000
00001000
00010000
,
00100000
00000000
00001000
00000100
00000010
00000000
00001000
00000100
,
00000010
00000000
00000001
00000010
00000100
00010000
00001000
00010000
,
00000100
00000000
00001000
00010000
00100000
00000000
00010000
10000000
,
00100000
00000000
10000000
01000000
00100000
00010000
00001000
00000010
,
00000001
00000000
00000010
00001000
00000100
00000010
00000100
00000000
,
00001001
00000000
00000010
00000100
00000010
00000000
00001100
00000000
,
00011000
00000000
00010000
00100000
01000000
00000000
10100000
00000000
,
10010000
00000000
00100000
00000000
11000000
00000000
00010000
00100000
,
01000000
00000000
10000000
00100000
00010000
00100000
01000000
00000000
,
00110000
00000000
00000000
00000000
00001100
00000000
00000010
00001000
,
00000100
00000000
00000010
00000001
00001000
00000001
00001000
00000000
,
00000110
00000000
00000001
00000010
00000100
00000000
00001000
00000001
,
00000100
00000000
00000010
00010000
00001000
00010000
00001000
00000000
,
00100000
00010000
10000000
00100000
00010000
00001000
00000100
00000001
,
00000011
00000100
00001010
00000000
00010100
00001000
00101000
00000000
,
00110000
01000000
10000000
00100000
00000000
00100000
00000000
10000000
,
10100000
01000000
01010000
00000000
00101000
00010000
00010100
00000000
,
00001010
00000100
00000001
00000010
00000000
00000010
00000000
00000100
,
00000011
00000100
00010010
00000000
00101000
00010000
01010000
00000000
,
11000000
00100000
10000000
00010000
00000000
00100000
00000000
01000000
,
10100000
01000000
00110000
00000000
00011000
00100000
00110000
00000000
,
00001000
01000000
00100000
00010000
00001000
00100000
00010000
00001000
,
00000100
00000001
00000100
00001000
00010000
00100000
10000000
00100000
,
00010000
10000000
00100000
01000000
00010000
10000000
00100000
01000000
,
00010000
00100000
01000000
00100000
00010000
00001000
00000100
00000010
,
00000001
00000100
00000010
00001000
00000001
00000100
00000010
00001000
,
00000001
00000010
00001000
00010000
00000100
00010000
00001000
00010000
,
00100000
10000000
01000000
00010000
01000000
10000000
00100000
01000000
,
00010000
00100000
01000000
00100000
00010000
00001000
00010000
00000000
,
00101000
00010000
00010100
00001000
,
00000000
00001100
00110000
00001100
,
00110000
00100000
01000000
10000000
00100000
10000000
01000000
00100000
,
00010000
01000000
00000000
01100000
00000000
00010000
00100000
01000000
,
00100000
00001000
00010000
00000010
00000100
00000001
00000010
00000000
,
00000100
00001000
00000000
00001001
00000000
00000010
00000100
00000000
,
00001100
00000000
00001000
00010000
00000000
00100000
00010000
00000000
,
00001000
00000100
00000000
00010000
00100000
00000000
00110000
00000000
,
00011000
00000000
00000100
00001000
00000000
00010000
01000000
00000000
,
00100000
10000000
01000000
00000000
00110000
00000000
00101000
00000000
,
00011000
00000000
00000000
00000000
;
